<?xml version="1.0" standalone="no"?>
<!DOCTYPE svg PUBLIC "-//W3C//DTD SVG 1.1//EN" "http://www.w3.org/Graphics/SVG/1.1/DTD/svg11.dtd" >
<svg xmlns="http://www.w3.org/2000/svg">
<metadata></metadata>
<defs>
<font id="brandon_textblack_italic" horiz-adv-x="1228" >
<font-face units-per-em="2048" ascent="1434" descent="-614" />
<missing-glyph horiz-adv-x="491" />
<glyph unicode="&#xfb01;" horiz-adv-x="1267" d="M61 -440l148 1112h-94q-17 0 -26 13t-7 32l24 184q1 20 14.5 32.5t31.5 12.5h96l8 49q36 217 176 338t369 121q87 0 179.5 -30t141.5 -66q33 -30 11 -66l-107 -162q-25 -39 -74 -14q-73 43 -168 43q-172 0 -204 -168l-9 -45h590q18 0 28 -12.5t7 -32.5l-115 -856 q-3 -19 -16.5 -32t-30.5 -13h-239q-18 0 -26.5 12.5t-6.5 32.5l84 627h-314l-151 -1112q-1 -19 -15.5 -33t-31.5 -14h-240q-17 0 -26 13.5t-7 33.5z" />
<glyph unicode="&#xfb02;" horiz-adv-x="1318" d="M61 -440l150 1112h-102q-15 0 -24.5 13t-6.5 32l26 184q1 20 14.5 32.5t31.5 12.5h100l6 39q36 230 161 349.5t322 119.5q64 0 124.5 -14.5t101.5 -35t72 -41.5t46 -35l15 -15l49 96q13 25 41 25h96q15 0 24.5 -13t6.5 -32l-189 -1344q-1 -19 -15.5 -32t-31.5 -13h-237 q-17 0 -27 13t-8 32l147 1034q-28 30 -77 55t-105 25q-95 0 -139.5 -52t-59.5 -149l-2 -12h140q17 0 26.5 -12.5t7.5 -32.5l-28 -184q-1 -18 -15 -31.5t-30 -13.5h-142l-149 -1112q-1 -19 -15.5 -33t-31.5 -14h-240q-17 0 -26 13.5t-7 33.5z" />
<glyph horiz-adv-x="0" />
<glyph horiz-adv-x="0" />
<glyph horiz-adv-x="682" />
<glyph unicode="&#xd;" horiz-adv-x="0" />
<glyph unicode=" "  horiz-adv-x="491" />
<glyph unicode="&#x09;" horiz-adv-x="491" />
<glyph unicode="&#xa0;" horiz-adv-x="491" />
<glyph unicode="!" horiz-adv-x="559" d="M31 150q0 87 66 153t149 66q71 0 119.5 -51.5t48.5 -122.5q0 -87 -67.5 -151t-153.5 -64q-68 0 -115 50t-47 120zM180 1161l33 234q1 15 13 27t26 12h293q13 0 22.5 -12t7.5 -27l-32 -230l-185 -575q-3 -12 -15 -22.5t-24 -10.5h-88q-12 0 -21 10.5t-9 22.5z" />
<glyph unicode="&#x22;" horiz-adv-x="772" d="M156 1065l47 330q1 15 13 27t26 12h219q18 0 25.5 -15.5t0.5 -36.5l-141 -325q-16 -31 -39 -31h-123q-13 0 -21.5 12t-6.5 27zM500 1065l47 330q1 15 13 27t26 12h219q19 0 27 -15t-1 -37l-141 -325q-5 -12 -16 -21.5t-23 -9.5h-123q-13 0 -21.5 12t-6.5 27z" />
<glyph unicode="#" horiz-adv-x="1087" d="M74 418l4 35q1 17 13.5 28t27.5 11h143l90 329h-135q-13 0 -22 12t-7 27l5 35q1 15 13.5 27t26.5 12h148l125 467q3 12 14 22.5t23 10.5h37q14 0 22 -13.5t4 -31.5l-119 -455h299l123 467q3 12 15 22.5t24 10.5h35q17 0 25.5 -13t3.5 -32l-119 -455h106q14 0 22.5 -11.5 t6.5 -27.5l-4 -35q-1 -15 -14 -27t-27 -12h-123l-86 -329h111q14 0 21.5 -11t6.5 -28l-4 -35q-1 -15 -15 -27t-28 -12h-125l-90 -346q-3 -14 -14.5 -23.5t-24.5 -9.5h-32q-17 0 -25.5 13t-3.5 32l88 334h-303l-88 -346q-3 -13 -15 -23t-24 -10h-33q-18 0 -26 13t-3 32 l86 334h-131q-14 0 -22 11.5t-6 27.5zM369 492h301l86 329h-299z" />
<glyph unicode="$" d="M116 162.5q-1 8.5 13 32.5l109 155q12 19 34.5 21t30.5 -9q28 -25 44 -37.5t62 -32t99 -24.5l45 316q-11 9 -50.5 38.5t-56 43t-51.5 44t-52 51t-42 54t-37 62.5t-21.5 67t-9.5 78q0 81 28 154.5t81 134t139.5 98.5t194.5 43l10 66q3 17 16 27.5t29 10.5h19 q15 0 24 -10.5t6 -27.5l-10 -68q179 -17 338 -145q15 -12 19.5 -34t-7.5 -36l-125 -152q-12 -14 -32.5 -17t-32.5 7q-29 24 -45.5 36.5t-60 32.5t-93.5 29l-41 -274q13 -10 47 -33.5t56 -39t56.5 -44t57.5 -52t49.5 -58t42.5 -68t26.5 -76.5t10.5 -88q0 -87 -30.5 -166 t-88 -142.5t-150 -103.5t-206.5 -44l-29 -213q-1 -15 -14.5 -26t-28.5 -11h-18q-15 0 -25.5 11t-9.5 26l31 213q-192 16 -338 155q-12 17 -13 25.5zM545 1067q0 -70 61 -125l35 240q-49 -10 -72.5 -42t-23.5 -73zM598 258q44 14 71 50.5t27 90.5q0 67 -61 131z" />
<glyph unicode="%" horiz-adv-x="1304" d="M159 17.5q-7 17.5 5 37.5l827 1358q11 21 35 21h121q20 0 27 -18t-5 -38l-827 -1358q-15 -20 -33 -20h-121q-22 0 -29 17.5zM172 1143q0 130 83.5 220.5t207.5 90.5q88 0 150.5 -69t62.5 -168q0 -130 -84.5 -222t-204.5 -92q-89 0 -152 70t-63 170zM371 1165 q0 -28 11.5 -45.5t33.5 -17.5q27 0 43 24.5t16 63.5q0 65 -45 65q-27 0 -43 -26t-16 -64zM668 219q0 130 83 220.5t207 90.5q88 0 150.5 -69t62.5 -168q0 -130 -84 -221.5t-204 -91.5q-89 0 -152 69.5t-63 169.5zM866 242q0 -28 11.5 -46t33.5 -18q27 0 43.5 24.5t16.5 63.5 q0 66 -45 66q-27 0 -43.5 -26t-16.5 -64z" />
<glyph unicode="&#x26;" horiz-adv-x="1345" d="M68 346q0 71 27 137.5t76 121.5t105.5 99.5t126.5 83.5v7l-34 43q-52 68 -77.5 127t-25.5 131q0 163 117 260.5t303 97.5q155 0 250.5 -88.5t95.5 -235.5q0 -67 -28 -131t-67.5 -107.5t-79 -77.5t-67.5 -50l-28 -16l160 -195q53 74 90 164q7 16 11 25t12 20t15.5 14.5 t19.5 3t26 -7.5l131 -67q12 -6 19 -15t9.5 -15.5t1 -18t-3 -16t-7 -17t-5.5 -13.5q-28 -64 -69.5 -129t-69.5 -100l-27 -35l139 -158q14 -17 18 -25t-2.5 -26.5t-33.5 -42.5l-102 -90q-45 -41 -86 6l-107 123q-7 -6 -21 -16.5t-59 -37t-93.5 -46.5t-122.5 -36.5t-148 -16.5 q-100 0 -188 43t-144.5 128.5t-56.5 194.5zM356 397q0 -72 44 -114.5t114 -42.5q43 0 82 10.5t64 25.5t44 30t27 26l8 10l-207 281q-72 -37 -124 -99t-52 -127zM526 1114q0 -18 3 -33.5t13 -33.5t14 -25t20 -29t18 -24l37 -45q57 25 104 74t47 110q0 49 -35 83t-92 34 q-54 0 -91.5 -32t-37.5 -79z" />
<glyph unicode="'" horiz-adv-x="425" d="M156 1065l47 330q1 15 13 27t26 12h217q18 0 25.5 -15.5t0.5 -36.5l-141 -325q-16 -31 -39 -31h-121q-13 0 -21.5 12t-6.5 27z" />
<glyph unicode="(" horiz-adv-x="665" d="M76 422q0 179 20.5 327t54.5 251.5t83.5 183.5t102 128t115.5 79.5t118 44.5t116 16q15 1 24 -10t7 -27l-17 -174q-2 -11 -11 -23.5t-19 -15.5q-58 -21 -106.5 -70.5t-90.5 -136.5t-66 -230.5t-24 -330.5q0 -290 131 -346q9 -4 14.5 -16t3.5 -23l-30 -172q-7 -39 -43 -39 q-57 4 -108.5 23.5t-103 63t-88.5 107t-60 164t-23 226.5z" />
<glyph unicode=")" horiz-adv-x="669" d="M-35 -125l19 176q4 28 30 37q59 22 107 71t90 135.5t66 229t24 328.5q0 139 -32 233t-99 119q-10 3 -16.5 14.5t-3.5 24.5l32 172q3 15 16.5 26.5t28.5 10.5q56 -4 107.5 -24t102.5 -64t88 -107.5t60 -163.5t23 -225q0 -182 -21 -331.5t-54.5 -253t-83.5 -182.5 t-101.5 -125.5t-115.5 -77.5t-117 -43t-115 -17q-15 0 -25.5 11t-9.5 26z" />
<glyph unicode="*" horiz-adv-x="858" d="M161.5 941q3.5 17 18.5 26l180 104l-147 107q-11 8 -12.5 24.5t8.5 30.5l61 72q9 11 21.5 13t23.5 -5l125 -105l23 187q1 15 13 27t26 12h86q14 0 23.5 -12t6.5 -27l-28 -187l155 105q12 7 26 4t20 -14l38 -70q8 -12 2.5 -30t-20.5 -27l-176 -105l145 -106 q12 -9 13.5 -26.5t-9.5 -27.5l-63 -71q-27 -27 -47 -11l-123 103l-25 -182q-2 -15 -14 -27t-25 -12h-86q-14 0 -23.5 12t-6.5 27l30 184l-153 -105q-12 -8 -25.5 -4t-19.5 15l-37 71q-8 13 -4.5 30z" />
<glyph unicode="+" d="M215 639l21 143q2 15 13.5 27t24.5 12h261l43 301q1 15 13.5 26t26.5 11h158q13 0 22 -11t7 -26l-43 -301h260q13 0 22 -12t7 -27l-21 -143q-2 -15 -14 -27t-25 -12h-260l-41 -299q-3 -15 -15 -26t-26 -11h-157q-14 0 -23 11t-6 26l41 299h-260q-13 0 -22 12t-7 27z" />
<glyph unicode="," horiz-adv-x="591" d="M8 164q0 98 72.5 168.5t175.5 70.5q91 0 148 -58t57 -173q0 -283 -260 -588q-27 -30 -56 -4l-73 58q-12 12 -9.5 27.5t17.5 31.5q54 67 109.5 167.5t56.5 162.5q-39 -25 -90 -25q-72 0 -110 45t-38 117z" />
<glyph unicode="-" horiz-adv-x="702" d="M76 401l24 187q1 17 13.5 28t27.5 11h430q15 0 23 -11t6 -28l-25 -187q-1 -15 -13 -25.5t-27 -10.5h-431q-15 0 -22.5 10t-5.5 26z" />
<glyph unicode="." horiz-adv-x="567" d="M10 172q0 100 77 177t175 77q79 0 135 -59.5t56 -141.5q0 -99 -78.5 -173.5t-175.5 -74.5q-80 0 -134.5 58t-54.5 137z" />
<glyph unicode="/" horiz-adv-x="831" d="M21 14.5q-7 14.5 2 36.5l550 1356q12 27 39 27h209q20 0 27 -15t-2 -37l-549 -1355q-12 -27 -39 -27h-211q-19 0 -26 14.5z" />
<glyph unicode="0" horiz-adv-x="1234" d="M131 543q0 275 71 480t208 318t325 113q185 0 296.5 -151t111.5 -406q0 -274 -73 -481.5t-210.5 -321.5t-320.5 -114q-186 0 -297 153t-111 410zM455 557q0 -114 34 -185t86 -71q108 0 176 159t68 421q0 115 -33.5 182t-87.5 67q-107 0 -175 -153.5t-68 -419.5z" />
<glyph unicode="1" horiz-adv-x="784" d="M133 1030l23 141q4 19 20 31l281 207q36 25 73 25h160q13 0 21 -12t6 -27l-191 -1354q-1 -17 -13 -29t-26 -12h-241q-15 0 -23.5 12t-5.5 29l133 948h-192q-14 0 -21.5 12t-3.5 29z" />
<glyph unicode="2" horiz-adv-x="1064" d="M8 41q3 30 6 37.5t19 27.5l540 691q66 86 91.5 139t25.5 100q0 60 -38 93.5t-91 33.5q-103 0 -190 -106q-12 -12 -28.5 -12t-25.5 12l-122 139q-9 9 -7.5 26t13.5 29q6 8 18 22t52 49t84 61.5t113.5 48.5t141.5 22q185 0 291.5 -107t106.5 -282q0 -168 -177 -401 l-290 -394h303q13 0 21.5 -12t6.5 -29l-24 -188q-1 -17 -15 -29t-28 -12h-768q-15 0 -23 11.5t-6 29.5z" />
<glyph unicode="3" horiz-adv-x="1060" d="M29 195q3 15 14 24l131 125q10 10 25 10t26 -10q21 -20 32 -29t34.5 -25t50.5 -23t59 -7q86 0 136.5 54t50.5 132q0 65 -49.5 109.5t-130.5 44.5h-105q-13 0 -22 12t-7 27l23 176q1 17 12.5 28t26.5 11h108q96 0 152.5 52t56.5 132q0 58 -32 97t-82 39q-38 0 -72.5 -16.5 t-50 -30.5t-37.5 -37q-10 -13 -26 -14.5t-25 9.5l-117 142q-10 12 -7 28t15 27q172 172 389 172q154 0 263.5 -96.5t109.5 -241.5q0 -77 -23.5 -143.5t-62.5 -113t-78.5 -77t-83.5 -51.5v-6q69 -34 127 -115t58 -188q0 -93 -33.5 -173.5t-97 -140.5t-160.5 -94t-217 -34 q-77 0 -144.5 20.5t-113.5 53.5t-73.5 59.5t-45.5 52.5q-7 14 -4 29z" />
<glyph unicode="4" horiz-adv-x="1222" d="M31 338l24 182q6 42 33 72l743 844q15 18 50 18h145q14 0 24 -12t7 -29l-119 -860h149q14 0 22 -11t7 -28l-22 -174q-2 -15 -15 -28t-28 -13h-150l-33 -258q-1 -17 -14.5 -29t-28.5 -12h-231q-14 0 -23.5 12t-5.5 29l35 256h-539q-15 0 -23.5 11.5t-6.5 29.5zM379 559 h264l53 373h-4l-313 -369v-4z" />
<glyph unicode="5" horiz-adv-x="1089" d="M55.5 192.5q0.5 13.5 22.5 32.5q41 41 135 121q9 9 24.5 9t24.5 -9q1 -1 15 -13.5t16 -14t15 -11.5t17.5 -12t17 -9.5t21 -9.5t21 -6t25.5 -5t28 -1q99 0 162.5 65t63.5 165q0 74 -42.5 123t-111.5 49h-287q-27 0 -39.5 23t-9.5 52l94 654q2 15 14 27t27 12h621 q13 0 21.5 -12t6.5 -27l-24 -187q-1 -15 -14.5 -27t-28.5 -12h-373l-31 -227h117q165 0 268 -118t103 -294q0 -117 -35 -216.5t-101.5 -174t-170.5 -117t-234 -42.5q-120 0 -220.5 57t-141.5 117q-17 25 -16.5 38.5z" />
<glyph unicode="6" horiz-adv-x="1112" d="M102 446q0 149 34.5 283t90 232t130 182t149 139t152 97t133.5 63t100 31q40 7 49 -35l37 -158q13 -40 -43 -61q-355 -112 -432 -338q82 39 176 39q128 0 224.5 -109.5t96.5 -280.5q0 -151 -66.5 -277t-183 -199.5t-257.5 -73.5q-177 0 -283.5 132t-106.5 334zM395 473 q-9 -83 30 -143t101 -60q90 0 141.5 67t51.5 165q0 74 -36 125t-99 51q-76 0 -126.5 -52t-62.5 -153z" />
<glyph unicode="7" horiz-adv-x="1019" d="M14 37q6 28 17 47l604 1077v4h-402q-13 0 -22.5 12t-7.5 27l26 191q1 15 14.5 27t28.5 12h809q14 0 23 -12t6 -27q-2 -12 -20 -45l-760 -1325q-14 -25 -43 -25h-240q-18 0 -27 10t-6 27z" />
<glyph unicode="8" horiz-adv-x="1169" d="M82 334q0 67 27 132t63.5 109.5t81 84t71.5 57t44 26.5v7q-58 40 -105 113t-47 167q0 190 132.5 307t340.5 117q164 0 282 -93.5t118 -242.5q0 -215 -244 -381l-2 -8q31 -21 59 -47t58.5 -64.5t48.5 -90t18 -107.5q0 -190 -142 -315t-382 -125q-183 0 -302.5 101 t-119.5 253zM426 381q0 -55 30.5 -89t80.5 -34q59 0 105 48.5t46 121.5q0 48 -26.5 92.5t-77.5 63.5q-72 -26 -115 -82t-43 -121zM532 1024q0 -41 26 -79.5t69 -61.5q65 30 103 78.5t38 105.5q0 50 -26 81.5t-70 31.5q-58 0 -99 -42t-41 -114z" />
<glyph unicode="9" horiz-adv-x="1112" d="M154 909q0 150 66.5 275t183.5 197.5t258 72.5q176 0 281.5 -130t105.5 -333q0 -149 -34.5 -282.5t-90 -231.5t-130 -182t-148 -139t-151.5 -97.5t-134.5 -64t-100.5 -31.5q-16 -3 -29.5 6.5t-17.5 30.5l-39 156q-10 44 45 61q357 123 432 342q-82 -41 -178 -41 q-127 0 -223 110t-96 281zM434 936q0 -73 37.5 -123.5t97.5 -50.5q71 0 129 67t58 172q0 70 -33 116t-98 46q-81 0 -136 -66t-55 -161z" />
<glyph unicode=":" horiz-adv-x="550" d="M37 141q0 87 61.5 150t145.5 63q65 0 109 -49t44 -117q0 -86 -62.5 -148.5t-144.5 -62.5q-65 0 -109 48t-44 116zM123 756q0 85 62.5 148t142.5 63q68 0 111.5 -47.5t43.5 -116.5q0 -87 -62 -149t-145 -62q-68 0 -110.5 47t-42.5 117z" />
<glyph unicode=";" horiz-adv-x="569" d="M43 109q0 79 58 137.5t143 58.5q73 0 119.5 -48t46.5 -140q0 -224 -211 -475q-20 -22 -47 -2l-60 45q-19 14 8 49q50 63 89.5 136t46.5 130q-30 -20 -74 -20q-58 0 -88.5 36t-30.5 93zM121 756q0 85 63 148t144 63q68 0 111.5 -47.5t43.5 -116.5q0 -87 -63 -149t-146 -62 q-67 0 -110 47t-43 117z" />
<glyph unicode="&#x3c;" d="M209 465l2 14q2 16 22 31l711 434q19 11 34.5 3t12.5 -29l-30 -195q-3 -19 -19 -29l-367 -231l304 -223q13 -8 10 -27l-21 -170q-3 -25 -20.5 -35t-34.5 2l-590 420q-17 12 -14 35z" />
<glyph unicode="=" d="M217 285l21 145q2 15 13.5 27t24.5 12h642q15 0 23.5 -11.5t6.5 -27.5l-20 -145q-2 -15 -14 -27t-27 -12h-641q-14 0 -23 12t-6 27zM276 717l21 143q1 15 14 27t27 12h641q14 0 22.5 -11.5t6.5 -27.5l-21 -143q-2 -15 -13 -27t-26 -12h-641q-13 0 -23 12t-8 27z" />
<glyph unicode="&#x3e;" d="M209 37l29 194q3 22 18 29l365 223l-302 232q-13 9 -10 26l23 170q3 24 21.5 34.5t33.5 -1.5l588 -434q17 -10 14 -31l-2 -18q-3 -20 -22 -31l-709 -420q-17 -11 -33.5 -2.5t-13.5 29.5z" />
<glyph unicode="?" horiz-adv-x="978" d="M180.5 1258.5q2.5 16.5 14.5 27.5q24 23 36 33.5t55 41t82 47t102.5 31.5t131.5 15q136 0 240 -88.5t104 -220.5q0 -71 -33 -138t-80.5 -116t-96 -91.5t-85 -82t-41.5 -70.5l-8 -51q-3 -17 -14.5 -28t-26.5 -11h-227q-14 0 -23 11t-6 28l12 86q7 50 41.5 98t77.5 85.5 t85.5 74t71 78t28.5 82.5q0 35 -25.5 58.5t-65.5 23.5q-88 0 -178 -80q-32 -28 -53 -4l-111 133q-10 11 -7.5 27.5zM205 150q0 87 66 153t149 66q71 0 119.5 -51.5t48.5 -122.5q0 -87 -67.5 -151t-153.5 -64q-68 0 -115 50t-47 120z" />
<glyph unicode="@" horiz-adv-x="1941" d="M90 334q0 235 79.5 442.5t217 356.5t332.5 235t418 86q166 0 302.5 -56.5t228 -158t141 -242t49.5 -307.5q0 -182 -63.5 -329.5t-183.5 -233.5t-276 -86q-93 0 -147.5 44.5t-73.5 115.5h-14q-43 -69 -114.5 -114.5t-156.5 -45.5q-128 0 -208 110.5t-80 260.5 q0 129 56.5 242t152.5 180t206 67q44 0 82 -13t61 -31.5t39.5 -37.5t23.5 -32l7 -13l35 78q16 29 45 29h84q14 0 23 -11t8 -28l-49 -344q-28 -201 69 -201q55 0 100 62t67 149.5t22 175.5q0 110 -29 202t-86.5 162t-150 109t-211.5 39q-214 0 -381.5 -106t-261 -296.5 t-93.5 -433.5q0 -193 88.5 -352.5t237.5 -232.5q10 -7 14.5 -20t-0.5 -27l-84 -168q-22 -36 -49 -25q-139 54 -248.5 178.5t-169 287.5t-59.5 333zM795 428q0 -53 29 -89t69 -36q51 0 96.5 62.5t46.5 152.5q1 65 -29 101t-73 36q-54 0 -96.5 -66.5t-42.5 -160.5z" />
<glyph unicode="A" horiz-adv-x="1257" d="M-70 16q-3 7 -3 14q0 11 7 23l777 1379q15 22 34 22h19q22 0 29 -22l385 -1379q2 -7 2 -13q0 -12 -8 -24q-12 -16 -33 -16h-232q-29 0 -44 11t-21 40l-35 162h-453l-80 -164q-22 -49 -81 -49h-234q-21 0 -29 16zM500 492h229l-63 342h-2z" />
<glyph unicode="B" horiz-adv-x="1159" d="M84 39l190 1356q2 15 13 27t26 12h435q150 0 251 -97.5t101 -240.5q0 -66 -24.5 -127t-65 -106t-85 -78t-91.5 -54v-4q204 -97 204 -293q0 -122 -60.5 -221.5t-166 -156t-233.5 -56.5h-465q-15 0 -23 12q-6 9 -7 19q0 4 1 8zM438 293h105h3q78 0 118 49q41 50 41 135 q0 47 -26.5 78t-72.5 31h-127zM514 852h96q67 0 107.5 48t40.5 134q0 47 -21.5 76t-58.5 29h-123z" />
<glyph unicode="C" horiz-adv-x="1273" d="M100 625q0 231 99 420.5t275.5 299t393.5 109.5q267 0 430 -190q7 -10 7 -23v-6q-2 -17 -15 -29l-176 -155q-25 -22 -47 0q-38 43 -98.5 68.5t-122.5 25.5q-103 0 -193.5 -67t-144 -179t-53.5 -240q0 -149 76.5 -250.5t199.5 -101.5q51 0 116.5 30.5t121.5 76.5 q11 9 26 8t23 -10l139 -185q8 -13 4.5 -28.5t-14.5 -26.5q-206 -192 -463 -192q-114 0 -221 50.5t-187 136.5t-128 206t-48 252z" />
<glyph unicode="D" horiz-adv-x="1388" d="M84 39l190 1356q2 15 14 27t25 12h457q157 0 286 -90t199 -232t70 -301q0 -164 -58 -313.5t-157.5 -259t-240.5 -174t-300 -64.5h-458q-13 0 -21 12q-6 9 -7 19q0 4 1 8zM442 303h154q162 0 274.5 135.5t112.5 347.5q0 156 -73 251.5t-197 95.5h-154z" />
<glyph unicode="E" horiz-adv-x="1099" d="M84 39l190 1356q2 15 14 27t25 12h772q15 0 24 -12q7 -10 7 -22v-5l-33 -224q-2 -15 -13 -26.5t-26 -11.5h-487l-37 -254h398q13 0 22.5 -12t7.5 -27l-33 -224q-3 -17 -15 -27.5t-26 -10.5h-395l-39 -277h488q14 0 22 -11.5t6 -27.5l-30 -223q-2 -15 -14 -27t-27 -12 h-772q-15 0 -23 12q-6 9 -7 19q0 4 1 8z" />
<glyph unicode="F" horiz-adv-x="1060" d="M84 39l190 1356q2 15 14 27t25 12h772q15 0 24 -12q7 -10 7 -22v-5l-33 -224q-2 -15 -13 -26.5t-26 -11.5h-487l-41 -295h395q13 0 23 -12t8 -27l-33 -224q-1 -15 -13 -26.5t-26 -11.5h-397l-70 -498q-3 -15 -15.5 -27t-25.5 -12h-249q-15 0 -23 12q-6 9 -7 19q0 4 1 8z " />
<glyph unicode="G" horiz-adv-x="1335" d="M102 633q0 224 98 411.5t275 298.5t395 111q112 0 228 -51.5t196 -140.5q11 -10 11 -25q0 -18 -13 -31l-168 -166q-12 -12 -28 -12t-25 10q-42 42 -100.5 66t-120.5 24q-98 0 -188.5 -64t-146.5 -173.5t-56 -233.5q0 -145 79 -247.5t199 -102.5q81 0 131 33l17 119h-94 q-15 0 -24 11t-7 26l28 202q3 17 14.5 28t26.5 11h383q13 0 22 -12t7 -27l-76 -551q-2 -19 -20 -32q-9 -5 -24.5 -14.5t-66 -32.5t-103 -41t-130 -32.5t-151.5 -14.5q-156 0 -286.5 87t-206 237.5t-75.5 328.5z" />
<glyph unicode="H" horiz-adv-x="1443" d="M84 39l190 1356q1 15 14 27t27 12h250q15 0 24 -12t7 -27l-74 -516h479l72 516q2 15 14 27t27 12h252q13 0 23 -12t8 -27l-191 -1356q-1 -15 -14 -27t-27 -12h-254q-14 0 -22 11.5t-6 27.5l75 539h-477l-75 -539q-3 -16 -14.5 -27.5t-26.5 -11.5h-252q-13 0 -22 12 q-7 10 -7 22v5z" />
<glyph unicode="I" horiz-adv-x="645" d="M84 39l190 1356q2 15 14 27t25 12h256q13 0 22 -12q7 -10 8 -22q0 -3 -1 -5l-190 -1356q-2 -15 -14 -27t-25 -12h-256q-13 0 -22 12q-7 10 -7 22v5z" />
<glyph unicode="J" horiz-adv-x="862" d="M-35 129q-6 9 -6 19q0 16 14 32l136 133q25 25 47 0q35 -39 80 -39q47 0 83 44.5t48 125.5l131 951q2 15 13 27t26 12h256q15 0 25 -12q7 -10 7 -22v-5l-137 -967q-32 -227 -143 -337.5t-303 -110.5q-60 0 -111 16.5t-84 43.5t-51 47.5t-31 41.5z" />
<glyph unicode="K" horiz-adv-x="1277" d="M86 49l188 1335q3 21 17.5 35.5t34.5 14.5h247q19 0 30.5 -15t8.5 -35l-75 -538l426 567q14 21 36 21h297q26 0 34 -26q3 -8 3 -17q0 -17 -12 -33l-490 -623l340 -676q11 -22 -6 -40.5t-35 -18.5h-282q-29 0 -41 27l-297 632l-86 -610q-1 -20 -16.5 -34.5t-34.5 -14.5 h-248q-21 0 -31 14q-9 12 -8 28v7z" />
<glyph unicode="L" horiz-adv-x="974" d="M84 39l190 1356q2 15 14 27t27 12h254q13 0 22 -12t7 -27l-154 -1094h418q14 1 22 -11q7 -9 8 -22q0 -3 -1 -6l-31 -223q-2 -15 -14 -27t-27 -12h-704q-15 0 -24 12q-7 10 -7 22v5z" />
<glyph unicode="M" horiz-adv-x="1665" d="M18 45l394 1376q11 33 39 33h28q22 0 29 -20l301 -885h4l582 885q13 20 35 20h30q11 0 19 -10t8 -23l10 -1376q0 -19 -13.5 -32t-29.5 -13h-252q-12 0 -21.5 10.5t-9.5 22.5l23 633h-4l-391 -664q-15 -22 -35 -22h-33q-22 0 -29 22l-206 664h-4l-152 -633q-3 -13 -14 -23 t-27 -10h-252q-15 0 -25 13q-6 8 -6 18q0 7 2 14z" />
<glyph unicode="N" horiz-adv-x="1443" d="M86 35l193 1382q1 15 13.5 26t26.5 11h13q15 0 20.5 -0.5t13.5 -5.5t17 -16l592 -768h2l98 731q2 15 13 27t26 12h250q14 0 24 -11t9 -24l-193 -1383q-1 -15 -13 -25.5t-26 -10.5h-22q-14 0 -19 1t-12.5 7t-17.5 20l-590 787h-2l-92 -756q-3 -16 -14.5 -27.5t-26.5 -11.5 h-252q-12 0 -22 11t-9 24z" />
<glyph unicode="O" horiz-adv-x="1501" d="M98 614q0 171 61 326.5t164 268t245.5 179t299.5 66.5q156 0 287.5 -86t208 -233.5t76.5 -321.5q0 -227 -102 -418.5t-279.5 -303t-388.5 -111.5q-155 0 -286.5 84.5t-208.5 230.5t-77 319zM434 657q0 -145 78.5 -247.5t198.5 -102.5q109 0 200 63.5t142 170.5t51 233 q0 147 -79 249.5t-200 102.5q-107 0 -197.5 -64t-142 -172t-51.5 -233z" />
<glyph unicode="P" horiz-adv-x="1120" d="M84 39l190 1356q2 15 14 27t27 12h451q151 0 252.5 -120t101.5 -286q0 -134 -64 -251t-175.5 -187t-241.5 -70h-168l-68 -481q-1 -15 -14 -27t-27 -12h-249q-15 0 -23 12q-7 9 -6 21v6zM514 819h148q55 0 98 55t43 132q0 54 -27.5 90.5t-68.5 36.5h-150z" />
<glyph unicode="Q" horiz-adv-x="1501" d="M100 614q0 171 61 326.5t164 268t245.5 179t299.5 66.5q156 0 287.5 -86t208 -233.5t76.5 -321.5q0 -243 -116.5 -443t-309.5 -304l182 -410q9 -22 -3 -42t-34 -20h-276q-19 0 -27 21l-143 367q-7 0 -21.5 -1t-21.5 -1q-155 0 -286.5 84.5t-208.5 230.5t-77 319zM434 657 q0 -145 78.5 -247.5t198.5 -102.5q109 0 200 63.5t142 170.5t51 233q0 147 -79 249.5t-200 102.5q-107 0 -197.5 -64t-142 -172t-51.5 -233z" />
<glyph unicode="R" horiz-adv-x="1265" d="M84 39l190 1356q2 15 14 27t25 12h553q158 0 259.5 -111.5t101.5 -273.5q0 -166 -89.5 -293t-246.5 -176l178 -521q8 -21 -4 -40t-35 -19h-252q-21 0 -31 8t-16 29l-162 524h-90l-73 -522q-2 -15 -14 -27t-25 -12h-254q-15 0 -23 12q-6 9 -7 19q0 4 1 8zM514 821h225 q70 0 118 57t48 132q0 57 -28.5 94t-81.5 37h-236z" />
<glyph unicode="S" horiz-adv-x="1064" d="M49 137q-10 13 -10.5 27.5t10.5 30.5l111 165q12 18 34 20t31 -7q53 -42 108 -66t130 -24q57 0 95 37q36 35 36 83v5q-1 54 -34 98t-101 88q-48 32 -82 57.5t-80 68.5t-74 84.5t-48.5 99t-20.5 118.5q0 85 30 161t87.5 137.5t152.5 97.5t215 36q207 0 389 -149 q16 -12 20 -34q1 -6 1 -11q0 -14 -9 -25l-129 -158q-11 -14 -33 -16t-32 6q-62 45 -114.5 68.5t-115.5 23.5q-54 0 -92.5 -29.5t-38.5 -74.5q0 -52 35.5 -89.5t132.5 -95.5q40 -24 71.5 -45.5t78 -63.5t77 -85t53.5 -106.5t23 -131.5q0 -91 -32 -171.5t-93 -145.5t-161 -103 t-226 -38q-76 0 -146.5 17t-119 43.5t-80.5 51t-49 45.5z" />
<glyph unicode="T" horiz-adv-x="1021" d="M145 1171l33 224q2 15 14 27t25 12h827q15 0 24 -12q7 -10 8 -22q0 -3 -1 -5l-33 -224q-2 -15 -12.5 -26.5t-25.5 -11.5h-252l-154 -1094q-1 -15 -14 -27t-27 -12h-254q-13 0 -23 12t-8 27l154 1094h-250q-15 -1 -24 11q-7 9 -7 22v5z" />
<glyph unicode="U" horiz-adv-x="1359" d="M139 518l121 877q2 15 14 27t25 12h260q13 0 23 -12t8 -27l-119 -860q-4 -25 -4 -48q0 -73 36 -119q47 -62 134 -61q94 0 160.5 61t81.5 167l118 860q2 15 13 27t26 12h258q13 0 23 -12t8 -27l-121 -877q-36 -251 -195.5 -394.5t-412.5 -143.5q-102 0 -193 41t-155 111 t-94 172q-20 67 -21 138q0 37 6 76z" />
<glyph unicode="V" horiz-adv-x="1255" d="M115 1380q-1 6 -1 12q0 14 8 26q12 16 32 16h274q11 0 19 -7.5t10 -15.5l166 -747h8l377 747q3 8 12.5 15.5t19.5 7.5h295q21 0 29 -17q3 -7 3 -14q0 -11 -7 -23l-778 -1378q-11 -22 -35 -22h-19q-21 0 -28 22z" />
<glyph unicode="W" horiz-adv-x="1667" d="M160 1384q-1 4 -1 8q-1 16 9 28q12 14 31 14h247q10 0 19.5 -9t9.5 -20l39 -694h8l381 721q11 22 35 22h33q24 0 28 -22l179 -721h6l237 694q5 11 16 20t21 9h246q20 0 28 -14q4 -7 4 -15q0 -9 -5 -21l-541 -1376q-4 -12 -15 -20t-22 -8h-31q-21 0 -28 22l-222 838h-8 l-456 -838q-15 -22 -35 -22h-29q-12 0 -20.5 8t-10.5 20z" />
<glyph unicode="X" horiz-adv-x="1255" d="M-34 18q-3 6 -3 12q0 13 12 27l484 688l-285 631q-8 21 4.5 39.5t36.5 18.5h295q19 0 27 -19l141 -391h6l250 391q11 19 33 19h317q24 0 32 -19q3 -6 3 -12q0 -13 -12 -27l-467 -651l295 -668q10 -21 -2.5 -39t-34.5 -18h-285q-11 0 -19 6t-10 12l-163 424h-7l-278 -424 q-12 -18 -35 -18h-305q-22 0 -30 18z" />
<glyph unicode="Y" horiz-adv-x="1157" d="M125 1374q-3 8 -3 17q0 12 7 23q12 20 33 20h258q21 0 29 -19l167 -416h5l286 416q14 19 33 19h289q23 0 29 -20q3 -6 3 -13q0 -13 -10 -27l-501 -682l-91 -653q-1 -15 -14 -27t-27 -12h-253q-14 0 -22.5 11.5t-6.5 27.5l92 651z" />
<glyph unicode="Z" horiz-adv-x="1038" d="M-18 33q0 36 14 61l590 1039h-363q-13 0 -22.5 11.5t-7.5 26.5l32 224q1 15 14 27t27 12h791q30 0 30 -29q0 -28 -16 -59l-567 -1045h358q14 0 22.5 -11.5t6.5 -27.5l-31 -223q-3 -16 -14.5 -27.5t-26.5 -11.5h-809q-13 0 -20.5 9.5t-7.5 23.5z" />
<glyph unicode="[" horiz-adv-x="714" d="M-27 -449l260 1844q1 15 13 27t26 12h480q13 0 21.5 -12t6.5 -27l-22 -164q-3 -17 -15 -28t-26 -11h-230l-202 -1438h231q14 0 23 -11t8 -26l-25 -166q-1 -15 -14 -26.5t-27 -11.5h-477q-14 0 -23 11.5t-8 26.5z" />
<glyph unicode="\" horiz-adv-x="833" d="M211 1382q-3 22 9 37t32 15h207q10 0 19 -8t11 -19l170 -1356q3 -21 -9.5 -36t-31.5 -15h-208q-11 0 -20.5 8.5t-10.5 18.5z" />
<glyph unicode="]" horiz-adv-x="716" d="M-96 -449l24 166q1 15 13 26t26 11h232l200 1438h-229q-14 0 -24 11t-7 28l25 164q2 15 14 27t25 12h479q14 0 23 -12t6 -27l-258 -1844q-1 -15 -14 -26.5t-27 -11.5h-478q-13 0 -22.5 11.5t-7.5 26.5z" />
<glyph unicode="^" horiz-adv-x="966" d="M92.5 792.5q-6.5 18.5 7.5 38.5l478 611q16 20 34 20h11q20 0 28 -20l297 -611q8 -20 -3.5 -38.5t-33.5 -18.5h-174q-11 0 -20 17l-144 305l-233 -305q-13 -17 -27 -17h-192q-22 0 -28.5 18.5z" />
<glyph unicode="_" horiz-adv-x="1114" d="M74 -164l14 105q3 17 14.5 28t26.5 11h686q15 0 24.5 -11t6.5 -28l-15 -105q-2 -15 -13.5 -26t-26.5 -11h-687q-15 0 -23.5 11t-6.5 26z" />
<glyph unicode="`" horiz-adv-x="557" d="M0 1239q-2 15 12 39l80 113q19 29 49 6l291 -213q8 -5 10.5 -16t-4.5 -23l-49 -78q-21 -35 -53 -18l-322 168q-12 7 -14 22z" />
<glyph unicode="a" horiz-adv-x="1075" d="M49 416q0 114 37.5 217t101 176t150.5 115.5t182 42.5q53 0 101 -15t78.5 -36.5t53 -43t32.5 -36.5l10 -15l45 94q16 31 47 31h88q18 0 28 -12q8 -10 8 -24q0 -4 -1 -9l-129 -856q-3 -18 -17.5 -31.5t-29.5 -13.5h-103q-13 0 -23 10t-12 25l-14 84q-40 -55 -111.5 -98.5 t-160.5 -43.5q-161 0 -261 126t-100 313zM344 432q0 -71 37 -118.5t92 -47.5q78 0 133.5 71t55.5 173q0 72 -37.5 121t-92.5 49q-78 0 -133 -72t-55 -176z" />
<glyph unicode="b" horiz-adv-x="1087" d="M41 45l188 1344q1 18 15 31.5t30 13.5h230q17 0 28 -13t9 -32l-66 -461q90 39 166 39q169 0 268 -123t99 -307q0 -151 -60 -278.5t-171 -204.5t-249 -77q-55 0 -103 15t-77.5 37t-51.5 44t-31 37l-9 15l-47 -92q-18 -33 -45 -33h-90q-17 0 -27 13q-7 9 -7 22q0 5 1 10z M387 432q0 -71 37 -118.5t92 -47.5q78 0 133.5 71t55.5 173q0 72 -37.5 121t-92.5 49q-78 0 -133 -72t-55 -176z" />
<glyph unicode="c" horiz-adv-x="909" d="M49 416q0 155 65.5 281t181.5 198t259 72q191 0 311 -166q6 -11 6 -23q0 -8 -2 -14q-5 -20 -22 -31l-133 -121q-5 -8 -19.5 -6.5t-25.5 12.5q-70 62 -129 62q-86 0 -140.5 -70t-54.5 -172q0 -73 36.5 -122.5t94.5 -49.5q20 0 37 3.5t35.5 15t26 16t29.5 23t24 20.5 q17 14 32 14t29 -14l111 -115q17 -17 17 -35q0 -15 -11 -30q-74 -99 -164 -143t-211 -44q-165 0 -274 126t-109 313z" />
<glyph unicode="d" horiz-adv-x="1091" d="M49 420q0 115 39 217.5t104.5 174.5t153 113.5t182.5 41.5q45 0 91 -10.5t69 -20.5l23 -10l67 463q5 23 15 34t36 11h226q15 0 25.5 -13.5t9.5 -31.5l-191 -1344q-3 -19 -16.5 -32t-30.5 -13h-90q-10 0 -21 9t-14 20l-27 90q-131 -142 -297 -142q-108 0 -190 62.5 t-123 162.5t-41 218zM354 432q0 -71 37 -118.5t92 -47.5q78 0 133.5 71t55.5 173q0 72 -37 121t-92 49q-78 0 -133.5 -72t-55.5 -176z" />
<glyph unicode="e" horiz-adv-x="931" d="M47 391q0 158 65.5 289t189 209t280.5 78q134 0 222.5 -66.5t88.5 -179.5q0 -171 -147 -255.5t-414 -84.5v-7q0 -51 28 -86q30 -38 103 -38q32 0 76 17.5t73 37.5q9 9 28.5 9t31.5 -17l86 -117q9 -14 8 -32.5t-12 -30.5q-137 -140 -338 -140q-118 0 -203.5 58.5 t-125.5 150.5t-40 205zM344 553q68 0 127 12t100 40.5t41 68.5q0 27 -17.5 44t-51.5 17q-55 0 -115 -52.5t-84 -129.5z" />
<glyph unicode="f" horiz-adv-x="808" d="M61 -440l148 1112h-96q-17 0 -25 12.5t-6 32.5l24 184q1 20 14.5 32.5t31.5 12.5h96l12 88q28 195 139.5 307.5t315.5 112.5q79 0 148 -26.5t104 -63.5q7 -8 7 -24.5t-7 -28.5l-111 -162q-7 -10 -22.5 -15.5t-26.5 -0.5q-57 26 -109 26q-54 0 -78 -30.5t-34 -94.5 l-15 -88h203q18 0 29 -12.5t10 -32.5l-27 -184q-1 -18 -16 -31.5t-33 -13.5h-205l-151 -1112q-1 -19 -15.5 -33t-31.5 -14h-240q-17 0 -26 13q-7 12 -7 27v7z" />
<glyph unicode="g" horiz-adv-x="1091" d="M16 -229l84 112q12 16 27.5 19.5t28 -2t22.5 -15.5q95 -88 207 -88q70 0 123.5 42t69.5 147l4 28q-82 -37 -174 -37q-162 0 -260.5 123.5t-98.5 305.5q0 151 60 279t168.5 205t242.5 77q60 0 111.5 -15t81.5 -37t51.5 -44t29.5 -37l9 -15l41 94q13 33 51 33h90 q17 0 27 -12q7 -10 7 -24q0 -4 -1 -9l-121 -881q-33 -234 -160 -363.5t-338 -129.5q-73 0 -141 18t-115 45.5t-77 51t-46 43.5q-20 22 -20 45q0 20 16 41zM354 432q0 -71 37 -118.5t92 -47.5q78 0 133.5 71t55.5 173q0 72 -37 121t-92 49q-78 0 -133.5 -72t-55.5 -176z" />
<glyph unicode="h" horiz-adv-x="1081" d="M41 45l188 1344q1 18 16 31.5t31 13.5h226q17 0 28 -13t9 -32l-68 -478q87 56 184 56q125 0 202 -63t101 -166q14 -59 14 -129q0 -51 -7 -109l-62 -455q-3 -19 -16.5 -32t-30.5 -13h-221q-18 0 -27 13t-6 32l60 455q4 26 4 48q0 48 -18 82q-28 50 -93 50 q-117 0 -143 -180l-66 -455q-5 -25 -16 -35t-39 -10h-217q-16 0 -26 13q-7 10 -8 23q0 4 1 9z" />
<glyph unicode="i" horiz-adv-x="536" d="M39 45l121 856q3 20 16.5 32.5t30.5 12.5h223q18 0 29 -12.5t8 -32.5l-121 -856q-3 -18 -18 -31.5t-29 -13.5h-225q-18 0 -28 13q-8 10 -8 24q0 4 1 8zM180 1229q0 83 60.5 145t142.5 62q67 0 111.5 -45.5t44.5 -112.5q0 -79 -63 -139t-142 -60q-67 0 -110.5 43 t-43.5 107z" />
<glyph unicode="j" horiz-adv-x="538" d="M-211 -309q-2 8 -2 16q0 36 43 53q39 14 67.5 29.5t57.5 39t47.5 58.5t24.5 80l131 934q3 20 17.5 32.5t33.5 12.5h217q19 0 30.5 -12.5t8.5 -32.5l-127 -909q-16 -119 -56 -209t-98.5 -145.5t-120 -88t-137.5 -51.5q-24 -6 -42 -6q-14 0 -24 4q-22 8 -30 37zM178 1229 q0 83 60.5 145t142.5 62q67 0 111.5 -45.5t44.5 -112.5q0 -79 -63 -139t-142 -60q-67 0 -110.5 43t-43.5 107z" />
<glyph unicode="k" horiz-adv-x="1054" d="M41 45l188 1344q1 18 15 31.5t30 13.5h230q17 0 28 -13t9 -32l-113 -814l285 343q24 28 55 28h258q28 0 38 -24q3 -8 3 -16q0 -17 -14 -34l-351 -393l220 -407q13 -26 -0.5 -49t-40.5 -23h-217q-30 0 -44.5 8.5t-27.5 36.5l-182 395l-58 -395q-4 -19 -19 -32t-30 -13 h-229q-17 0 -27 13q-7 9 -7 22q0 5 1 10z" />
<glyph unicode="l" horiz-adv-x="542" d="M41 45l188 1344q1 18 16 31.5t31 13.5h228q18 0 29 -14q9 -11 8 -23v-8l-189 -1344q-3 -18 -18 -31.5t-31 -13.5h-229q-16 0 -26 13q-7 10 -8 23q0 4 1 9z" />
<glyph unicode="m" horiz-adv-x="1581" d="M41 45l119 856q3 20 15.5 32.5t31.5 12.5h92q22 0 35 -26l26 -97q55 65 120.5 104.5t162.5 39.5q87 0 139 -34t90 -110q49 61 122.5 102.5t168.5 41.5q94 0 160.5 -36t100.5 -100q34 -65 46 -151q5 -35 4 -72q0 -55 -10 -114l-61 -449q-3 -19 -17 -32t-32 -13h-224 q-17 0 -26 13t-6 32l65 467q5 31 5 57q0 40 -12 67q-18 44 -81 44q-54 0 -89.5 -39t-45.5 -111l-72 -485q-3 -19 -16.5 -32t-30.5 -13h-213q-17 0 -27.5 13t-7.5 32l70 467q4 28 4 52q0 116 -102 116q-53 0 -86.5 -41.5t-44.5 -114.5l-68 -479q-3 -18 -17.5 -31.5 t-29.5 -13.5h-225q-18 0 -27 13q-7 10 -7 23q0 4 1 9z" />
<glyph unicode="n" horiz-adv-x="1073" d="M41 45l119 856q3 20 16.5 32.5t30.5 12.5h94q11 0 21.5 -7.5t13.5 -20.5l26 -95q29 32 51 51.5t58.5 44t81.5 36.5t98 12q120 0 197 -63q76 -62 102 -168q14 -59 15 -128q0 -54 -9 -114l-61 -449q-3 -18 -17.5 -31.5t-29.5 -13.5h-217q-18 0 -28 13t-7 32l66 467 q3 22 3 41q0 48 -19 81q-27 46 -93 46q-59 0 -94.5 -41t-44.5 -115l-68 -479q-5 -45 -65 -45h-207q-17 0 -27 13q-7 9 -7 22q0 5 1 10z" />
<glyph unicode="o" horiz-adv-x="1032" d="M47 416q0 150 63 275t182 200.5t269 75.5q162 0 276.5 -128t114.5 -313q0 -149 -66.5 -275t-185 -200t-262.5 -74q-161 0 -276 126.5t-115 312.5zM344 432q0 -71 37 -118.5t92 -47.5q78 0 133.5 71t55.5 173q0 72 -37.5 121t-92.5 49q-78 0 -133 -72t-55 -176z" />
<glyph unicode="p" horiz-adv-x="1087" d="M-29 -440l189 1341q3 20 16.5 32.5t30.5 12.5h88q13 0 23.5 -7.5t13.5 -20.5l26 -95q121 144 312 144q151 0 244.5 -123t93.5 -301q0 -158 -65 -288t-178 -204t-249 -74q-38 0 -80.5 10.5t-65.5 21.5l-24 11l-63 -460q-3 -26 -21 -36.5t-39 -10.5h-217q-15 0 -26 15 q-10 11 -10 25q0 3 1 7zM385 432q0 -71 37 -118.5t92 -47.5q78 0 133 71t55 173q0 72 -37 121t-92 49q-78 0 -133 -72t-55 -176z" />
<glyph unicode="q" horiz-adv-x="1089" d="M49 420q0 149 62 274.5t172.5 199t244.5 73.5q56 0 105 -15t79 -37t51.5 -44t30.5 -37l9 -15l47 96q16 31 45 31h90q17 0 27 -12q7 -10 7 -24q0 -4 -1 -9l-187 -1343q-2 -18 -15 -31.5t-30 -13.5h-231q-15 0 -26 14t-9 31l64 458q-97 -39 -191 -39q-161 0 -252.5 126 t-91.5 317zM354 432q0 -71 37 -118.5t92 -47.5q78 0 133.5 71t55.5 173q0 72 -37 121t-92 49q-78 0 -133.5 -72t-55.5 -176z" />
<glyph unicode="r" horiz-adv-x="745" d="M39 45l121 856q1 20 14 32.5t31 12.5h90q31 0 37 -28l28 -105q32 61 98 107.5t152 46.5q102 0 150 -43q14 -12 14 -28q0 -14 -10 -30l-102 -176q-10 -17 -20 -20.5t-30 2.5q-27 8 -63 8q-55 0 -91.5 -31.5t-45.5 -93.5l-76 -510q-6 -45 -51 -45h-213q-17 0 -27 13 q-7 9 -7 22q0 5 1 10z" />
<glyph unicode="s" horiz-adv-x="802" d="M8 106l74 160q5 12 20.5 17.5t30.5 -2.5q87 -52 182 -52q40 0 59 18t19 44q0 23 -20 43t-74 51q-103 61 -155 124.5t-52 145.5q0 128 99.5 220t261.5 92q94 0 174 -26t114 -52q15 -11 15 -27q0 -14 -11 -31l-90 -149q-6 -11 -19.5 -15.5t-25.5 1.5l-29 14.5t-38.5 18.5 t-41.5 13.5t-50 6.5q-37 0 -57.5 -16t-20.5 -39q0 -35 73 -76q121 -68 185.5 -135.5t64.5 -153.5q0 -134 -105.5 -229t-287.5 -95q-95 0 -174 24.5t-113 53.5q-14 10 -14 27q0 11 6 24z" />
<glyph unicode="t" horiz-adv-x="770" d="M72 717l18 184q1 19 15 32t30 13h111l37 262q1 18 16 31.5t31 13.5h213q34 0 30 -45l-34 -262h157q33 0 34 -38q0 -3 -1 -7l-20 -184q-2 -19 -15 -32t-32 -13h-158l-49 -332q-6 -44 7.5 -59t43.5 -15q16 0 47 9t37 10q15 3 28.5 -4.5t14.5 -26.5l18 -154q1 -4 1 -9 q0 -36 -38 -58q-26 -16 -100.5 -36t-153.5 -20q-127 -1 -181 89q-38 64 -38 158q0 38 6 81l54 367h-101q-14 0 -22 13q-6 10 -6 24v8z" />
<glyph unicode="u" horiz-adv-x="1042" d="M84 436l68 465q1 19 15 32t30 13h221q17 0 27.5 -12.5t9.5 -32.5l-70 -481q-6 -37 -7 -65q0 -33 10 -53q17 -36 79 -36q61 0 92.5 30.5t40.5 109.5l72 495q5 25 17.5 35t45.5 10h203q17 0 26.5 -12.5t8.5 -32.5l-121 -856q-1 -19 -15.5 -32t-31.5 -13h-92q-25 0 -33 29 l-27 92q-119 -144 -282 -144q-183 -1 -251 111q-46 76 -46 212q0 62 10 136z" />
<glyph unicode="v" horiz-adv-x="944" d="M72 881q-4 9 -4 18q0 15 9 27q14 20 38 20h207q26 0 32 -26l95 -390h6l194 390q6 16 16 21t35 5h228q26 0 34 -20q3 -8 3 -16q0 -14 -9 -29l-528 -879q-5 -10 -15 -17.5t-20 -7.5h-14q-13 0 -21 7.5t-10 17.5z" />
<glyph unicode="w" horiz-adv-x="1355" d="M76 889q-1 5 -1 9q0 16 11 30q14 18 35 18h192q14 0 25 -7.5t12 -20.5l72 -361h2l252 371q14 18 35 18h24q18 0 29 -18l143 -385h2l164 375q7 19 16 23.5t37 4.5h203q23 0 33 -18q5 -9 5 -19t-5 -20l-418 -883q-14 -29 -41 -29h-8q-25 0 -33 21l-200 512l-336 -512 q-14 -21 -39 -21h-8q-28 0 -35 29z" />
<glyph unicode="x" horiz-adv-x="1021" d="M-35 24q-2 7 -2 14q0 17 14 34l342 420l-229 393q-14 23 -2.5 42t39.5 19h238q20 0 34 -18l123 -236h2l168 236q11 18 37 18h258q28 0 36 -24q2 -7 2 -15q0 -17 -13 -33l-334 -409l227 -402q13 -23 1 -43t-38 -20h-241q-22 0 -29 20l-127 254h-4l-195 -256 q-11 -18 -36 -18h-236q-27 0 -35 24z" />
<glyph unicode="y" horiz-adv-x="960" d="M-54 -470q-3 5 -3 12q0 13 10 30l285 530l-156 793q-5 23 6.5 37t36.5 14h201q25 0 36.5 -9t14.5 -32l55 -475h6l221 490q13 26 39 26h246q23 0 31 -19q3 -8 3 -16q0 -12 -7 -26l-717 -1344q-5 -10 -16 -19t-21 -9h-242q-23 0 -29 17z" />
<glyph unicode="z" horiz-adv-x="808" d="M-8 35q0 27 18 59l338 574v4h-211q-15 0 -25.5 13.5t-9.5 31.5l31 184q3 19 16 32t27 13h588q37 0 37 -35q0 -17 -8 -30l-365 -605v-4h209q34 0 31 -45l-31 -182q-1 -19 -15.5 -32t-31.5 -13h-563q-17 0 -26 9.5t-9 25.5z" />
<glyph unicode="{" horiz-adv-x="739" d="M8 408l17 118q1 12 10 23t20 14q6 2 15 5.5t33.5 16.5t44 27t37 36t20.5 46l28 203q15 102 40.5 184.5t57.5 139.5t74 99.5t83 67t92 39.5t95 20t97 5q14 0 23 -9.5t8 -25.5l-17 -174q-2 -12 -11 -24t-19 -15q-72 -20 -118.5 -51.5t-80 -94.5t-47.5 -161l-23 -162 q-6 -45 -28.5 -89t-49.5 -74t-53 -53t-44 -35l-17 -11l-2 -8q20 -11 40.5 -28.5t43 -47t33.5 -74t4 -96.5l-25 -172q-21 -143 19.5 -210t140.5 -97q10 -3 17 -15t5 -24l-32 -174q-5 -15 -17.5 -25.5t-25.5 -9.5q-60 4 -117.5 24t-113.5 63.5t-94.5 105t-55.5 155.5t-2 207 l28 193q15 102 -110 131q-10 1 -17.5 13t-5.5 24z" />
<glyph unicode="|" horiz-adv-x="342" d="M-27 -451l277 1969q1 17 13 27.5t26 10.5h37q14 0 21.5 -10.5t6.5 -27.5l-276 -1969q-1 -15 -14 -25.5t-27 -10.5h-33q-14 0 -23 10.5t-8 25.5z" />
<glyph unicode="}" horiz-adv-x="739" d="M-92 -473l16 174q2 12 11.5 25t19.5 14q115 19 168.5 85.5t75.5 217.5l24 172q7 52 30.5 96.5t54.5 74t56.5 47t49.5 28.5v8q-6 4 -15.5 11.5t-33 33.5t-40 54.5t-27 73t-3.5 89.5l24 166q21 143 -19 210t-140 97q-10 3 -17.5 15t-5.5 24l33 174q3 17 16 27t27 8 q59 -4 117.5 -25t115 -63.5t94.5 -106.5t56.5 -154t-0.5 -206l-31 -207q-3 -24 7.5 -46t28 -36.5t35 -26t30.5 -17.5l12 -5q9 -3 15 -14t5 -23l-16 -119q-1 -12 -11.5 -23t-21.5 -13q-132 -29 -147 -131l-27 -193q-19 -135 -59.5 -235.5t-91 -159.5t-117.5 -95.5t-130 -48.5 t-138 -12q-14 0 -23 10t-8 25z" />
<glyph unicode="~" horiz-adv-x="1013" d="M35 504.5q1 14.5 12 25.5q6 8 17.5 22.5t47 50.5t72 63.5t88.5 50t101 22.5q35 0 67.5 -12.5t53 -27.5t49.5 -40q3 -2 14.5 -11.5t15 -12.5t13.5 -10.5t15 -10t14.5 -7t16.5 -6.5t16.5 -3.5t19.5 -1.5q50 0 127 96q12 15 27.5 15.5t25.5 -13.5l102 -121q8 -9 7.5 -25 t-9.5 -26l-16.5 -22t-44 -50t-69 -63t-87 -49.5t-100.5 -22.5q-44 0 -83.5 15t-60.5 30t-57 46q-29 26 -50 37.5t-48 11.5q-45 0 -125 -95q-13 -15 -29 -15.5t-26 11.5l-109 125q-9 9 -8 23.5z" />
<glyph unicode="&#xa1;" horiz-adv-x="530" d="M-57 -449l32 230l185 575q3 12 15 22.5t24 10.5h88q12 0 21 -10.5t9 -22.5l21 -571l-33 -234q-1 -15 -13 -26.5t-26 -11.5h-293q-13 0 -22.5 11.5t-7.5 26.5zM104 752q0 86 68 150.5t154 64.5q68 0 114.5 -50t46.5 -120q0 -87 -66 -153t-149 -66q-71 0 -119.5 51.5 t-48.5 122.5z" />
<glyph unicode="&#xa2;" horiz-adv-x="1024" d="M100 416q0 155 65.5 282t181.5 200t259 73q26 0 76 -8l39 100q8 18 24 27t31 2l37 -11q37 -13 21 -55l-41 -106q69 -44 125 -119q9 -17 3.5 -36.5t-22.5 -31.5l-133 -121q-5 -8 -19.5 -6.5t-25.5 12.5l-33 27l-145 -379q22 1 43.5 10.5t31 16t34 27.5t28.5 24q34 29 61 0 l111 -115q30 -30 6 -65q-74 -100 -164.5 -144.5t-210.5 -44.5q-11 0 -51 5l-88 -232q-8 -18 -23 -26.5t-32 -4.5l-35 15q-16 5 -23.5 18.5t0.5 32.5l88 231q-101 51 -160 159t-59 243zM397 438q0 -79 37 -125l139 365q-72 -9 -124 -78.5t-52 -161.5z" />
<glyph unicode="&#xa3;" d="M209 39l4 37q82 134 111 259t26 257h-78q-13 0 -21.5 12t-6.5 27l4 35q2 16 12.5 27.5t28.5 11.5h55q-14 126 -14 219q0 254 120.5 392t333.5 138q55 0 108 -15.5t93 -40.5t66 -46.5t45 -42.5q9 -9 8 -25.5t-12 -28.5l-123 -149q-14 -13 -31 -12.5t-27 10.5 q-76 70 -147 70q-48 0 -83.5 -49t-35.5 -132q0 -26 16 -123t21 -165h143q14 0 22.5 -11.5t6.5 -27.5l-4 -37q-1 -15 -13.5 -26t-27.5 -11h-127q-15 -173 -55 -318h280q14 0 22 -10.5t5 -27.5l-27 -197q-3 -15 -14.5 -27t-24.5 -12h-630q-13 0 -22 12t-7 27z" />
<glyph unicode="&#xa4;" horiz-adv-x="960" d="M112 435.5q2 16.5 13 27.5l117 106q-2 12 -2 41q0 76 26 156l-86 108q-8 10 -6 28.5t14 27.5l115 96q12 9 25.5 9.5t21.5 -9.5l84 -104q45 22 96 22q47 0 80 -16l113 104q11 10 25.5 9.5t23.5 -11.5l98 -108q9 -9 7 -26t-13 -28l-114 -104q4 -32 4 -49q0 -81 -39 -164 l84 -105q8 -10 4.5 -27t-15.5 -26l-112 -96q-13 -10 -26 -11t-21 9l-90 108q-41 -18 -84 -18q-44 0 -74 18l-117 -106q-11 -10 -25.5 -9.5t-23.5 9.5l-96 111q-9 11 -7 27.5zM420 651q0 -28 17 -49.5t46 -21.5q36 0 63 30.5t27 69.5q0 28 -17 49t-46 21q-35 0 -62.5 -30.5 t-27.5 -68.5z" />
<glyph unicode="&#xa5;" d="M160 1374q-8 21 4 40.5t33 19.5h258q20 0 28 -19l170 -420l289 420q14 19 33 19h289q23 0 29.5 -20t-7.5 -40l-502 -682l-14 -92h172q15 0 24.5 -12t6.5 -27l-6 -37q-3 -15 -14.5 -26t-26.5 -11h-170l-19 -133h170q15 0 24.5 -12t6.5 -27l-6 -36q-3 -15 -14.5 -26 t-26.5 -11h-170l-27 -203q-1 -15 -14 -27t-27 -12h-254q-14 0 -22 11.5t-6 27.5l28 203h-174q-13 0 -20.5 11.5t-5.5 27.5l4 34q1 15 13 27t26 12h174l18 133h-174q-13 0 -21 12t-6 27l5 35q2 15 13.5 27t24.5 12h175l12 90z" />
<glyph unicode="&#xa6;" horiz-adv-x="352" d="M-20 -451l94 678q3 17 15 28t26 11h37q14 0 21.5 -11t6.5 -28l-96 -678q-1 -15 -14 -25.5t-27 -10.5h-33q-14 0 -22.5 10.5t-7.5 25.5zM160 840l96 678q1 17 13 27.5t26 10.5h37q14 0 21.5 -10.5t6.5 -27.5l-96 -678q-1 -15 -13 -26t-26 -11h-35q-14 0 -22.5 11t-7.5 26z " />
<glyph unicode="&#xa7;" horiz-adv-x="1071" d="M0 -336q-1 9 12 29l105 153q27 40 59 11q22 -19 97.5 -54.5t129.5 -35.5q55 0 90 29t35 81q0 114 -161 211q-41 25 -68 43.5t-67.5 54.5t-64.5 72.5t-42.5 91t-18.5 115.5q0 101 44.5 177t125.5 140q-86 117 -86 254q0 62 15 120t49.5 113t85 95.5t128 65t171.5 24.5 q61 0 120.5 -15t113 -43.5t79 -45t60.5 -41.5q13 -11 12 -30t-10 -30l-119 -147q-14 -17 -37 -18t-31 10q-1 1 -14.5 10l-27 18t-35.5 20.5t-42.5 20.5t-46.5 15t-49 6q-44 0 -77 -31.5t-33 -79.5q0 -46 36.5 -86.5t125.5 -91.5q39 -22 63 -37t68.5 -52t71 -73.5t48 -94 t21.5 -120.5q0 -76 -29.5 -143.5t-64.5 -107t-88 -85.5q45 -45 75.5 -114t30.5 -144q0 -65 -14 -124t-48.5 -116t-86.5 -99t-134 -67.5t-184 -25.5q-123 0 -228.5 51.5t-150.5 98.5q-13 13 -14 22zM395 498q0 -35 16.5 -67t40.5 -52.5t48 -36t40 -22.5l17 -7q6 7 15 20.5 t24.5 57.5t15.5 90q0 33 -16 63.5t-38 50t-44.5 35t-38.5 22.5l-16 7q-3 -2 -7 -6.5t-15 -20t-19.5 -33t-15.5 -45t-7 -56.5z" />
<glyph unicode="&#xa8;" horiz-adv-x="763" d="M-35 1217q0 72 47.5 125t110.5 53q53 0 87 -37.5t34 -95.5q0 -70 -50 -123.5t-112 -53.5q-52 0 -84.5 37t-32.5 95zM360 1217q0 72 47.5 125t110.5 53q54 0 87.5 -37.5t33.5 -95.5q0 -70 -50 -123.5t-112 -53.5q-52 0 -84.5 37t-32.5 95z" />
<glyph unicode="&#xa9;" horiz-adv-x="1548" d="M123 621q0 167 61.5 321.5t165 266.5t245 178.5t294.5 66.5q154 0 286.5 -86t210.5 -234t78 -321q0 -168 -62.5 -322.5t-166.5 -266t-245 -178t-292 -66.5q-154 0 -286.5 86t-210.5 234t-78 321zM297 641q0 -201 119 -342t299 -141q110 0 215.5 51t184.5 136t127 203 t48 245q0 132 -53 242t-149.5 174.5t-215.5 64.5q-110 0 -215 -50t-184 -134.5t-127.5 -202.5t-48.5 -246zM461 672q0 185 111.5 305.5t281.5 120.5q59 0 116 -20t95 -58q11 -12 9 -29t-15 -30l-101 -99q-9 -9 -22.5 -10.5t-22.5 4.5q-35 27 -82 27q-61 0 -106 -57t-45 -134 q0 -59 29 -98t77 -39q44 0 91 35q9 7 22 5t19 -11l75 -111q9 -11 5.5 -28t-15.5 -29q-104 -86 -221 -86q-123 0 -212 99.5t-89 242.5z" />
<glyph unicode="&#xaa;" horiz-adv-x="657" d="M117 989q0 98 69 161.5t181 63.5q24 0 46 -3.5t32 -6.5l10 -4q9 43 -7.5 65.5t-54.5 22.5q-47 0 -135 -18q-17 -3 -24 5.5t-5 27.5l-2 86q1 35 55 50t160 15q130 0 180 -62t31 -198l-49 -340q-2 -10 -11 -19.5t-18 -9.5h-69q-14 0 -21 21l-16 43q-26 -23 -45 -37 t-56 -27.5t-79 -13.5q-79 0 -125.5 48t-46.5 130zM324 1016q0 -24 12.5 -39.5t32.5 -15.5q21 0 36 21t15 54q0 56 -41 56q-23 0 -39 -23t-16 -53z" />
<glyph unicode="&#xab;" horiz-adv-x="1011" d="M53 459q-11 23 6 49l234 303q20 25 37 25h182q24 0 29 -19.5t-9 -44.5l-163 -305l59 -281q5 -26 -5 -43.5t-32 -17.5h-166q-16 0 -24 16zM479 459q-11 23 6 49l234 303q20 25 37 25h182q24 0 29 -19.5t-9 -44.5l-163 -305l59 -281q5 -26 -5 -43.5t-32 -17.5h-166 q-16 0 -24 16z" />
<glyph unicode="&#xac;" horiz-adv-x="1079" d="M119 639l20 143q1 15 13 27t26 12h748q14 0 22 -12t6 -27l-67 -483q-1 -15 -14 -26t-27 -11h-146q-14 0 -22.5 11t-7.5 26l43 301h-566q-14 0 -22.5 12t-5.5 27z" />
<glyph unicode="&#xad;" horiz-adv-x="702" d="M76 401l24 187q1 17 13.5 28t27.5 11h430q15 0 23 -11t6 -28l-25 -187q-1 -15 -13 -25.5t-27 -10.5h-431q-15 0 -22.5 10t-5.5 26z" />
<glyph unicode="&#xae;" horiz-adv-x="1548" d="M123 621q0 167 61.5 321.5t165 266.5t245 178.5t294.5 66.5q154 0 286.5 -86t210.5 -234t78 -321q0 -168 -62.5 -322.5t-166.5 -266t-245 -178t-292 -66.5q-154 0 -286.5 86t-210.5 234t-78 321zM297 641q0 -201 119 -342t299 -141q110 0 215.5 51t184.5 136t127 203 t48 245q0 132 -53 242t-149.5 174.5t-215.5 64.5q-110 0 -215 -50t-184 -134.5t-127.5 -202.5t-48.5 -246zM487 383l95 672q2 15 14 27t25 12h297q82 0 143 -64t61 -164q0 -192 -155 -262l39 -205q5 -21 -7 -38t-32 -17h-125q-10 0 -18.5 9t-10.5 20l-29 217h-73l-31 -207 q-2 -15 -13 -27t-26 -12h-125q-15 0 -23.5 12t-5.5 27zM727 756h115q22 0 40.5 23.5t18.5 54.5q0 24 -12 40.5t-27 16.5h-114z" />
<glyph unicode="&#xaf;" horiz-adv-x="763" d="M-55 1190l10 84q1 17 13.5 28t27.5 11h473q14 0 23 -11t6 -28l-13 -84q-2 -15 -13 -26t-26 -11h-473q-15 0 -22.5 10.5t-5.5 26.5z" />
<glyph unicode="&#xb0;" horiz-adv-x="618" d="M139 1143q0 130 83.5 220.5t207.5 90.5q88 0 150.5 -69t62.5 -168q0 -130 -84.5 -222t-204.5 -92q-89 0 -152 70t-63 170zM338 1165q0 -28 11.5 -45.5t33.5 -17.5q27 0 43 24.5t16 63.5q0 65 -45 65q-27 0 -43 -26t-16 -64z" />
<glyph unicode="&#xb1;" d="M137 119l19 143q3 15 15.5 27t25.5 12h747q13 0 22 -12t7 -27l-21 -143q-2 -15 -14 -27t-25 -12h-747q-14 0 -23 12t-6 27zM238 762l20 143q1 15 14 27t27 12h258l43 301q1 15 13 26t26 11h160q14 0 22.5 -11t5.5 -26l-41 -301h261q13 0 21.5 -12t6.5 -27l-20 -143 q-1 -15 -13 -27t-26 -12h-262l-29 -197q-1 -15 -14 -26t-27 -11h-158q-14 0 -22.5 11t-7.5 26l30 197h-258q-13 0 -22.5 12t-7.5 27z" />
<glyph unicode="&#xb2;" horiz-adv-x="528" d="M119 1051l6 36l217 267q43 50 43 94q0 43 -37 43q-33 0 -69 -29q-9 -8 -20 -6.5t-15 14.5l-31 86q-8 18 -5.5 31t23.5 25q78 47 177 47q76 0 125 -46t49 -120q0 -96 -74 -199l-78 -108h86q8 0 12.5 -6t3.5 -13l-16 -116q0 -7 -7.5 -13t-12.5 -6h-361q-8 0 -12.5 6 t-3.5 13z" />
<glyph unicode="&#xb3;" horiz-adv-x="522" d="M141 1116l49 66q20 23 43 8q29 -19 60 -19q23 0 37 15t14 45q0 41 -37 41h-65q-22 0 -17 33l8 69q3 35 41 35h52q15 0 29 15.5t14 41.5q0 37 -33 37q-21 0 -53 -24q-8 -7 -16.5 -6.5t-16.5 14.5l-43 80q-13 26 8 43q66 49 166 49q87 0 137.5 -40.5t50.5 -107.5 q0 -111 -116 -168q90 -39 90 -133t-72.5 -146t-175.5 -52q-93 0 -152 59q-21 21 -2 45z" />
<glyph unicode="&#xb4;" horiz-adv-x="557" d="M-35 1163q-4 11 1.5 22.5t15.5 16.5l352 213q8 8 25.5 6t25.5 -20l53 -123q7 -24 1 -39t-21 -22l-369 -168q-34 -15 -47 18z" />
<glyph unicode="&#xb5;" horiz-adv-x="1091" d="M8 -442l193 1343q3 20 16 32.5t29 12.5h221q18 0 29 -12.5t8 -32.5l-70 -475q-21 -160 82 -160q58 0 90.5 38t44.5 120l70 477q3 25 16 35t47 10h203q18 0 28 -12.5t7 -32.5l-121 -856q-3 -19 -16.5 -32t-30.5 -13h-92q-25 0 -33 29l-27 92q-50 -61 -81 -84 q-77 -60 -193 -60q-40 0 -55 3l-60 -422q-3 -18 -18 -31.5t-31 -13.5h-223q-17 0 -26.5 13t-6.5 32z" />
<glyph unicode="&#xb6;" horiz-adv-x="1445" d="M137 948q0 127 59 240t156.5 179.5t206.5 66.5h858q13 0 23 -12t8 -27l-18 -123q-3 -17 -14 -28t-25 -11h-93l-235 -1682q-2 -15 -14 -26.5t-27 -11.5h-152q-14 0 -22.5 11.5t-5.5 26.5l235 1680h-221l-235 -1680q-1 -15 -13 -26.5t-26 -11.5h-150q-14 0 -23 11.5 t-8 26.5l144 1024h-80q-140 0 -234 107.5t-94 265.5z" />
<glyph unicode="&#xb7;" horiz-adv-x="569" d="M57 496q0 100 74.5 173.5t171.5 73.5q84 0 138.5 -56.5t54.5 -139.5q0 -97 -77.5 -169.5t-176.5 -72.5q-78 0 -131.5 56.5t-53.5 134.5z" />
<glyph unicode="&#xb8;" horiz-adv-x="505" d="M41 -461q-20 20 6 64l29 47q28 46 63 20q33 -26 78 -26q36 0 66 19.5t30 60.5q0 55 -75 55q-12 0 -25 -2.5t-20 -4.5t-18.5 -6.5t-14.5 -5.5q-17 -6 -30.5 9t-4.5 30l117 207h161l-92 -123q12 2 31 2q67 0 110.5 -40.5t43.5 -116.5q0 -109 -79 -173.5t-198 -64.5 q-126 0 -178 49z" />
<glyph unicode="&#xb9;" horiz-adv-x="438" d="M164 1450l14 78q2 12 19 22l155 88h131q8 0 12 -5.5t3 -12.5l-80 -569q-4 -19 -21 -19h-153q-7 0 -12 5.5t-5 13.5l54 376h-105q-12 0 -12 23z" />
<glyph unicode="&#xba;" horiz-adv-x="628" d="M139 1061q0 182 77 287.5t214 105.5q100 0 155.5 -68t55.5 -186q0 -180 -78 -286.5t-215 -106.5q-100 0 -154.5 68.5t-54.5 185.5zM332 1059q0 -74 37 -74q34 0 55.5 70t21.5 151q0 30 -10.5 50t-25.5 20q-31 0 -54.5 -63t-23.5 -154z" />
<glyph unicode="&#xbb;" horiz-adv-x="1011" d="M16 144q-5 19 9 44l163 306l-59 280q-5 26 5 44t32 18h166q16 0 24 -17l148 -317q11 -23 -6 -49l-234 -303q-20 -25 -37 -25h-182q-24 0 -29 19zM442 144q-5 19 9 44l163 306l-59 280q-5 26 5 44t32 18h166q16 0 24 -17l148 -317q11 -23 -6 -49l-234 -303 q-20 -25 -37 -25h-182q-24 0 -29 19z" />
<glyph unicode="&#xbc;" horiz-adv-x="1337" d="M110 17.5q-7 17.5 5 37.5l827 1358q10 21 35 21h121q20 0 27 -18t-5 -38l-827 -1358q-15 -20 -33 -20h-121q-22 0 -29 17.5zM184 1245l15 78q3 14 18 23l156 88h131q7 0 11.5 -5.5t2.5 -13.5l-80 -569q-4 -19 -20 -19h-154q-16 0 -16 19l53 377h-104q-13 0 -13 22z M674 131l18 127l336 342q6 6 16 6h103q6 0 10.5 -5.5t3.5 -12.5l-47 -334h70q7 0 11.5 -5t2.5 -11l-14 -105q-4 -18 -19 -18h-71l-13 -97q-4 -18 -20 -18h-139q-8 0 -13 5.5t-4 12.5l15 97h-232q-7 0 -11.5 5t-2.5 11zM846 250h94l18 115z" />
<glyph unicode="&#xbd;" horiz-adv-x="1265" d="M108 17.5q-7 17.5 5 37.5l827 1358q10 21 35 21h121q20 0 27 -18t-5 -38l-827 -1358q-15 -20 -33 -20h-121q-22 0 -29 17.5zM182 1245l15 78q3 14 18 23l156 88h131q7 0 11.5 -5.5t2.5 -13.5l-80 -569q-4 -19 -20 -19h-154q-16 0 -16 19l53 377h-104q-13 0 -13 22z M680 18l6 37l217 267q43 50 43 94q0 43 -37 43q-33 0 -69 -29q-9 -8 -20 -6.5t-15 14.5l-31 86q-8 18 -5 31t24 25q78 47 176 47q76 0 125 -46t49 -120q0 -96 -74 -199l-78 -108h86q8 0 13 -6t4 -13l-17 -117q0 -7 -7.5 -12.5t-12.5 -5.5h-361q-8 0 -12.5 5.5t-3.5 12.5z " />
<glyph unicode="&#xbe;" horiz-adv-x="1411" d="M152 911l49 66q20 23 43 8q27 -18 59 -18q23 0 37 15t14 44q0 41 -37 41h-65q-21 0 -16 33l8 69q3 35 41 35h51q15 0 29 16t14 42q0 36 -33 36q-21 0 -53 -24q-8 -7 -16.5 -6.5t-16.5 14.5l-43 80q-13 26 8 43q66 49 166 49q87 0 138 -40t51 -107q0 -111 -117 -168 q90 -39 90 -133q0 -95 -72.5 -147t-175.5 -52q-92 0 -151 59q-21 21 -2 45zM183.5 17.5q-7.5 17.5 4.5 37.5l828 1358q10 21 35 21h120q20 0 27.5 -18t-4.5 -38l-827 -1358q-15 -20 -33 -20h-121q-22 0 -29.5 17.5zM748 131l18 127l336 342q6 6 16 6h103q6 0 10.5 -5.5 t3.5 -12.5l-47 -334h69q7 0 12 -5t3 -11l-15 -105q-4 -18 -18 -18h-72l-12 -97q-4 -18 -20 -18h-140q-8 0 -12.5 5.5t-3.5 12.5l14 97h-231q-7 0 -11.5 5t-2.5 11zM920 250h94l18 115z" />
<glyph unicode="&#xbf;" horiz-adv-x="954" d="M-8 -199q0 71 33 138t80.5 116t96 91.5t85 82t41.5 70.5l8 51q3 17 14.5 28t26.5 11h227q14 0 23 -11t6 -28l-12 -86q-7 -50 -41.5 -98t-77.5 -85.5t-85.5 -74t-71 -78t-28.5 -82.5q0 -35 25.5 -58.5t65.5 -23.5q88 0 178 80q32 28 53 4l111 -133q10 -11 7.5 -27.5 t-14.5 -27.5q-24 -23 -36 -33.5t-55 -41t-82 -47t-102.5 -31.5t-131.5 -15q-136 0 -240 88.5t-104 220.5zM350 752q0 87 67.5 151t153.5 64q68 0 115 -50t47 -120q0 -87 -66 -153t-149 -66q-71 0 -119.5 51.5t-48.5 122.5z" />
<glyph unicode="&#xc0;" horiz-adv-x="1257" d="M-69.5 16.5q-7.5 16.5 3.5 36.5l777 1379q15 22 34 22h19q22 0 29 -22l385 -1379q6 -20 -5.5 -36.5t-33.5 -16.5h-232q-29 0 -44 11t-21 40l-35 162h-453l-80 -164q-22 -49 -81 -49h-234q-21 0 -28.5 16.5zM500 492h229l-63 342h-2zM570 1751q-2 15 12 39l80 113 q19 29 49 6l290 -213q8 -5 11 -16t-4 -23l-50 -78q-21 -35 -53 -18l-321 168q-12 7 -14 22z" />
<glyph unicode="&#xc1;" horiz-adv-x="1257" d="M-69.5 16.5q-7.5 16.5 3.5 36.5l777 1379q15 22 34 22h19q22 0 29 -22l385 -1379q6 -20 -5.5 -36.5t-33.5 -16.5h-232q-29 0 -44 11t-21 40l-35 162h-453l-80 -164q-22 -49 -81 -49h-234q-21 0 -28.5 16.5zM500 492h229l-63 342h-2zM553 1675q-4 11 1 22.5t15 16.5 l353 213q8 8 25.5 6t25.5 -20l53 -123q7 -24 1 -39t-21 -22l-369 -168q-34 -15 -47 18z" />
<glyph unicode="&#xc2;" horiz-adv-x="1257" d="M-69.5 16.5q-7.5 16.5 3.5 36.5l777 1379q15 22 34 22h19q22 0 29 -22l385 -1379q6 -20 -5.5 -36.5t-33.5 -16.5h-232q-29 0 -44 11t-21 40l-35 162h-453l-80 -164q-22 -49 -81 -49h-234q-21 0 -28.5 16.5zM475 1665q-12 21 17 39l284 213q29 20 49 0l234 -213 q20 -20 6 -39l-74 -94q-7 -10 -20 -12.5t-19 2.5l-166 122l-217 -122q-25 -15 -39 8zM500 492h229l-63 342h-2z" />
<glyph unicode="&#xc3;" horiz-adv-x="1257" d="M-69.5 16.5q-7.5 16.5 3.5 36.5l777 1379q15 22 34 22h19q22 0 29 -22l385 -1379q6 -20 -5.5 -36.5t-33.5 -16.5h-232q-29 0 -44 11t-21 40l-35 162h-453l-80 -164q-22 -49 -81 -49h-234q-21 0 -28.5 16.5zM489 1712q9 19 26 44t44.5 56t67 51.5t80.5 20.5q35 0 68.5 -24 t64.5 -48t61 -24q21 0 41 18t31 39q18 35 51 10l63 -53q9 -12 7 -22.5t-13 -36.5q-7 -18 -21.5 -40t-39.5 -51.5t-62.5 -49t-78.5 -19.5q-32 0 -62.5 15.5t-49.5 33.5t-42.5 33.5t-44.5 15.5q-40 0 -72 -61q-8 -16 -21.5 -19.5t-27.5 7.5l-65 57q-18 18 -5 47zM500 492h229 l-63 342h-2z" />
<glyph unicode="&#xc4;" horiz-adv-x="1257" d="M-69.5 16.5q-7.5 16.5 3.5 36.5l777 1379q15 22 34 22h19q22 0 29 -22l385 -1379q6 -20 -5.5 -36.5t-33.5 -16.5h-232q-29 0 -44 11t-21 40l-35 162h-453l-80 -164q-22 -49 -81 -49h-234q-21 0 -28.5 16.5zM406 1694q0 72 47 125t110 53q53 0 87 -37.5t34 -95.5 q0 -70 -50 -123t-112 -53q-52 0 -84 36.5t-32 94.5zM500 492h229l-63 342h-2zM895 1694q0 72 47.5 125t110.5 53q53 0 87 -37.5t34 -95.5q0 -70 -50 -123t-112 -53q-52 0 -84.5 37t-32.5 94z" />
<glyph unicode="&#xc5;" horiz-adv-x="1257" d="M-69.5 16.5q-7.5 16.5 3.5 36.5l777 1379q15 22 34 22h19q22 0 29 -22l385 -1379q6 -20 -5.5 -36.5t-33.5 -16.5h-232q-29 0 -44 11t-21 40l-35 162h-453l-80 -164q-22 -49 -81 -49h-234q-21 0 -28.5 16.5zM500 492h229l-63 342h-2zM580 1745q0 111 71.5 188.5 t173.5 77.5q77 0 133 -60.5t56 -144.5q0 -111 -71 -188.5t-175 -77.5q-76 0 -132 60t-56 145zM723 1763q0 -31 17.5 -54t43.5 -23q33 0 59.5 31.5t26.5 70.5q0 31 -17.5 53.5t-43.5 22.5q-31 0 -58.5 -31t-27.5 -70z" />
<glyph unicode="&#xc6;" horiz-adv-x="1679" d="M-96.5 16.5q-3.5 16.5 10.5 36.5l924 1317q19 27 27 36.5t24.5 18.5t38.5 9h739q14 0 22.5 -11.5t6.5 -27.5l-31 -224q-2 -15 -14 -26.5t-27 -11.5h-477l-35 -254h387q13 0 22 -12t7 -27l-31 -224q-3 -17 -15 -27.5t-26 -10.5h-387l-39 -277h477q14 0 22.5 -11.5 t6.5 -27.5l-31 -223q-2 -15 -14 -27t-27 -12h-762q-14 0 -22 11.5t-6 27.5l24 174h-290l-142 -190q-6 -9 -18 -16t-21 -7h-299q-21 0 -24.5 16.5zM555 492h182l54 358z" />
<glyph unicode="&#xc7;" horiz-adv-x="1275" d="M102 625q0 231 99 420.5t275.5 299t393.5 109.5q267 0 430 -190q9 -12 7 -29t-15 -29l-176 -155q-25 -22 -47 0q-38 43 -98.5 68.5t-122.5 25.5q-103 0 -193.5 -67t-144 -179t-53.5 -240q0 -149 76.5 -250.5t199.5 -101.5q51 0 116.5 30.5t121.5 76.5q11 9 26 8t23 -10 l139 -185q8 -13 4.5 -28.5t-14.5 -26.5q-185 -171 -410 -190l-73 -99q12 2 30 2q67 0 110.5 -40.5t43.5 -116.5q0 -109 -79 -173.5t-198 -64.5q-126 0 -178 49q-20 20 6 64l29 47q28 46 64 20q32 -26 77 -26q36 0 66.5 19.5t30.5 60.5q0 55 -76 55q-12 0 -25 -2.5t-20 -4.5 t-18.5 -6.5t-14.5 -5.5q-17 -6 -30.5 9t-4.5 30l107 191q-204 41 -344 219.5t-140 415.5z" />
<glyph unicode="&#xc8;" horiz-adv-x="1099" d="M84 39l190 1356q2 15 14 27t25 12h772q15 0 24 -12t7 -27l-33 -224q-2 -15 -13 -26.5t-26 -11.5h-487l-37 -254h398q13 0 22.5 -12t7.5 -27l-33 -224q-3 -17 -15 -27.5t-26 -10.5h-395l-39 -277h488q14 0 22 -11.5t6 -27.5l-30 -223q-2 -15 -14 -27t-27 -12h-772 q-15 0 -23.5 12t-5.5 27zM523 1751q-2 15 12 39l79 113q9 13 23 15t27 -9l290 -213q8 -5 11 -16t-4 -23l-50 -78q-21 -35 -53 -18l-321 168q-12 7 -14 22z" />
<glyph unicode="&#xc9;" horiz-adv-x="1099" d="M84 39l190 1356q2 15 14 27t25 12h772q15 0 24 -12t7 -27l-33 -224q-2 -15 -13 -26.5t-26 -11.5h-487l-37 -254h398q13 0 22.5 -12t7.5 -27l-33 -224q-3 -17 -15 -27.5t-26 -10.5h-395l-39 -277h488q14 0 22 -11.5t6 -27.5l-30 -223q-2 -15 -14 -27t-27 -12h-772 q-15 0 -23.5 12t-5.5 27zM502 1675q-4 11 1 22.5t15 16.5l352 213q8 8 26 6t26 -20l53 -123q7 -24 0.5 -39t-21.5 -22l-368 -168q-34 -15 -47 18z" />
<glyph unicode="&#xca;" horiz-adv-x="1099" d="M84 39l190 1356q2 15 14 27t25 12h772q15 0 24 -12t7 -27l-33 -224q-2 -15 -13 -26.5t-26 -11.5h-487l-37 -254h398q13 0 22.5 -12t7.5 -27l-33 -224q-3 -17 -15 -27.5t-26 -10.5h-395l-39 -277h488q14 0 22 -11.5t6 -27.5l-30 -223q-2 -15 -14 -27t-27 -12h-772 q-15 0 -23.5 12t-5.5 27zM426 1665q-12 21 16 39l285 213q29 20 49 0l234 -213q20 -20 6 -39l-74 -94q-7 -10 -20 -12.5t-19 2.5l-166 122l-217 -122q-25 -15 -39 8z" />
<glyph unicode="&#xcb;" horiz-adv-x="1099" d="M84 39l190 1356q2 15 14 27t25 12h772q15 0 24 -12t7 -27l-33 -224q-2 -15 -13 -26.5t-26 -11.5h-487l-37 -254h398q13 0 22.5 -12t7.5 -27l-33 -224q-3 -17 -15 -27.5t-26 -10.5h-395l-39 -277h488q14 0 22 -11.5t6 -27.5l-30 -223q-2 -15 -14 -27t-27 -12h-772 q-15 0 -23.5 12t-5.5 27zM354 1694q0 72 47.5 125t110.5 53q54 0 87.5 -37.5t33.5 -95.5q0 -70 -50 -123t-112 -53q-52 0 -84.5 37t-32.5 94zM844 1694q0 72 47 125t110 53q53 0 87 -37.5t34 -95.5q0 -70 -49.5 -123t-111.5 -53q-52 0 -84.5 37t-32.5 94z" />
<glyph unicode="&#xcc;" horiz-adv-x="645" d="M84 39l190 1356q2 15 14 27t25 12h256q13 0 22 -12t7 -27l-190 -1356q-2 -15 -14 -27t-25 -12h-256q-13 0 -22 12t-7 27zM258 1751q-2 15 12 39l80 113q19 29 49 6l291 -213q8 -5 10.5 -16t-4.5 -23l-49 -78q-21 -35 -53 -18l-322 168q-12 7 -14 22z" />
<glyph unicode="&#xcd;" horiz-adv-x="645" d="M84 39l190 1356q2 15 14 27t25 12h256q13 0 22 -12t7 -27l-190 -1356q-2 -15 -14 -27t-25 -12h-256q-13 0 -22 12t-7 27zM242 1675q-4 11 1 22.5t15 16.5l352 213q8 8 26 6t26 -20l53 -123q7 -24 0.5 -39t-21.5 -22l-368 -168q-34 -15 -47 18z" />
<glyph unicode="&#xce;" horiz-adv-x="645" d="M84 39l190 1356q2 15 14 27t25 12h256q13 0 22 -12t7 -27l-190 -1356q-2 -15 -14 -27t-25 -12h-256q-13 0 -22 12t-7 27zM162 1665q-12 21 16 39l285 213q29 20 49 0l233 -213q20 -20 7 -39l-74 -94q-7 -10 -20 -12.5t-19 2.5l-166 122l-217 -122q-25 -15 -39 8z" />
<glyph unicode="&#xcf;" horiz-adv-x="645" d="M84 39l190 1356q2 15 14 27t25 12h256q13 0 22 -12t7 -27l-190 -1356q-2 -15 -14 -27t-25 -12h-256q-13 0 -22 12t-7 27zM94 1694q0 72 47.5 125t110.5 53q54 0 87.5 -37.5t33.5 -95.5q0 -70 -50 -123t-112 -53q-52 0 -84.5 37t-32.5 94zM584 1694q0 72 47 125t110 53 q53 0 87 -37.5t34 -95.5q0 -70 -50 -123t-112 -53q-52 0 -84 36.5t-32 94.5z" />
<glyph unicode="&#xd0;" horiz-adv-x="1388" d="M84 39l86 614h-53q-14 0 -23 12t-6 27l6 35q3 16 13.5 27.5t23.5 11.5h55l88 629q2 15 14 27t25 12h457q118 0 222.5 -51t177 -136.5t114 -199t41.5 -236.5q0 -164 -58.5 -313.5t-159 -259t-241 -174t-297.5 -64.5h-458q-13 0 -21.5 12t-5.5 27zM442 303h154 q104 0 193 64.5t141.5 176t52.5 242.5q0 148 -74 247.5t-196 99.5h-154l-53 -367h233q15 0 24.5 -12t6.5 -27l-6 -37q-3 -15 -14.5 -26t-26.5 -11h-231z" />
<glyph unicode="&#xd1;" horiz-adv-x="1443" d="M86 35l193 1382q1 15 13.5 26t26.5 11h13q15 0 20.5 -0.5t13.5 -5.5t17 -16l592 -768h2l98 731q2 15 13 27t26 12h250q14 0 24 -11t9 -24l-193 -1383q-1 -15 -13 -25.5t-26 -10.5h-22q-14 0 -19 1t-12.5 7t-17.5 20l-590 787h-2l-92 -756q-3 -16 -14.5 -27.5t-26.5 -11.5 h-252q-12 0 -22 11t-9 24zM543 1712q9 20 25.5 44.5t44 55.5t67 51.5t80.5 20.5q35 0 68.5 -24t64.5 -48t61 -24q21 0 41 18t31 39q18 35 51 10l64 -53q9 -12 7 -22.5t-13 -36.5q-7 -17 -21.5 -39.5t-39.5 -52t-63 -49t-79 -19.5q-32 0 -62.5 15.5t-49.5 33.5t-42.5 33.5 t-44.5 15.5q-39 0 -71 -61q-8 -16 -22 -19.5t-28 7.5l-65 57q-17 17 -4 47z" />
<glyph unicode="&#xd2;" horiz-adv-x="1501" d="M98 614q0 171 61 326.5t164 268t245.5 179t299.5 66.5q156 0 287.5 -86t208 -233.5t76.5 -321.5q0 -227 -102 -418.5t-279.5 -303t-388.5 -111.5q-155 0 -286.5 84.5t-208.5 230.5t-77 319zM434 657q0 -145 78.5 -247.5t198.5 -102.5q109 0 200 63.5t142 170.5t51 233 q0 147 -79 249.5t-200 102.5q-107 0 -197.5 -64t-142 -172t-51.5 -233zM688 1751q-2 15 12 39l80 113q19 29 49 6l291 -213q8 -5 10.5 -16t-4.5 -23l-49 -78q-21 -35 -53 -18l-322 168q-12 7 -14 22z" />
<glyph unicode="&#xd3;" horiz-adv-x="1501" d="M98 614q0 171 61 326.5t164 268t245.5 179t299.5 66.5q156 0 287.5 -86t208 -233.5t76.5 -321.5q0 -227 -102 -418.5t-279.5 -303t-388.5 -111.5q-155 0 -286.5 84.5t-208.5 230.5t-77 319zM434 657q0 -145 78.5 -247.5t198.5 -102.5q109 0 200 63.5t142 170.5t51 233 q0 147 -79 249.5t-200 102.5q-107 0 -197.5 -64t-142 -172t-51.5 -233zM670 1675q-4 11 1 22.5t15 16.5l352 213q8 8 26 6t26 -20l53 -123q7 -24 0.5 -39t-21.5 -22l-368 -168q-34 -15 -47 18z" />
<glyph unicode="&#xd4;" horiz-adv-x="1501" d="M98 614q0 171 61 326.5t164 268t245.5 179t299.5 66.5q156 0 287.5 -86t208 -233.5t76.5 -321.5q0 -227 -102 -418.5t-279.5 -303t-388.5 -111.5q-155 0 -286.5 84.5t-208.5 230.5t-77 319zM434 657q0 -145 78.5 -247.5t198.5 -102.5q109 0 200 63.5t142 170.5t51 233 q0 147 -79 249.5t-200 102.5q-107 0 -197.5 -64t-142 -172t-51.5 -233zM594 1665q-12 21 16 39l285 213q29 20 49 0l234 -213q20 -20 6 -39l-74 -94q-7 -10 -20 -12.5t-19 2.5l-166 122l-217 -122q-25 -15 -39 8z" />
<glyph unicode="&#xd5;" horiz-adv-x="1501" d="M98 614q0 171 61 326.5t164 268t245.5 179t299.5 66.5q156 0 287.5 -86t208 -233.5t76.5 -321.5q0 -227 -102 -418.5t-279.5 -303t-388.5 -111.5q-155 0 -286.5 84.5t-208.5 230.5t-77 319zM434 657q0 -145 78.5 -247.5t198.5 -102.5q109 0 200 63.5t142 170.5t51 233 q0 147 -79 249.5t-200 102.5q-107 0 -197.5 -64t-142 -172t-51.5 -233zM606 1712q9 20 25.5 44.5t44 55.5t67 51.5t80.5 20.5q35 0 69 -24t65 -48t61 -24q21 0 41 18t31 39q18 35 51 10l63 -53q9 -12 7 -22.5t-13 -36.5q-7 -17 -21.5 -39.5t-39.5 -52t-63 -49t-79 -19.5 q-32 0 -62.5 15.5t-49 33.5t-42 33.5t-44.5 15.5q-40 0 -72 -61q-8 -16 -21.5 -19.5t-27.5 7.5l-66 57q-17 17 -4 47z" />
<glyph unicode="&#xd6;" horiz-adv-x="1501" d="M98 614q0 171 61 326.5t164 268t245.5 179t299.5 66.5q156 0 287.5 -86t208 -233.5t76.5 -321.5q0 -227 -102 -418.5t-279.5 -303t-388.5 -111.5q-155 0 -286.5 84.5t-208.5 230.5t-77 319zM434 657q0 -145 78.5 -247.5t198.5 -102.5q109 0 200 63.5t142 170.5t51 233 q0 147 -79 249.5t-200 102.5q-107 0 -197.5 -64t-142 -172t-51.5 -233zM520 1694q0 72 47.5 125t110.5 53q54 0 87.5 -37.5t33.5 -95.5q0 -70 -50 -123t-112 -53q-52 0 -84.5 37t-32.5 94zM1010 1694q0 72 47 125t110 53q53 0 87 -37.5t34 -95.5q0 -70 -50 -123t-112 -53 q-52 0 -84 36.5t-32 94.5z" />
<glyph unicode="&#xd7;" d="M245.5 475q2.5 17 14.5 27l219 215l-153 211q-8 10 -6 27t12 26l110 96q11 9 26.5 9.5t23.5 -9.5l153 -209l223 215q12 10 26.5 9.5t23.5 -11.5l94 -106q9 -9 7 -25.5t-13 -27.5l-224 -215l158 -211q8 -10 5 -27.5t-15 -26.5l-111 -94q-13 -10 -26 -11t-21 9l-158 211 l-221 -215q-11 -10 -24.5 -9.5t-22.5 9.5l-94 107q-9 9 -6.5 26z" />
<glyph unicode="&#xd8;" horiz-adv-x="1503" d="M39 73.5q2 16.5 12 26.5l154 148q-105 162 -105 366q0 171 61 326.5t164 268t245.5 179t299.5 66.5q117 0 221.5 -49.5t182.5 -138.5l158 151q12 12 26 11.5t23 -11.5l20 -24q10 -11 8 -26.5t-16 -27.5l-160 -151q109 -170 109 -375q0 -170 -60.5 -324.5t-163 -266.5 t-245.5 -178.5t-301 -66.5q-117 0 -222 50t-184 139l-151 -146q-11 -10 -25 -9t-22 12l-23 24q-8 10 -6 26.5zM436 657q0 -82 29 -161l559 532q-81 98 -197 98q-98 0 -188.5 -63.5t-146.5 -172.5t-56 -233zM518 406q76 -99 195 -99q100 0 191 63t146.5 171.5t55.5 232.5 q0 80 -31 164z" />
<glyph unicode="&#xd9;" horiz-adv-x="1359" d="M139 518l121 877q2 15 14 27t25 12h260q13 0 23 -12t8 -27l-119 -860q-15 -105 32 -166.5t134 -61.5q94 0 160.5 61t81.5 167l118 860q2 15 13 27t26 12h258q13 0 23 -12t8 -27l-121 -877q-36 -251 -195.5 -394.5t-412.5 -143.5q-102 0 -193 41t-155 111t-94.5 171.5 t-14.5 214.5zM623 1751q-2 15 12 39l80 113q19 29 49 6l291 -213q8 -5 10.5 -16t-4.5 -23l-49 -78q-21 -35 -54 -18l-321 168q-12 7 -14 22z" />
<glyph unicode="&#xda;" horiz-adv-x="1359" d="M139 518l121 877q2 15 14 27t25 12h260q13 0 23 -12t8 -27l-119 -860q-15 -105 32 -166.5t134 -61.5q94 0 160.5 61t81.5 167l118 860q2 15 13 27t26 12h258q13 0 23 -12t8 -27l-121 -877q-36 -251 -195.5 -394.5t-412.5 -143.5q-102 0 -193 41t-155 111t-94.5 171.5 t-14.5 214.5zM606 1675q-4 11 1.5 22.5t15.5 16.5l352 213q8 8 25.5 6t25.5 -20l53 -123q7 -24 1 -39t-21 -22l-369 -168q-34 -15 -47 18z" />
<glyph unicode="&#xdb;" horiz-adv-x="1359" d="M139 518l121 877q2 15 14 27t25 12h260q13 0 23 -12t8 -27l-119 -860q-15 -105 32 -166.5t134 -61.5q94 0 160.5 61t81.5 167l118 860q2 15 13 27t26 12h258q13 0 23 -12t8 -27l-121 -877q-36 -251 -195.5 -394.5t-412.5 -143.5q-102 0 -193 41t-155 111t-94.5 171.5 t-14.5 214.5zM526 1665q-12 21 17 39l284 213q30 20 50 0l233 -213q20 -20 6 -39l-74 -94q-7 -10 -19.5 -12.5t-18.5 2.5l-166 122l-217 -122q-25 -15 -39 8z" />
<glyph unicode="&#xdc;" horiz-adv-x="1359" d="M139 518l121 877q2 15 14 27t25 12h260q13 0 23 -12t8 -27l-119 -860q-15 -105 32 -166.5t134 -61.5q94 0 160.5 61t81.5 167l118 860q2 15 13 27t26 12h258q13 0 23 -12t8 -27l-121 -877q-36 -251 -195.5 -394.5t-412.5 -143.5q-102 0 -193 41t-155 111t-94.5 171.5 t-14.5 214.5zM459 1694q0 72 47 125t110 53q54 0 87.5 -37.5t33.5 -95.5q0 -70 -50 -123t-112 -53q-52 0 -84 36.5t-32 94.5zM948 1694q0 72 47.5 125t110.5 53q54 0 87.5 -37.5t33.5 -95.5q0 -70 -50 -123t-112 -53q-52 0 -84.5 37t-32.5 94z" />
<glyph unicode="&#xdd;" horiz-adv-x="1157" d="M125 1374q-8 21 4 40.5t33 19.5h258q21 0 29 -19l167 -416h5l286 416q14 19 33 19h289q23 0 29.5 -20t-7.5 -40l-501 -682l-91 -653q-1 -15 -14 -27t-27 -12h-253q-14 0 -22.5 11.5t-6.5 27.5l92 651zM485 1675q-4 11 1.5 22.5t15.5 16.5l352 213q8 8 25.5 6t25.5 -20 l53 -123q7 -24 1 -39t-21 -22l-369 -168q-34 -15 -47 18z" />
<glyph unicode="&#xde;" horiz-adv-x="1118" d="M84 39l190 1356q2 15 14 27t27 12h250q13 0 22 -12t7 -27l-31 -221h166q153 0 253.5 -116t100.5 -280q0 -140 -64 -259t-175 -189t-242 -70h-168l-31 -221q-1 -15 -14 -27t-27 -12h-249q-15 0 -23.5 12t-5.5 27zM477 559h148q55 0 98 55t43 131q0 54 -27.5 90.5 t-68.5 36.5h-150z" />
<glyph unicode="&#xdf;" horiz-adv-x="1146" d="M-27 -440l187 1327q18 128 55 227.5t98 178t154.5 120t216.5 41.5q60 0 118 -12.5t112.5 -40t95.5 -67t65.5 -97.5t24.5 -127q0 -68 -21 -130t-51.5 -105t-60.5 -79t-51 -66t-21 -52q0 -18 24 -52.5t52 -70t51 -93.5t22 -118q-4 -177 -118.5 -271t-325.5 -96 q-15 0 -28 10t-13 23l-4 174q0 19 12.5 35t30.5 19q60 11 99 42.5t38 79.5q-1 34 -28.5 76.5t-59 76.5t-56.5 76t-24 75q1 31 22.5 71t51 79t59 78.5t50 82t20.5 76.5q0 45 -29 76.5t-92 31.5q-71 0 -108.5 -57t-57.5 -203l-184 -1339q-3 -19 -18 -33t-33 -14h-240 q-17 0 -27.5 14t-7.5 33z" />
<glyph unicode="&#xe0;" horiz-adv-x="1075" d="M49 416q0 114 37.5 217t101 176t150.5 115.5t182 42.5q53 0 101 -15t78.5 -36.5t53 -43t32.5 -36.5l10 -15l45 94q16 31 47 31h88q18 0 28 -12.5t7 -32.5l-129 -856q-3 -18 -17.5 -31.5t-29.5 -13.5h-103q-13 0 -23 10t-12 25l-14 84q-40 -55 -111.5 -98.5t-160.5 -43.5 q-161 0 -261 126t-100 313zM344 432q0 -71 37 -118.5t92 -47.5q78 0 133.5 71t55.5 173q0 72 -37.5 121t-92.5 49q-78 0 -133 -72t-55 -176zM422 1239q-2 15 12 39l80 113q19 29 49 6l291 -213q8 -5 10.5 -16t-4.5 -23l-49 -78q-21 -35 -53 -18l-322 168q-12 7 -14 22z" />
<glyph unicode="&#xe1;" horiz-adv-x="1075" d="M49 416q0 114 37.5 217t101 176t150.5 115.5t182 42.5q53 0 101 -15t78.5 -36.5t53 -43t32.5 -36.5l10 -15l45 94q16 31 47 31h88q18 0 28 -12.5t7 -32.5l-129 -856q-3 -18 -17.5 -31.5t-29.5 -13.5h-103q-13 0 -23 10t-12 25l-14 84q-40 -55 -111.5 -98.5t-160.5 -43.5 q-161 0 -261 126t-100 313zM344 432q0 -71 37 -118.5t92 -47.5q78 0 133.5 71t55.5 173q0 72 -37.5 121t-92.5 49q-78 0 -133 -72t-55 -176zM440 1163q-4 11 1.5 22.5t15.5 16.5l352 213q8 8 25.5 6t25.5 -20l53 -123q7 -24 1 -39t-21 -22l-369 -168q-34 -15 -47 18z" />
<glyph unicode="&#xe2;" horiz-adv-x="1075" d="M49 416q0 114 37.5 217t101 176t150.5 115.5t182 42.5q53 0 101 -15t78.5 -36.5t53 -43t32.5 -36.5l10 -15l45 94q16 31 47 31h88q18 0 28 -12.5t7 -32.5l-129 -856q-3 -18 -17.5 -31.5t-29.5 -13.5h-103q-13 0 -23 10t-12 25l-14 84q-40 -55 -111.5 -98.5t-160.5 -43.5 q-161 0 -261 126t-100 313zM319 1153q-12 21 17 39l285 213q29 20 49 0l233 -213q20 -20 6 -39l-73 -94q-7 -10 -20 -12.5t-19 2.5l-166 122l-217 -122q-25 -15 -39 8zM344 432q0 -71 37 -118.5t92 -47.5q78 0 133.5 71t55.5 173q0 72 -37.5 121t-92.5 49q-78 0 -133 -72 t-55 -176z" />
<glyph unicode="&#xe3;" horiz-adv-x="1075" d="M49 416q0 114 37.5 217t101 176t150.5 115.5t182 42.5q53 0 101 -15t78.5 -36.5t53 -43t32.5 -36.5l10 -15l45 94q16 31 47 31h88q18 0 28 -12.5t7 -32.5l-129 -856q-3 -18 -17.5 -31.5t-29.5 -13.5h-103q-13 0 -23 10t-12 25l-14 84q-40 -55 -111.5 -98.5t-160.5 -43.5 q-161 0 -261 126t-100 313zM344 432q0 -71 37 -118.5t92 -47.5q78 0 133.5 71t55.5 173q0 72 -37.5 121t-92.5 49q-78 0 -133 -72t-55 -176zM344 1241q9 20 25.5 44.5t44 55.5t67 51.5t80.5 20.5q35 0 69 -24t65 -48t61 -24q21 0 40.5 18t30.5 39q19 36 52 10l63 -53 q9 -12 7 -22.5t-13 -36.5q-7 -17 -21.5 -39.5t-39.5 -52t-63 -49t-79 -19.5q-32 0 -62.5 15.5t-49 33.5t-42 33.5t-44.5 15.5q-40 0 -72 -61q-8 -16 -21.5 -19.5t-27.5 7.5l-66 57q-17 17 -4 47z" />
<glyph unicode="&#xe4;" horiz-adv-x="1075" d="M49 416q0 114 37.5 217t101 176t150.5 115.5t182 42.5q53 0 101 -15t78.5 -36.5t53 -43t32.5 -36.5l10 -15l45 94q16 31 47 31h88q18 0 28 -12.5t7 -32.5l-129 -856q-3 -18 -17.5 -31.5t-29.5 -13.5h-103q-13 0 -23 10t-12 25l-14 84q-40 -55 -111.5 -98.5t-160.5 -43.5 q-161 0 -261 126t-100 313zM303 1217q0 72 47.5 125t110.5 53q53 0 87 -37.5t34 -95.5q0 -70 -50 -123.5t-112 -53.5q-52 0 -84.5 37t-32.5 95zM344 432q0 -71 37 -118.5t92 -47.5q78 0 133.5 71t55.5 173q0 72 -37.5 121t-92.5 49q-78 0 -133 -72t-55 -176zM698 1217 q0 72 47.5 125t110.5 53q54 0 87.5 -37.5t33.5 -95.5q0 -70 -50 -123.5t-112 -53.5q-52 0 -84.5 37t-32.5 95z" />
<glyph unicode="&#xe5;" horiz-adv-x="1075" d="M49 416q0 114 37.5 217t101 176t150.5 115.5t182 42.5q53 0 101 -15t78.5 -36.5t53 -43t32.5 -36.5l10 -15l45 94q16 31 47 31h88q18 0 28 -12.5t7 -32.5l-129 -856q-3 -18 -17.5 -31.5t-29.5 -13.5h-103q-13 0 -23 10t-12 25l-14 84q-40 -55 -111.5 -98.5t-160.5 -43.5 q-161 0 -261 126t-100 313zM344 432q0 -71 37 -118.5t92 -47.5q78 0 133.5 71t55.5 173q0 72 -37.5 121t-92.5 49q-78 0 -133 -72t-55 -176zM424 1247q0 110 71.5 188t174.5 78q77 0 132.5 -60t55.5 -144q0 -111 -71 -189t-175 -78q-76 0 -132 60t-56 145zM567 1266 q0 -31 18 -54.5t44 -23.5q33 0 59.5 31.5t26.5 70.5q0 31 -18 53.5t-44 22.5q-32 0 -59 -30.5t-27 -69.5z" />
<glyph unicode="&#xe6;" horiz-adv-x="1417" d="M16 244q0 152 113.5 253t278.5 101q34 0 70.5 -6t56.5 -12l20 -7q27 136 -102 136q-63 0 -217 -27q-18 -2 -32 9.5t-14 29.5v164q0 17 12.5 30.5t28.5 16.5q174 35 289 35q173 0 256 -90q111 90 293 90q122 0 216.5 -70t94.5 -180q0 -155 -151.5 -245.5t-409.5 -90.5 q-2 -58 29 -94.5t98 -36.5q33 0 80 17t76 38q31 23 51 0l94 -127q10 -14 6.5 -33t-14.5 -32q-133 -136 -344 -136q-94 0 -166 40t-117 104q-28 -30 -67 -59t-112.5 -57t-151.5 -28q-122 0 -193.5 71.5t-71.5 195.5zM299 287q0 -36 21.5 -60t54.5 -24q43 0 77.5 31t34.5 81 q0 37 -24.5 62.5t-59.5 25.5q-41 0 -72.5 -35t-31.5 -81zM831 553q68 0 127 12t100.5 40.5t41.5 68.5q0 27 -18 44t-52 17q-52 0 -113 -55.5t-86 -126.5z" />
<glyph unicode="&#xe7;" horiz-adv-x="909" d="M49 416q0 155 65.5 281t181.5 198t259 72q191 0 311 -166q9 -17 4 -36.5t-22 -31.5l-133 -121q-5 -8 -19.5 -6.5t-25.5 12.5q-70 62 -129 62q-76 0 -135.5 -72t-59.5 -170q0 -73 36.5 -122.5t94.5 -49.5q20 0 37 3.5t35.5 15t26 16t29.5 23t24 20.5q34 29 61 0l111 -115 q30 -30 6 -65q-117 -158 -299 -182l-74 -99q12 2 31 2q67 0 110 -40.5t43 -116.5q0 -110 -78.5 -174t-197.5 -64q-126 0 -178 49q-20 20 6 64l29 47q28 46 63 20q32 -26 78 -26q36 0 66 19.5t30 60.5q0 55 -76 55q-12 0 -24.5 -2.5t-20 -5t-18 -6.5t-14.5 -5q-17 -6 -30.5 9 t-4.5 30l104 187q-134 29 -218.5 148.5t-84.5 281.5z" />
<glyph unicode="&#xe8;" horiz-adv-x="931" d="M47 391q0 158 65.5 289t189 209t280.5 78q134 0 222.5 -66.5t88.5 -179.5q0 -171 -147 -255.5t-414 -84.5q-2 -55 28 -93t103 -38q32 0 76 17.5t73 37.5q9 9 28.5 9t31.5 -17l86 -117q9 -14 8 -32.5t-12 -30.5q-137 -140 -338 -140q-118 0 -203.5 58.5t-125.5 150.5 t-40 205zM344 553q68 0 127 12t100 40.5t41 68.5q0 27 -17.5 44t-51.5 17q-55 0 -115 -52.5t-84 -129.5zM408 1239q-2 15 12 39l80 113q19 29 49 6l291 -213q8 -5 10.5 -16t-4.5 -23l-49 -78q-21 -35 -54 -18l-321 168q-12 7 -14 22z" />
<glyph unicode="&#xe9;" horiz-adv-x="931" d="M47 391q0 158 65.5 289t189 209t280.5 78q134 0 222.5 -66.5t88.5 -179.5q0 -171 -147 -255.5t-414 -84.5q-2 -55 28 -93t103 -38q32 0 76 17.5t73 37.5q9 9 28.5 9t31.5 -17l86 -117q9 -14 8 -32.5t-12 -30.5q-137 -140 -338 -140q-118 0 -203.5 58.5t-125.5 150.5 t-40 205zM344 553q68 0 127 12t100 40.5t41 68.5q0 27 -17.5 44t-51.5 17q-55 0 -115 -52.5t-84 -129.5zM395 1163q-4 11 1.5 22.5t15.5 16.5l352 213q8 8 25.5 6t25.5 -20l53 -123q7 -24 1 -39t-21 -22l-369 -168q-34 -15 -47 18z" />
<glyph unicode="&#xea;" horiz-adv-x="931" d="M47 391q0 158 65.5 289t189 209t280.5 78q134 0 222.5 -66.5t88.5 -179.5q0 -171 -147 -255.5t-414 -84.5q-2 -55 28 -93t103 -38q32 0 76 17.5t73 37.5q9 9 28.5 9t31.5 -17l86 -117q9 -14 8 -32.5t-12 -30.5q-137 -140 -338 -140q-118 0 -203.5 58.5t-125.5 150.5 t-40 205zM319 1153q-12 21 17 39l285 213q29 20 49 0l233 -213q20 -20 6 -39l-73 -94q-7 -10 -20 -12.5t-19 2.5l-166 122l-217 -122q-25 -15 -39 8zM344 553q68 0 127 12t100 40.5t41 68.5q0 27 -17.5 44t-51.5 17q-55 0 -115 -52.5t-84 -129.5z" />
<glyph unicode="&#xeb;" horiz-adv-x="931" d="M47 391q0 158 65.5 289t189 209t280.5 78q134 0 222.5 -66.5t88.5 -179.5q0 -171 -147 -255.5t-414 -84.5q-2 -55 28 -93t103 -38q32 0 76 17.5t73 37.5q9 9 28.5 9t31.5 -17l86 -117q9 -14 8 -32.5t-12 -30.5q-137 -140 -338 -140q-118 0 -203.5 58.5t-125.5 150.5 t-40 205zM283 1217q0 72 47 125t110 53q54 0 87.5 -37.5t33.5 -95.5q0 -70 -50 -123.5t-112 -53.5q-52 0 -84 37t-32 95zM344 553q68 0 127 12t100 40.5t41 68.5q0 27 -17.5 44t-51.5 17q-55 0 -115 -52.5t-84 -129.5zM678 1217q0 72 47.5 125t110.5 53q53 0 86.5 -37.5 t33.5 -95.5q0 -70 -49.5 -123.5t-111.5 -53.5q-52 0 -84.5 37t-32.5 95z" />
<glyph unicode="&#xec;" horiz-adv-x="550" d="M39 45l121 856q3 20 16.5 32.5t30.5 12.5h237q18 0 29 -12.5t8 -32.5l-121 -856q-3 -18 -18 -31.5t-29 -13.5h-239q-17 0 -27.5 13t-7.5 32zM133 1239q-2 15 12 39l80 113q19 29 49 6l291 -213q8 -5 10.5 -16t-4.5 -23l-49 -78q-21 -35 -53 -18l-322 168q-12 7 -14 22z " />
<glyph unicode="&#xed;" horiz-adv-x="550" d="M39 45l121 856q3 20 16.5 32.5t30.5 12.5h237q18 0 29 -12.5t8 -32.5l-121 -856q-3 -18 -18 -31.5t-29 -13.5h-239q-17 0 -27.5 13t-7.5 32zM135 1163q-4 11 1.5 22.5t15.5 16.5l352 213q8 8 25.5 6t25.5 -20l53 -123q7 -24 1 -39t-21 -22l-369 -168q-34 -15 -47 18z" />
<glyph unicode="&#xee;" horiz-adv-x="550" d="M39 45l121 856q3 20 16.5 32.5t30.5 12.5h237q18 0 29 -12.5t8 -32.5l-121 -856q-3 -18 -18 -31.5t-29 -13.5h-239q-17 0 -27.5 13t-7.5 32zM41 1153q-12 21 16 39l285 213q29 20 49 0l234 -213q20 -20 6 -39l-74 -94q-7 -10 -20 -12.5t-19 2.5l-166 122l-217 -122 q-25 -15 -39 8z" />
<glyph unicode="&#xef;" horiz-adv-x="550" d="M23 1217q0 72 47 125t110 53q54 0 87.5 -37.5t33.5 -95.5q0 -70 -50 -123.5t-112 -53.5q-52 0 -84 37t-32 95zM39 45l121 856q3 20 16.5 32.5t30.5 12.5h237q18 0 29 -12.5t8 -32.5l-121 -856q-3 -18 -18 -31.5t-29 -13.5h-239q-17 0 -27.5 13t-7.5 32zM418 1217 q0 72 47 125t110 53q53 0 87 -37.5t34 -95.5q0 -70 -49.5 -123.5t-111.5 -53.5q-52 0 -84.5 37t-32.5 95z" />
<glyph unicode="&#xf0;" horiz-adv-x="1046" d="M49 391q0 130 39 233.5t104 166.5t144 96t164 33q41 0 87 -14t72 -38q-8 140 -127 250l-161 -92q-26 -18 -45 12l-17 31q-6 12 0.5 29.5t18.5 25.5l110 64q-52 31 -94 49q-22 6 -30.5 21.5t1.5 37.5l74 152q8 18 26.5 28.5t37.5 4.5q123 -40 245 -144l140 80 q27 15 43 -16l16 -31q6 -13 0.5 -29.5t-20.5 -23.5l-101 -60q195 -223 195 -546q0 -105 -17.5 -205t-58.5 -197t-102.5 -169t-156.5 -116t-212 -44q-155 0 -265 119t-110 292zM338 434q0 -73 33 -118.5t96 -45.5q84 0 136 73.5t52 168.5q0 74 -33.5 120t-97.5 46 q-80 0 -133 -73t-53 -171z" />
<glyph unicode="&#xf1;" horiz-adv-x="1073" d="M41 45l119 856q3 20 16.5 32.5t30.5 12.5h94q11 0 21.5 -7.5t13.5 -20.5l26 -95q29 32 51 51.5t58.5 44t81.5 36.5t98 12q120 0 197 -63t102.5 -168.5t5.5 -241.5l-61 -449q-3 -18 -17.5 -31.5t-29.5 -13.5h-217q-18 0 -28 13t-7 32l66 467q11 76 -16 122t-93 46 q-59 0 -94.5 -41t-44.5 -115l-68 -479q-5 -45 -65 -45h-207q-17 0 -27 13t-6 32zM336 1241q9 20 25.5 44.5t44 55.5t67 51.5t80.5 20.5q35 0 69 -24t65 -48t61 -24q21 0 40.5 18t30.5 39q18 35 51 10l64 -53q9 -12 7 -22.5t-13 -36.5q-7 -17 -21.5 -39.5t-39.5 -52t-63 -49 t-79 -19.5q-32 0 -62.5 15.5t-49.5 33.5t-42.5 33.5t-44.5 15.5q-39 0 -71 -61q-8 -16 -21.5 -19.5t-27.5 7.5l-66 57q-17 17 -4 47z" />
<glyph unicode="&#xf2;" horiz-adv-x="1032" d="M47 416q0 150 63 275t182 200.5t269 75.5q162 0 276.5 -128t114.5 -313q0 -149 -66.5 -275t-185 -200t-262.5 -74q-161 0 -276 126.5t-115 312.5zM344 432q0 -71 37 -118.5t92 -47.5q78 0 133.5 71t55.5 173q0 72 -37.5 121t-92.5 49q-78 0 -133 -72t-55 -176zM385 1239 q-2 15 12 39l80 113q19 29 49 6l291 -213q8 -5 10.5 -16t-4.5 -23l-49 -78q-21 -35 -53 -18l-322 168q-12 7 -14 22z" />
<glyph unicode="&#xf3;" horiz-adv-x="1032" d="M47 416q0 150 63 275t182 200.5t269 75.5q162 0 276.5 -128t114.5 -313q0 -149 -66.5 -275t-185 -200t-262.5 -74q-161 0 -276 126.5t-115 312.5zM344 432q0 -71 37 -118.5t92 -47.5q78 0 133.5 71t55.5 173q0 72 -37.5 121t-92.5 49q-78 0 -133 -72t-55 -176zM375 1163 q-4 11 1 22.5t15 16.5l352 213q8 8 26 6t26 -20l53 -123q7 -24 0.5 -39t-21.5 -22l-368 -168q-34 -15 -47 18z" />
<glyph unicode="&#xf4;" horiz-adv-x="1032" d="M47 416q0 150 63 275t182 200.5t269 75.5q162 0 276.5 -128t114.5 -313q0 -149 -66.5 -275t-185 -200t-262.5 -74q-161 0 -276 126.5t-115 312.5zM289 1153q-12 21 16 39l285 213q29 20 49 0l233 -213q20 -20 7 -39l-74 -94q-7 -10 -20 -12.5t-19 2.5l-166 122l-217 -122 q-25 -15 -39 8zM344 432q0 -71 37 -118.5t92 -47.5q78 0 133.5 71t55.5 173q0 72 -37.5 121t-92.5 49q-78 0 -133 -72t-55 -176z" />
<glyph unicode="&#xf5;" horiz-adv-x="1032" d="M47 416q0 150 63 275t182 200.5t269 75.5q162 0 276.5 -128t114.5 -313q0 -149 -66.5 -275t-185 -200t-262.5 -74q-161 0 -276 126.5t-115 312.5zM311 1241q9 20 25.5 44.5t44 55.5t67 51.5t80.5 20.5q35 0 69 -24t65 -48t61 -24q21 0 41 18t31 39q18 35 51 10l63 -53 q9 -12 7 -22.5t-13 -36.5q-7 -17 -21.5 -39.5t-39.5 -52t-63 -49t-79 -19.5q-32 0 -62.5 15.5t-49 33.5t-42 33.5t-44.5 15.5q-40 0 -72 -61q-8 -16 -21.5 -19.5t-27.5 7.5l-66 57q-17 17 -4 47zM344 432q0 -71 37 -118.5t92 -47.5q78 0 133.5 71t55.5 173q0 72 -37.5 121 t-92.5 49q-78 0 -133 -72t-55 -176z" />
<glyph unicode="&#xf6;" horiz-adv-x="1032" d="M47 416q0 150 63 275t182 200.5t269 75.5q162 0 276.5 -128t114.5 -313q0 -149 -66.5 -275t-185 -200t-262.5 -74q-161 0 -276 126.5t-115 312.5zM266 1217q0 72 47.5 125t110.5 53q54 0 87.5 -37.5t33.5 -95.5q0 -70 -50 -123.5t-112 -53.5q-52 0 -84.5 37t-32.5 95z M344 432q0 -71 37 -118.5t92 -47.5q78 0 133.5 71t55.5 173q0 72 -37.5 121t-92.5 49q-78 0 -133 -72t-55 -176zM662 1217q0 72 47 125t110 53q53 0 87 -37.5t34 -95.5q0 -70 -50 -123.5t-112 -53.5q-52 0 -84 37t-32 95z" />
<glyph unicode="&#xf7;" d="M213 637l20 143q1 15 13 27t26 12h748q13 0 22 -12t7 -27l-21 -143q-2 -15 -14 -27t-25 -12h-747q-13 0 -22 12t-7 27zM422 297q0 69 50 119.5t116 50.5q55 0 91 -38.5t36 -94.5q0 -70 -51.5 -121t-118.5 -51q-53 0 -88 39.5t-35 95.5zM539 1098q0 71 49 121.5t114 50.5 q55 0 91 -38.5t36 -94.5q0 -70 -51.5 -121t-118.5 -51q-53 0 -86.5 39t-33.5 94z" />
<glyph unicode="&#xf8;" horiz-adv-x="1032" d="M27 81q2 19 16 32l66 63q-62 108 -62 240q0 150 63 275t182 200.5t269 75.5q147 0 258 -111l78 76q31 28 59 0l23 -29q11 -10 9 -28.5t-19 -30.5l-80 -76q63 -108 63 -242q0 -149 -66.5 -275t-185 -200t-262.5 -74q-148 0 -256 105l-67 -64q-14 -12 -30 -11t-24 13 l-26 29q-10 13 -8 32zM344 432q0 -21 2 -31l258 250q-36 29 -72 29q-78 0 -133 -72t-55 -176zM399 293q34 -27 74 -27q78 0 133.5 71t55.5 173q0 17 -3 35z" />
<glyph unicode="&#xf9;" horiz-adv-x="1042" d="M84 436l68 465q1 19 15 32t30 13h221q17 0 27.5 -12.5t9.5 -32.5l-70 -481q-14 -83 3 -118.5t79 -35.5q61 0 92.5 30.5t40.5 109.5l72 495q5 25 17.5 35t45.5 10h203q17 0 26.5 -12.5t8.5 -32.5l-121 -856q-1 -19 -15.5 -32t-31.5 -13h-92q-25 0 -33 29l-27 92 q-119 -144 -282 -144q-183 0 -250.5 111.5t-36.5 347.5zM377 1239q-2 15 12 39l80 113q19 29 49 6l291 -213q8 -5 10.5 -16t-4.5 -23l-49 -78q-21 -35 -53 -18l-322 168q-12 7 -14 22z" />
<glyph unicode="&#xfa;" horiz-adv-x="1042" d="M84 436l68 465q1 19 15 32t30 13h221q17 0 27.5 -12.5t9.5 -32.5l-70 -481q-14 -83 3 -118.5t79 -35.5q61 0 92.5 30.5t40.5 109.5l72 495q5 25 17.5 35t45.5 10h203q17 0 26.5 -12.5t8.5 -32.5l-121 -856q-1 -19 -15.5 -32t-31.5 -13h-92q-25 0 -33 29l-27 92 q-119 -144 -282 -144q-183 0 -250.5 111.5t-36.5 347.5zM397 1163q-4 11 1.5 22.5t15.5 16.5l352 213q8 8 25.5 6t25.5 -20l53 -123q7 -24 1 -39t-21 -22l-369 -168q-34 -15 -47 18z" />
<glyph unicode="&#xfb;" horiz-adv-x="1042" d="M84 436l68 465q1 19 15 32t30 13h221q17 0 27.5 -12.5t9.5 -32.5l-70 -481q-14 -83 3 -118.5t79 -35.5q61 0 92.5 30.5t40.5 109.5l72 495q5 25 17.5 35t45.5 10h203q17 0 26.5 -12.5t8.5 -32.5l-121 -856q-1 -19 -15.5 -32t-31.5 -13h-92q-25 0 -33 29l-27 92 q-119 -144 -282 -144q-183 0 -250.5 111.5t-36.5 347.5zM289 1153q-12 21 16 39l285 213q29 20 49 0l233 -213q20 -20 7 -39l-74 -94q-7 -10 -20 -12.5t-19 2.5l-166 122l-217 -122q-25 -15 -39 8z" />
<glyph unicode="&#xfc;" horiz-adv-x="1042" d="M84 436l68 465q1 19 15 32t30 13h221q17 0 27.5 -12.5t9.5 -32.5l-70 -481q-14 -83 3 -118.5t79 -35.5q61 0 92.5 30.5t40.5 109.5l72 495q5 25 17.5 35t45.5 10h203q17 0 26.5 -12.5t8.5 -32.5l-121 -856q-1 -19 -15.5 -32t-31.5 -13h-92q-25 0 -33 29l-27 92 q-119 -144 -282 -144q-183 0 -250.5 111.5t-36.5 347.5zM276 1217q0 72 47.5 125t110.5 53q54 0 87.5 -37.5t33.5 -95.5q0 -70 -50 -123.5t-112 -53.5q-52 0 -84.5 37t-32.5 95zM672 1217q0 72 47 125t110 53q53 0 87 -37.5t34 -95.5q0 -70 -50 -123.5t-112 -53.5 q-52 0 -84 37t-32 95z" />
<glyph unicode="&#xfd;" horiz-adv-x="960" d="M-54.5 -470q-6.5 17 7.5 42l285 530l-156 793q-5 23 6.5 37t36.5 14h201q25 0 36.5 -9t14.5 -32l55 -475h6l221 490q13 26 39 26h246q23 0 31 -19t-4 -42l-717 -1344q-5 -10 -16 -19t-21 -9h-242q-23 0 -29.5 17zM436 1163q-4 11 1.5 22.5t15.5 16.5l352 213q8 8 25.5 6 t25.5 -20l53 -123q7 -24 1 -39t-21 -22l-369 -168q-34 -15 -47 18z" />
<glyph unicode="&#xfe;" horiz-adv-x="1085" d="M-27 -442l256 1831q3 18 17.5 31.5t29.5 13.5h230q17 0 26.5 -13t6.5 -32l-86 -486q80 64 215 64q109 0 193.5 -67t122.5 -181t20 -246q-30 -218 -164.5 -357t-333.5 -139q-41 0 -84.5 17.5t-71.5 40.5l-67 -477q-3 -18 -16.5 -31.5t-30.5 -13.5h-230q-15 0 -26 14t-7 31 zM385 432q0 -71 37 -118.5t92 -47.5q78 0 133 71t55 173q0 72 -37 121t-92 49q-78 0 -133 -72t-55 -176z" />
<glyph unicode="&#xff;" horiz-adv-x="960" d="M-54.5 -470q-6.5 17 7.5 42l285 530l-156 793q-5 23 6.5 37t36.5 14h201q25 0 36.5 -9t14.5 -32l55 -475h6l221 490q13 26 39 26h246q23 0 31 -19t-4 -42l-717 -1344q-5 -10 -16 -19t-21 -9h-242q-23 0 -29.5 17zM240 1217q0 72 47 125t110 53q53 0 87 -37.5t34 -95.5 q0 -70 -50 -123.5t-112 -53.5q-52 0 -84 37t-32 95zM635 1217q0 72 47.5 125t110.5 53q53 0 86.5 -37.5t33.5 -95.5q0 -70 -49.5 -123.5t-111.5 -53.5q-52 0 -84.5 37t-32.5 95z" />
<glyph unicode="&#x152;" horiz-adv-x="1853" d="M100 614q0 230 99 422t277 305t398 113q41 0 89.5 -5t76.5 -10l29 -5h772q13 0 22 -12t7 -27l-31 -224q-2 -15 -14 -26.5t-27 -11.5h-487l-35 -254h395q13 0 23 -12t8 -27l-31 -224q-3 -17 -15 -27.5t-26 -10.5h-397l-39 -277h487q15 0 23.5 -12t5.5 -27l-31 -223 q-2 -15 -14 -27t-27 -12h-772q-96 -20 -198 -20q-152 0 -283 84.5t-208 230.5t-77 319zM436 655q0 -146 79 -250t198 -104q96 0 166 33l108 764q-60 32 -158 32q-151 0 -272 -143t-121 -332z" />
<glyph unicode="&#x153;" horiz-adv-x="1525" d="M47 416q0 154 66.5 280t184 198.5t261.5 72.5q158 0 272 -121q5 5 15.5 13t44.5 29t71 37t95 29t117 13q78 0 147 -25t116 -80.5t48 -130.5q1 -90 -37 -157.5t-112.5 -109.5t-177 -62.5t-234.5 -20.5q-2 -55 28.5 -93t100.5 -38q33 0 78.5 17t72.5 38q10 12 28.5 11 t31.5 -19l86 -117q9 -14 8 -32.5t-12 -30.5q-137 -140 -338 -140q-161 0 -260 107q-62 -51 -144 -79t-164 -28q-109 0 -200 59.5t-142 160t-51 219.5zM344 432q0 -71 37 -118.5t92 -47.5q78 0 133.5 71t55.5 173q0 72 -37.5 121t-92.5 49q-78 0 -133 -72t-55 -176zM936 553 q68 0 127 12t100 40.5t41 68.5q0 27 -17.5 44t-51.5 17q-52 0 -113 -55.5t-86 -126.5z" />
<glyph unicode="&#x178;" horiz-adv-x="1157" d="M125 1374q-8 21 4 40.5t33 19.5h258q21 0 29 -19l167 -416h5l286 416q14 19 33 19h289q23 0 29.5 -20t-7.5 -40l-501 -682l-91 -653q-1 -15 -14 -27t-27 -12h-253q-14 0 -22.5 11.5t-6.5 27.5l92 651zM338 1694q0 72 47.5 125t110.5 53q53 0 86.5 -37.5t33.5 -95.5 q0 -70 -49.5 -123t-111.5 -53q-52 0 -84.5 37t-32.5 94zM827 1694q0 72 47.5 125t110.5 53q53 0 87 -37.5t34 -95.5q0 -70 -50 -123t-112 -53q-52 0 -84.5 37t-32.5 94z" />
<glyph unicode="&#x2c6;" horiz-adv-x="688" d="M-27 1153q-12 21 17 39l284 213q30 20 50 0l233 -213q20 -20 6 -39l-74 -94q-7 -10 -19.5 -12.5t-18.5 2.5l-166 122l-217 -122q-25 -15 -39 8z" />
<glyph unicode="&#x2dc;" horiz-adv-x="700" d="M-23 1241q9 19 26 44t44.5 56t67 51.5t80.5 20.5q35 0 68.5 -24t64.5 -48t61 -24q21 0 41 18t31 39q18 35 51 10l63 -53q9 -12 7 -22.5t-13 -36.5q-7 -18 -21.5 -40t-39.5 -51.5t-62.5 -49t-78.5 -19.5q-32 0 -62.5 15.5t-49.5 33.5t-42.5 33.5t-44.5 15.5q-40 0 -72 -61 q-8 -16 -21.5 -19.5t-27.5 7.5l-65 57q-18 18 -5 47z" />
<glyph unicode="&#x2000;" horiz-adv-x="1005" />
<glyph unicode="&#x2001;" horiz-adv-x="2011" />
<glyph unicode="&#x2002;" horiz-adv-x="1005" />
<glyph unicode="&#x2003;" horiz-adv-x="2011" />
<glyph unicode="&#x2004;" horiz-adv-x="670" />
<glyph unicode="&#x2005;" horiz-adv-x="502" />
<glyph unicode="&#x2006;" horiz-adv-x="335" />
<glyph unicode="&#x2007;" horiz-adv-x="335" />
<glyph unicode="&#x2008;" horiz-adv-x="251" />
<glyph unicode="&#x2009;" horiz-adv-x="402" />
<glyph unicode="&#x200a;" horiz-adv-x="111" />
<glyph unicode="&#x2010;" horiz-adv-x="702" d="M76 401l24 187q1 17 13.5 28t27.5 11h430q15 0 23 -11t6 -28l-25 -187q-1 -15 -13 -25.5t-27 -10.5h-431q-15 0 -22.5 10t-5.5 26z" />
<glyph unicode="&#x2011;" horiz-adv-x="702" d="M76 401l24 187q1 17 13.5 28t27.5 11h430q15 0 23 -11t6 -28l-25 -187q-1 -15 -13 -25.5t-27 -10.5h-431q-15 0 -22.5 10t-5.5 26z" />
<glyph unicode="&#x2012;" horiz-adv-x="702" d="M76 401l24 187q1 17 13.5 28t27.5 11h430q15 0 23 -11t6 -28l-25 -187q-1 -15 -13 -25.5t-27 -10.5h-431q-15 0 -22.5 10t-5.5 26z" />
<glyph unicode="&#x2013;" horiz-adv-x="1044" d="M82 453l14 104q3 17 14.5 28t26.5 11h772q15 0 23.5 -11t5.5 -28l-14 -104q-1 -15 -13.5 -26t-27.5 -11h-770q-15 0 -24 11t-7 26z" />
<glyph unicode="&#x2014;" horiz-adv-x="1449" d="M82 453l14 104q3 17 14.5 28t26.5 11h1178q15 0 23 -11t5 -28l-14 -104q-1 -15 -13.5 -26t-27.5 -11h-1175q-15 0 -24 11t-7 26z" />
<glyph unicode="&#x2018;" horiz-adv-x="489" d="M123 961q0 224 211 475q20 22 47 2l59 -45q20 -14 -8 -50q-50 -62 -89 -135.5t-46 -130.5q31 21 74 21q58 0 88 -36t30 -93q0 -80 -57.5 -138.5t-142.5 -58.5q-73 0 -119.5 48t-46.5 141z" />
<glyph unicode="&#x2019;" horiz-adv-x="483" d="M143 1257q0 80 58 138.5t143 58.5q73 0 119.5 -48t46.5 -140q0 -224 -211 -475q-20 -23 -47 -3l-59 46q-19 14 8 49q50 62 89 135.5t46 130.5q-32 -21 -74 -21q-58 0 -88.5 36t-30.5 93z" />
<glyph unicode="&#x201a;" horiz-adv-x="507" d="M6 131q0 80 58 138.5t143 58.5q73 0 119.5 -48t46.5 -141q0 -224 -211 -475q-20 -22 -47 -2l-60 45q-19 14 8 49q50 63 89.5 136.5t46.5 130.5q-31 -21 -74 -21q-58 0 -88.5 36t-30.5 93z" />
<glyph unicode="&#x201c;" horiz-adv-x="911" d="M123 961q0 224 211 475q20 22 47 2l59 -45q20 -14 -8 -50q-50 -62 -89 -135.5t-46 -130.5q31 21 74 21q58 0 88 -36t30 -93q0 -80 -57.5 -138.5t-142.5 -58.5q-73 0 -119.5 48t-46.5 141zM547 961q0 224 211 475q20 22 47 2l59 -45q20 -14 -8 -50q-50 -62 -89 -135.5 t-46 -130.5q31 21 74 21q58 0 88 -36t30 -93q0 -80 -57.5 -138.5t-142.5 -58.5q-73 0 -119.5 48t-46.5 141z" />
<glyph unicode="&#x201d;" horiz-adv-x="907" d="M143 1257q0 80 58 138.5t143 58.5q73 0 119.5 -48t46.5 -140q0 -224 -211 -475q-20 -23 -47 -3l-59 46q-19 14 8 49q50 62 89 135.5t46 130.5q-32 -21 -74 -21q-58 0 -88.5 36t-30.5 93zM567 1257q0 80 58 138.5t143 58.5q73 0 119.5 -48t46.5 -140q0 -224 -211 -475 q-20 -23 -47 -3l-60 46q-19 13 9 49q50 62 89 135.5t46 130.5q-32 -21 -74 -21q-58 0 -88.5 36t-30.5 93z" />
<glyph unicode="&#x201e;" horiz-adv-x="931" d="M6 129q0 80 58 138.5t143 58.5q73 0 119.5 -48t46.5 -141q0 -224 -211 -475q-20 -22 -47 -2l-60 45q-19 14 8 49q50 63 89.5 136t46.5 130q-30 -20 -74 -20q-58 0 -88.5 36t-30.5 93zM430 129q0 80 58 138.5t143 58.5q73 0 119.5 -48t46.5 -141q0 -224 -211 -475 q-20 -22 -47 -2l-60 45q-19 14 8 49q50 63 89.5 136t46.5 130q-30 -20 -74 -20q-58 0 -88.5 36t-30.5 93z" />
<glyph unicode="&#x2022;" horiz-adv-x="784" d="M102 485q0 132 98.5 232t221.5 100q103 0 173.5 -77t70.5 -185q0 -129 -101 -226.5t-227 -97.5q-100 0 -168 75t-68 179z" />
<glyph unicode="&#x2026;" horiz-adv-x="1304" d="M6 123q0 75 54 128.5t126 53.5q58 0 97 -41t39 -100q0 -74 -56 -129t-127 -55q-58 0 -95.5 41.5t-37.5 101.5zM434 123q0 75 54 128.5t126 53.5q58 0 97 -41t39 -100q0 -74 -55.5 -129t-125.5 -55q-59 0 -97 41.5t-38 101.5zM862 123q0 74 54.5 128t125.5 54q58 0 97 -41 t39 -100q0 -74 -56 -129t-127 -55q-58 0 -95.5 41.5t-37.5 101.5z" />
<glyph unicode="&#x202f;" horiz-adv-x="402" />
<glyph unicode="&#x2039;" horiz-adv-x="585" d="M53 459q-11 23 6 49l234 303q20 25 37 25h182q24 0 29 -19.5t-9 -44.5l-163 -305l59 -281q5 -26 -5 -43.5t-32 -17.5h-166q-16 0 -24 16z" />
<glyph unicode="&#x203a;" horiz-adv-x="585" d="M16 144q-5 19 9 44l163 306l-59 280q-5 26 5 44t32 18h166q16 0 24 -17l148 -317q11 -23 -6 -49l-234 -303q-20 -25 -37 -25h-182q-24 0 -29 19z" />
<glyph unicode="&#x205f;" horiz-adv-x="502" />
<glyph unicode="&#x20ac;" d="M39 547l4 37q1 15 14.5 26t28.5 11h84q5 84 14 133h-80q-15 0 -23.5 11.5t-6.5 27.5l4 36q1 15 14.5 26t28.5 11h82q33 124 89 227.5t136.5 185.5t193.5 128.5t246 46.5q267 0 394 -158q22 -28 -5 -61l-143 -180q-9 -12 -25.5 -11.5t-25.5 11.5q-78 90 -197 90 q-93 0 -179 -73t-128 -206h422q17 0 26 -11.5t7 -27.5l-4 -36q-2 -15 -15 -26t-30 -11h-433q-11 -48 -16 -133h348q17 0 26 -11.5t7 -27.5l-4 -37q-2 -15 -15 -26t-30 -11h-330q11 -96 63 -148.5t160 -52.5q56 0 100 22.5t105 69.5q14 10 28 11t25 -13l119 -200 q8 -12 5 -29.5t-15 -26.5q-103 -79 -200.5 -120t-215.5 -41q-216 0 -362.5 141.5t-161.5 386.5h-98q-15 0 -24 12t-7 27z" />
<glyph unicode="&#x2122;" horiz-adv-x="1486" d="M240 1294l14 101q1 15 14 27t27 12h395q15 0 24 -12t7 -27l-14 -101q-3 -17 -14.5 -28t-26.5 -11h-107l-61 -442q-1 -15 -14 -27t-27 -12h-115q-15 0 -23.5 12t-5.5 27l62 442h-107q-14 0 -22.5 11t-5.5 28zM702 821l179 592q8 31 41 31h6q19 0 28 -23l123 -352l224 352 q14 23 34 23h6q13 0 22 -9.5t9 -21.5l15 -594q0 -19 -12 -32t-29 -13h-113q-12 0 -20.5 10.5t-8.5 24.5l4 215l-135 -238q-9 -18 -33 -18h-10q-21 0 -28 20l-68 236l-55 -217q-3 -12 -16 -22.5t-25 -10.5h-109q-18 0 -26.5 14t-2.5 33z" />
<glyph unicode="&#x25fc;" horiz-adv-x="942" d="M0 0v942h942v-942h-942z" />
<glyph unicode="&#xfb03;" horiz-adv-x="1916" d="M63 -440l144 1112h-94q-18 0 -27.5 12.5t-7.5 32.5l28 184q1 19 15.5 32t30.5 13h98l6 35q37 214 159 333.5t314 119.5q189 0 334 -134q139 154 369 154q99 0 194.5 -29.5t145.5 -66.5q32 -29 10 -66l-107 -162q-24 -39 -73 -14q-73 43 -168 43q-182 0 -211 -198l-2 -15 h591q18 0 28 -12.5t7 -32.5l-121 -856q-3 -19 -16.5 -32t-30.5 -13h-239q-18 0 -26.5 12.5t-6.5 32.5l90 627h-315l-152 -1112q-2 -19 -16 -33t-31 -14h-231q-17 0 -27 14t-8 33l143 1112h-332l-147 -1112q-1 -19 -15.5 -33t-31.5 -14h-236q-15 0 -25.5 14t-9.5 33zM571 946 h332q9 69 21 113q-22 33 -69 57.5t-110 24.5q-146 0 -170 -166z" />
<glyph unicode="&#xfb04;" horiz-adv-x="1966" d="M63 -440l144 1112h-94q-18 0 -27.5 12.5t-7.5 32.5l28 184q1 19 15.5 32t30.5 13h98l6 35q37 214 158.5 333.5t310.5 119.5q200 0 330 -121q122 141 331 141q64 0 124.5 -14.5t101.5 -35t72 -41.5t46 -35l15 -15l49 96q12 25 41 25h96q15 0 24.5 -13t6.5 -32l-188 -1344 q-1 -18 -15.5 -31.5t-32.5 -13.5h-237q-17 0 -27 13t-8 32l148 1034q-28 30 -77.5 55t-105.5 25q-95 0 -139 -52t-59 -149l-2 -12h139q17 0 26.5 -12.5t8.5 -32.5l-29 -184q-1 -18 -15 -31.5t-30 -13.5h-141l-150 -1112q-2 -19 -16 -33t-31 -14h-233q-17 0 -27 14t-8 33 l143 1112h-328l-147 -1112q-1 -19 -15.5 -33t-31.5 -14h-236q-15 0 -25.5 14t-9.5 33zM571 946h328q1 17 21 113q-22 32 -68 57t-107 25q-146 0 -170 -166z" />
</font>
</defs>
</svg>
