<?xml version="1.0" standalone="no"?>
<!DOCTYPE svg PUBLIC "-//W3C//DTD SVG 1.1//EN" "http://www.w3.org/Graphics/SVG/1.1/DTD/svg11.dtd" >
<svg xmlns="http://www.w3.org/2000/svg">
<metadata></metadata>
<defs>
<font id="brandon_textbold_italic" horiz-adv-x="1228" >
<font-face units-per-em="2048" ascent="1434" descent="-614" />
<missing-glyph horiz-adv-x="491" />
<glyph unicode="&#xfb01;" horiz-adv-x="1189" d="M61 -440l164 1157h-98q-18 0 -28.5 13.5t-8.5 31.5l19 139q3 20 15.5 32.5t29.5 12.5h100l10 58q79 450 453 450q92 0 178.5 -33.5t138.5 -72.5q11 -8 12.5 -26.5t-8.5 -33.5l-75 -108q-17 -25 -30 -30t-32 7q-93 60 -194 60q-162 0 -189 -220l-6 -51h565q16 0 25.5 -13 t5.5 -32l-119 -856q-1 -18 -15 -31.5t-30 -13.5h-180q-18 0 -27.5 12.5t-7.5 32.5l96 672h-344l-159 -1157q-3 -27 -16.5 -37t-39.5 -10h-170q-17 0 -27.5 14t-7.5 33z" />
<glyph unicode="&#xfb02;" horiz-adv-x="1255" d="M63 -440l164 1157h-102q-19 0 -29.5 13t-7.5 30l21 141q3 20 15.5 32.5t29.5 12.5h102l6 37q38 228 162 349.5t317 121.5q53 0 103.5 -13.5t85.5 -32t62.5 -37.5t41.5 -33l13 -13l36 66q19 43 58 43h63q14 0 24 -13.5t9 -31.5l-188 -1344q-3 -19 -16.5 -32t-28.5 -13 h-183q-17 0 -27.5 13t-7.5 32l146 1073q-15 27 -66 63t-121 36q-88 0 -149 -59t-74 -177l-4 -35h178q18 0 28 -12.5t7 -32.5l-20 -141q-3 -18 -16.5 -30.5t-30.5 -12.5h-179l-159 -1157q-3 -19 -16.5 -33t-30.5 -14h-183q-17 0 -26.5 14t-6.5 33z" />
<glyph horiz-adv-x="0" />
<glyph horiz-adv-x="0" />
<glyph horiz-adv-x="682" />
<glyph unicode="&#xd;" horiz-adv-x="0" />
<glyph unicode=" "  horiz-adv-x="491" />
<glyph unicode="&#x09;" horiz-adv-x="491" />
<glyph unicode="&#xa0;" horiz-adv-x="491" />
<glyph unicode="!" horiz-adv-x="538" d="M41 127q0 76 57.5 133t130.5 57q62 0 104 -44t42 -105q0 -75 -59 -131.5t-134 -56.5q-59 0 -100 43t-41 104zM199 1161l32 234q1 15 13 27t26 12h236q13 0 22 -12t7 -27l-33 -230l-162 -575q-3 -12 -16 -22.5t-25 -10.5h-68q-13 0 -22.5 10.5t-7.5 22.5z" />
<glyph unicode="&#x22;" horiz-adv-x="735" d="M168 1065l47 330q1 15 13 27t26 12h172q19 0 27.5 -15t-0.5 -37l-129 -325q-12 -31 -37 -31h-90q-14 0 -23 12t-6 27zM494 1065l47 330q1 15 13 27t26 12h172q19 0 27 -15t-1 -37l-129 -325q-12 -31 -37 -31h-90q-14 0 -22.5 12t-5.5 27z" />
<glyph unicode="#" horiz-adv-x="1071" d="M72 424l4 29q1 17 12.5 28t26.5 11h145l90 335h-133q-13 0 -23 12t-8 27l4 29q1 15 14 27t27 12h146l125 467q3 12 15 22.5t24 10.5h32q15 0 23 -13t4 -32l-119 -455h291l121 467q3 12 16 22.5t25 10.5h31q15 0 23.5 -13.5t4.5 -31.5l-121 -455h115q15 0 23.5 -12 t5.5 -27l-4 -29q-2 -15 -13 -27t-26 -12h-129l-88 -335h116q14 0 23 -11t6 -28l-4 -29q-1 -15 -14 -27t-27 -12h-131l-92 -352q-3 -13 -15 -23t-26 -10h-31q-17 0 -24.5 13t-4.5 32l93 340h-293l-90 -352q-4 -13 -16.5 -23t-24.5 -10h-31q-17 0 -25.5 13t-3.5 32l90 340 h-131q-15 0 -23 12t-5 27zM362 492h291l88 335h-288z" />
<glyph unicode="$" d="M126.5 165q-1.5 11 14.5 36l80 114q34 48 74 13q89 -81 209 -107l57 381q-55 35 -89.5 60t-82 67.5t-74.5 81.5t-47 94t-20 115q0 86 27 160.5t79 133.5t136 95.5t192 42.5l8 66q3 17 15 27.5t26 10.5h29q14 0 22.5 -10.5t5.5 -27.5l-8 -68q175 -15 314 -133 q12 -11 13 -32t-11 -36l-88 -114q-29 -37 -64 -9q-33 30 -88 57.5t-111 35.5l-51 -369q44 -26 84.5 -54.5t87 -70.5t79.5 -86t55 -100t22 -113q0 -191 -120 -315t-333 -131l-28 -211q-3 -17 -15 -27t-26 -10h-33q-12 0 -20 11t-5 26l29 213q-80 5 -157 39t-112 61.5 t-57 50.5q-17 21 -18.5 32zM504 1061q0 -91 92 -160l47 326q-62 -11 -100.5 -57t-38.5 -109zM606 219q61 13 100 54.5t39 109.5q0 94 -90 172z" />
<glyph unicode="%" horiz-adv-x="1257" d="M142.5 17.5q-7.5 17.5 4.5 37.5l826 1358q14 21 35 21h106q20 0 27.5 -18t-4.5 -38l-828 -1358q-15 -20 -33 -20h-104q-22 0 -29.5 17.5zM156 1141q0 132 78 222.5t202 90.5q95 0 159 -70t64 -170q0 -130 -81 -221.5t-197 -91.5q-96 0 -160.5 69.5t-64.5 170.5zM332 1161 q0 -35 17 -59.5t44 -24.5q33 0 59.5 35t26.5 80q0 35 -16 59.5t-43 24.5q-34 0 -61 -34t-27 -81zM639 219q0 132 78.5 222.5t202.5 90.5q95 0 159 -69.5t64 -169.5q0 -130 -81.5 -221.5t-197.5 -91.5q-96 0 -160.5 69.5t-64.5 169.5zM815 240q0 -35 17.5 -59.5t44.5 -24.5 q33 0 59.5 34.5t26.5 79.5q0 35 -16.5 59.5t-43.5 24.5q-34 0 -61 -34t-27 -80z" />
<glyph unicode="&#x26;" horiz-adv-x="1292" d="M76 322q0 87 32.5 165t80.5 130.5t95 90t85 61.5t41 28v4l-33 47q-101 143 -101 254q0 154 105 253t266 99q155 0 251.5 -88.5t96.5 -214.5q0 -41 -8.5 -81t-24.5 -73t-35 -63.5t-43 -56t-45 -46t-45 -38.5t-39 -28.5t-31 -20.5t-17 -11l163 -241q8 11 20.5 31t41.5 82.5 t45 125.5q9 36 26.5 48.5t49.5 2.5l94 -28q54 -15 37 -84q-21 -90 -64 -176.5t-76 -127.5l-32 -42l129 -172q17 -17 15 -45.5t-32 -49.5l-88 -59q-22 -14 -44 -11.5t-34 21.5l-92 133q-7 -7 -19 -17.5t-54 -38.5t-88.5 -49t-119 -38.5t-147.5 -17.5q-160 0 -261 100.5 t-101 241.5zM319 365q0 -72 46.5 -120t115.5 -48q43 0 84.5 13t70.5 31.5t51 37.5t33 32l11 13l-211 305l-22 -14q-22 -14 -40.5 -26.5t-46 -37.5t-46 -50.5t-32.5 -61.5t-14 -74zM500 1100q0 -27 9.5 -54t19.5 -44t34 -52l33 -49q1 1 17 10t29 18t33.5 24t35.5 32.5 t30 38.5t23 47.5t8 54.5q0 55 -34 93t-91 38q-64 0 -105.5 -45t-41.5 -112z" />
<glyph unicode="'" horiz-adv-x="409" d="M168 1065l47 330q1 15 14 27t27 12h170q19 0 27.5 -15t-0.5 -37l-129 -325q-12 -31 -37 -31h-88q-13 0 -23 12t-8 27z" />
<glyph unicode="(" horiz-adv-x="665" d="M88 424q0 173 20 318t53 247.5t81.5 182.5t99.5 130t113 83.5t116.5 48.5t114.5 20q15 1 24 -8t7 -23l-12 -135q-3 -29 -29 -37q-69 -16 -123.5 -60.5t-88.5 -96.5t-58.5 -130.5t-36 -138t-18 -145.5t-7 -125.5t-0.5 -104.5v-20q0 -153 41.5 -254.5t122.5 -134.5 q21 -8 16 -37l-24 -133q-7 -33 -41 -33q-54 2 -106 24.5t-100.5 69t-84.5 112.5t-58 164t-22 216z" />
<glyph unicode=")" horiz-adv-x="667" d="M-33 -129l13 135q2 28 28 37q54 17 100.5 52t90 99.5t74 152.5t49 219t18.5 292q0 159 -40 264t-124 129q-21 7 -16 37l24 135q3 14 14.5 23t26.5 8q56 -4 106.5 -25t100 -65.5t85 -109t57.5 -164.5t22 -224q0 -175 -20 -321t-53.5 -249.5t-81.5 -183.5t-99.5 -129.5 t-113 -82t-116.5 -46t-114 -16.5q-15 0 -23.5 9t-7.5 24z" />
<glyph unicode="*" horiz-adv-x="835" d="M178 968q5 16 19 25l172 103l-144 102q-12 7 -12.5 25t10.5 30l47 56q9 11 23.5 13t23.5 -5l121 -103l23 181q2 15 13 27t26 12h69q14 0 23 -12t6 -27l-29 -181l150 105q12 8 26.5 5t20.5 -15l29 -56q8 -13 3 -29.5t-20 -25.5l-170 -102l142 -105q12 -9 12 -24.5 t-10 -28.5l-47 -55q-11 -13 -25 -17t-25 4l-120 103l-21 -176q-1 -15 -14 -27t-27 -12h-67q-14 0 -23 12t-6 27l29 178l-150 -103q-12 -9 -26.5 -5t-20.5 16l-29 55q-7 14 -2 30z" />
<glyph unicode="+" d="M221 651l17 115q1 15 14 27t27 12h260l45 309q1 15 13 26t26 11h133q14 0 22.5 -11t5.5 -26l-43 -309h271q13 0 21.5 -12t6.5 -27l-16 -115q-2 -15 -14 -27t-25 -12h-270l-43 -305q-1 -15 -14 -26t-27 -11h-131q-14 0 -23 11t-8 26l43 305h-262q-13 0 -22 12t-7 27z" />
<glyph unicode="," horiz-adv-x="542" d="M23 154q0 79 58.5 137.5t143.5 58.5q76 0 123 -55t47 -154q0 -139 -61.5 -270.5t-169.5 -239.5q-24 -25 -47 -2l-58 45q-19 22 11 52q66 74 110.5 159.5t44.5 149.5v12q-36 -22 -82 -22q-59 0 -89.5 35.5t-30.5 93.5z" />
<glyph unicode="-" horiz-adv-x="712" d="M92 430l19 137q1 17 13.5 28t27.5 11h417q15 0 23 -11t6 -28l-18 -137q-1 -15 -13.5 -26t-27.5 -11h-418q-15 0 -23 11t-6 26z" />
<glyph unicode="." horiz-adv-x="538" d="M20 145q0 88 67 154t153 66q71 0 118.5 -50.5t47.5 -121.5q0 -87 -68 -151.5t-154 -64.5q-69 0 -116.5 49.5t-47.5 118.5z" />
<glyph unicode="/" horiz-adv-x="774" d="M17.5 14.5q-8.5 14.5 0.5 36.5l553 1356q12 27 37 27h160q19 0 26.5 -15t-1.5 -37l-549 -1355q-12 -27 -37 -27h-162q-19 0 -27.5 14.5z" />
<glyph unicode="0" horiz-adv-x="1234" d="M137 541q0 417 163 665t441 248q183 0 288.5 -149.5t105.5 -405.5q0 -277 -69.5 -483t-206.5 -321t-327 -115q-183 0 -289 152t-106 409zM403 547q0 -146 45 -233t119 -87q133 0 217 186t84 480q0 142 -45.5 228.5t-117.5 86.5q-133 0 -217.5 -184.5t-84.5 -476.5z" />
<glyph unicode="1" horiz-adv-x="753" d="M152 1038l10 115q2 18 6.5 27.5t19.5 21.5l269 207q36 25 73 25h115q13 0 22 -12t7 -27l-189 -1354q-1 -17 -14 -29t-27 -12h-190q-15 0 -24 12t-7 29l144 1010l-183 -41q-14 -3 -23.5 5t-8.5 23z" />
<glyph unicode="2" horiz-adv-x="1062" d="M14 41q3 29 8.5 42.5t24.5 35.5l569 669q121 145 121 254q0 70 -39 118t-110 48q-46 0 -90.5 -23t-71.5 -48t-59 -62q-11 -13 -27 -12t-27 12l-104 117q-10 9 -8.5 26t14.5 29q63 67 109 102q140 105 294 105q180 0 280.5 -110t100.5 -285q0 -181 -155 -367l-398 -463v-4 h383q15 0 24 -12t7 -27l-18 -145q-1 -17 -15 -29t-28 -12h-756q-15 0 -23 11.5t-6 29.5z" />
<glyph unicode="3" horiz-adv-x="1064" d="M36 194q2 16 13 25l113 103q11 13 29.5 10.5t31.5 -23.5q29 -38 81.5 -68t121.5 -30q89 0 150 61t61 156q0 77 -57 132.5t-156 55.5h-109q-14 0 -22.5 11.5t-5.5 29.5l18 134q6 43 43 43h105q115 0 185.5 66t70.5 161q0 62 -39.5 100.5t-100.5 38.5q-22 0 -44.5 -5.5 t-37.5 -12.5t-34 -20.5t-28 -21t-25.5 -23.5t-20.5 -19q-27 -31 -53 -2l-101 116q-9 11 -7 28t13 28q22 24 36 37.5t55 45.5t78.5 51t95 35.5t116.5 16.5q158 0 261.5 -93t103.5 -243q0 -136 -71.5 -236t-178.5 -153v-6q70 -34 128 -113.5t58 -185.5q0 -192 -133.5 -318 t-353.5 -126q-250 0 -385 186q-7 12 -5 28z" />
<glyph unicode="4" horiz-adv-x="1214" d="M35 346l16 133q6 42 33 72l758 870q19 22 30 27.5t37 5.5h105q14 0 22.5 -12t5.5 -29l-122 -889h149q15 0 24 -11t7 -26l-19 -141q-2 -16 -14 -28.5t-29 -12.5h-149l-35 -264q-3 -17 -16 -29t-27 -12h-184q-14 0 -23 12t-8 29l39 264h-572q-15 0 -23 13t-5 28zM348 518 h328l72 471h-5l-395 -465v-6z" />
<glyph unicode="5" horiz-adv-x="1085" d="M69 194q2 16 13 25l106 103q28 24 62 -13q43 -46 89.5 -72t117.5 -26q116 0 186 85t70 204q0 87 -47.5 142.5t-135.5 55.5h-292q-26 0 -39.5 23t-10.5 51l91 623q2 15 13.5 27t26.5 12h607q15 0 23.5 -11.5t6.5 -27.5l-20 -144q-2 -17 -14 -29t-29 -12h-401l-41 -280h147 q175 0 275 -116t100 -300q0 -237 -142.5 -385.5t-373.5 -148.5q-79 0 -148.5 21t-116 54t-74 59.5t-44.5 51.5q-7 12 -5 28z" />
<glyph unicode="6" horiz-adv-x="1122" d="M113 473q0 141 34 268t88 220t128 174t145 134.5t149.5 97t131 65t98.5 36.5q47 12 53 -28l33 -129q12 -42 -43 -62q-391 -149 -477 -366q75 37 190 37q155 0 258 -108.5t103 -291.5q0 -151 -66.5 -275.5t-179 -194.5t-246.5 -70q-119 0 -211.5 68.5t-140 180 t-47.5 244.5zM351 463.5q6 -62.5 23.5 -117t57.5 -91t94 -36.5q103 0 168.5 83t65.5 200q0 89 -51 148t-134 59q-70 0 -127.5 -43t-87.5 -88q-15 -52 -9 -114.5z" />
<glyph unicode="7" horiz-adv-x="997" d="M41 33q0 24 16 51l643 1116v6h-477q-14 0 -25 12t-8 29l23 148q1 15 14 27t27 12h790q14 0 22.5 -9t8.5 -22q0 -29 -18 -64l-731 -1282q-31 -57 -74 -57h-172q-39 0 -39 33z" />
<glyph unicode="8" horiz-adv-x="1163" d="M92 334q0 62 26 123.5t59 104t79 83t71 58t50 32.5v8q-56 38 -104 115.5t-48 171.5q0 187 134.5 305.5t336.5 118.5q161 0 270 -93.5t109 -242.5q0 -69 -25 -132t-65.5 -110t-79 -78.5t-78.5 -54.5v-8q69 -41 128 -123.5t59 -187.5q0 -191 -139 -317.5t-379 -126.5 q-189 0 -296.5 99.5t-107.5 254.5zM375 360q0 -72 42 -113.5t109 -41.5q91 0 149 56.5t58 154.5q0 64 -40 119.5t-109 76.5q-94 -27 -151.5 -98t-57.5 -154zM492 1030q0 -60 31.5 -105.5t94.5 -66.5q89 26 138 87t49 138q0 67 -35 104.5t-100 37.5q-74 0 -126 -54.5 t-52 -140.5z" />
<glyph unicode="9" horiz-adv-x="1118" d="M158 915q0 114 39 215t105 171.5t156.5 111.5t190.5 41q118 0 210 -67.5t140 -178t48 -243.5q0 -141 -34 -268.5t-88 -221t-127.5 -175t-145 -135.5t-149.5 -97.5t-131.5 -65t-99.5 -35.5q-41 -14 -51 29l-35 129q-10 40 45 61q37 13 77.5 30.5t105 52.5t117.5 73.5 t103.5 95.5t74.5 117q-76 -39 -191 -39q-155 0 -257.5 108.5t-102.5 290.5zM399 934q0 -88 51.5 -147.5t135.5 -59.5q68 0 126 43.5t89 87.5q14 52 7.5 114t-24 115t-57.5 89t-92 36q-98 0 -167 -81t-69 -197z" />
<glyph unicode=":" horiz-adv-x="557" d="M53 125q0 78 57 134t132 56q60 0 99.5 -42t39.5 -105q0 -78 -56.5 -134.5t-131.5 -56.5q-61 0 -100.5 43t-39.5 105zM145 774q0 78 57 135.5t130 57.5q61 0 101 -44t40 -106q0 -78 -56.5 -134t-131.5 -56q-61 0 -100.5 42t-39.5 105z" />
<glyph unicode=";" horiz-adv-x="567" d="M51 139q0 72 52.5 125t129.5 53q68 0 111 -49.5t43 -140.5q0 -125 -54.5 -245t-152.5 -212q-22 -22 -43 -2l-53 41q-18 15 10 47q134 146 139 289q-33 -20 -73 -20q-52 0 -80.5 31.5t-28.5 82.5zM141 797q7 70 61.5 120t121.5 50q62 0 102.5 -43.5t40.5 -106.5 q0 -79 -57 -134.5t-134 -55.5q-66 0 -105.5 49t-29.5 121z" />
<glyph unicode="&#x3c;" d="M213 467l2 14q2 18 21 29l704 434q19 12 34.5 1.5t12.5 -34.5l-20 -159q-2 -19 -21 -33l-411 -258v-10l337 -248q15 -12 13 -33l-21 -139q-3 -23 -21.5 -28t-33.5 7l-584 420q-15 12 -12 37z" />
<glyph unicode="=" d="M231 299l17 117q2 15 13 27t26 12h614q15 0 24 -12t7 -27l-17 -117q-2 -15 -14 -27t-27 -12h-614q-14 0 -22.5 11.5t-6.5 27.5zM291 729l16 117q2 15 13 27t26 12h615q15 0 23.5 -11.5t6.5 -27.5l-16 -117q-2 -15 -14 -27t-27 -12h-615q-14 0 -22 11.5t-6 27.5z" />
<glyph unicode="&#x3e;" d="M209 41l22 162q2 22 21 33l418 251v5l-346 260q-13 10 -11 32l19 136q3 24 20.5 30.5t34.5 -6.5l582 -434q17 -14 14 -33l-2 -14q-4 -22 -23 -33l-702 -422q-20 -12 -35 -2t-12 35z" />
<glyph unicode="?" horiz-adv-x="919" d="M162.5 1244.5q2.5 14.5 13.5 27.5l12 14q12 13 20 21t25.5 25t34.5 28.5t40.5 27t49 26t55.5 20.5t65.5 15t72.5 5q142 0 241 -89t99 -220q0 -66 -23 -123t-58.5 -95t-78 -74.5t-79.5 -62.5t-65.5 -58.5t-35.5 -63.5l-16 -78q-7 -33 -39 -33h-177q-14 0 -23.5 11t-6.5 28 l12 86q8 56 43.5 106.5t80 88t88.5 73.5t73.5 78t29.5 86q0 47 -28.5 76t-79.5 29q-15 0 -30.5 -3.5t-28.5 -8.5t-28 -14.5t-25 -16t-23.5 -18t-19.5 -17t-17.5 -16.5t-13.5 -13q-16 -13 -32.5 -11t-27.5 13l-94 105q-8 11 -5.5 25.5zM182 127q0 76 58.5 133t132.5 57 q61 0 102 -44t41 -105q0 -75 -58.5 -131.5t-131.5 -56.5q-61 0 -102.5 43t-41.5 104z" />
<glyph unicode="@" horiz-adv-x="1886" d="M84 328q0 238 73 445.5t203 357.5t319.5 236.5t412.5 86.5q166 0 304 -56t231 -153.5t144.5 -231t51.5 -288.5q0 -100 -18 -196.5t-58 -185t-97.5 -155.5t-142.5 -107t-186 -40q-164 0 -197 160h-12q-48 -65 -124.5 -112.5t-158.5 -47.5q-126 0 -204 106t-78 259 q0 210 116.5 352.5t284.5 142.5q73 0 129.5 -38.5t87.5 -82.5l35 70q6 13 8 17t10 9t21 5h70q14 0 22.5 -11t5.5 -28l-53 -375q-28 -205 80 -205q96 0 159.5 123.5t63.5 310.5q0 116 -31 214.5t-91.5 173.5t-158 117t-223.5 42q-225 0 -401 -112.5t-273.5 -316t-97.5 -464.5 q0 -203 93 -368.5t247 -245.5q32 -16 15 -49l-68 -129q-8 -15 -20.5 -22t-24.5 -1q-201 92 -335 311t-134 482zM776 414q0 -69 30.5 -110.5t80.5 -41.5q70 0 129 71.5t74 174.5l12 84q-13 30 -53.5 59t-92.5 29q-85 0 -132.5 -75.5t-47.5 -190.5z" />
<glyph unicode="A" horiz-adv-x="1267" d="M-57 16q-3 6 -3 14q0 11 7 23l770 1379q13 22 35 22h18q22 0 29 -22l377 -1379q2 -7 2 -13q0 -12 -8 -24q-12 -16 -33 -16h-179q-24 0 -36.5 9t-16.5 32l-51 227h-510l-119 -227q-21 -41 -65 -41h-189q-21 0 -28 16zM465 489h323l-96 447h-4z" />
<glyph unicode="B" horiz-adv-x="1167" d="M94 39l191 1356q2 15 14 27t27 12h426q148 0 246 -100.5t98 -246.5q0 -71 -24 -134.5t-63.5 -108t-80 -74.5t-82.5 -49q75 -30 132.5 -103t57.5 -182q0 -188 -128 -312t-333 -124h-452q-15 0 -23 12q-6 9 -7 19q0 4 1 8zM387 242h180q81 0 135 57.5t54 151.5 q0 71 -41 113t-101 42h-174zM471 831h147q84 0 137.5 57t53.5 156q0 68 -33 107t-88 39h-166z" />
<glyph unicode="C" horiz-adv-x="1286" d="M109 616q0 177 60 333.5t162 266.5t243 174t298 64q132 0 241 -52.5t185 -141.5q7 -10 7 -23v-6q-2 -17 -15 -29l-110 -106q-18 -15 -36 -14.5t-32 14.5q-106 102 -254 102q-121 0 -227 -75t-169 -201.5t-63 -270.5q0 -169 85.5 -286t228.5 -117q141 0 280 121 q18 16 35 16t31 -18l106 -134q7 -11 4 -27.5t-14 -27.5q-207 -198 -463 -198q-173 0 -307 85.5t-205 230t-71 320.5z" />
<glyph unicode="D" horiz-adv-x="1392" d="M94 39l191 1356q1 15 13 27t26 12h442q119 0 223 -51t176.5 -136t114 -199t41.5 -237q0 -221 -95 -406t-269 -295t-392 -110h-444q-13 0 -21 12q-6 9 -7 19q0 4 1 8zM389 250h191q124 0 228.5 71t166 196.5t61.5 275.5q0 170 -89 281.5t-234 111.5h-193z" />
<glyph unicode="E" horiz-adv-x="1095" d="M94 39l191 1356q1 15 13 27t26 12h757q15 0 24 -12q7 -10 7 -22v-5l-25 -168q-2 -15 -13.5 -27t-26.5 -12h-525l-47 -336h434q13 0 23 -12t8 -27l-25 -170q-3 -17 -15 -28t-26 -11h-434l-51 -358h526q14 0 22.5 -11.5t6.5 -27.5l-22 -168q-2 -15 -14 -27t-27 -12h-758 q-15 0 -23 12q-6 9 -7 19q0 4 1 8z" />
<glyph unicode="F" horiz-adv-x="1060" d="M94 39l191 1356q1 15 13 27t26 12h757q15 0 24 -12q7 -10 7 -22v-5l-25 -168q-2 -15 -13.5 -27t-26.5 -12h-525l-55 -385h436q14 0 23 -12t6 -27l-23 -168q-1 -15 -14 -27t-27 -12h-436l-72 -518q-3 -15 -15.5 -27t-25.5 -12h-196q-15 0 -23 12q-6 9 -7 19q0 4 1 8z" />
<glyph unicode="G" horiz-adv-x="1349" d="M109 616q0 177 59.5 333t161 266.5t243 174.5t299.5 64q262 0 426 -194q7 -10 7 -23v-6q-2 -17 -15 -29l-108 -106q-20 -14 -37 -14t-31 14q-106 102 -256 102q-121 0 -227 -75t-169 -201.5t-63 -270.5q0 -165 92.5 -285t225.5 -120t209 49l24 180h-131q-15 0 -24 11 t-7 26l23 160q3 17 14.5 28t26.5 11h362q13 0 22 -12t7 -27l-67 -492q-5 -39 -33 -63q-16 -13 -44 -29.5t-86.5 -44t-146 -45.5t-182.5 -18q-164 0 -296 85.5t-205.5 230.5t-73.5 320z" />
<glyph unicode="H" horiz-adv-x="1437" d="M94 39l191 1356q1 15 14 27t27 12h196q15 0 24 -12t7 -27l-76 -543h559l76 543q2 15 14 27t27 12h197q12 0 22 -12q8 -10 8 -22v-5l-190 -1356q-3 -15 -15.5 -27t-25.5 -12h-199q-14 0 -22 11.5t-6 27.5l79 565h-559l-80 -565q-3 -16 -14.5 -27.5t-25.5 -11.5h-199 q-14 0 -23 12q-7 9 -7 20q0 3 1 7z" />
<glyph unicode="I" horiz-adv-x="610" d="M94 39l191 1356q1 15 13 27t26 12h200q14 0 23 -12q7 -9 6 -20v-7l-191 -1356q-2 -15 -13.5 -27t-24.5 -12h-201q-14 0 -23 12q-7 9 -7 20q0 3 1 7z" />
<glyph unicode="J" horiz-adv-x="868" d="M-31 129q-5 8 -5 17q0 16 18 34l94 92q24 24 51 -2q56 -49 121 -49q61 0 104 44.5t54 115.5l143 1014q1 15 13 27t26 12h203q15 0 23 -12q7 -9 7 -21v-6l-143 -1008q-28 -193 -131 -300t-293 -107q-74 0 -138.5 29t-96 59.5t-50.5 60.5z" />
<glyph unicode="K" horiz-adv-x="1234" d="M96 49l189 1335q3 21 17 35.5t34 14.5h192q19 0 29.5 -15t7.5 -35l-78 -553l482 566q18 21 35.5 29t48.5 8h202q27 0 34 -22q2 -6 2 -12q0 -17 -15 -34l-559 -627l413 -676q11 -21 -1.5 -42t-38.5 -21h-187q-30 0 -45.5 8.5t-28.5 32.5l-364 633l-88 -625 q-1 -20 -16 -34.5t-33 -14.5h-193q-21 0 -31 14q-9 12 -8 28v7z" />
<glyph unicode="L" horiz-adv-x="962" d="M94 39l191 1356q2 15 14 27t27 12h198q13 0 22 -12t7 -27l-162 -1149h453q14 0 22 -12q6 -9 7 -21q0 -3 -1 -6l-22 -168q-2 -15 -14 -27t-27 -12h-684q-15 0 -24 12q-7 10 -7 22v5z" />
<glyph unicode="M" horiz-adv-x="1658" d="M27 47l405 1376q8 31 39 31h29q21 0 28 -20l279 -928h4l557 928q13 20 35 20h31q11 0 19.5 -9.5t8.5 -21.5l19 -1376q0 -21 -11.5 -34t-29.5 -13h-197q-14 0 -22.5 9.5t-8.5 21.5l17 735h-6l-428 -764q-11 -22 -35 -22h-33q-22 0 -29 22l-209 764h-4l-196 -735 q-9 -31 -39 -31h-195q-18 0 -26 13q-5 7 -5 17q0 8 3 17z" />
<glyph unicode="N" horiz-adv-x="1443" d="M96 35l193 1382q1 15 13 26t26 11h22q14 0 19.5 -1.5t14 -8.5t19.5 -23l603 -852h2l110 826q2 15 13 27t26 12h199q12 0 22 -12q8 -10 8 -22v-5l-194 -1379q-1 -15 -13 -25.5t-26 -10.5h-20q-23 0 -34 6.5t-26 29.5l-598 875h-2l-111 -852q-2 -15 -13.5 -27t-26.5 -12 h-197q-12 0 -21 11t-8 24z" />
<glyph unicode="O" horiz-adv-x="1521" d="M109 614q0 229 99.5 421.5t275.5 305.5t390 113q162 0 295 -87.5t207 -234t74 -319.5q0 -170 -59.5 -324t-161 -265.5t-244 -177.5t-301.5 -66q-163 0 -296 87.5t-206 232.5t-73 314zM385 649q0 -171 90 -287t238 -116q123 0 229.5 72t169 195t62.5 267q0 171 -91 289.5 t-239 118.5q-121 0 -227 -73.5t-169 -198t-63 -267.5z" />
<glyph unicode="P" horiz-adv-x="1128" d="M94 39l191 1356q2 15 14 27t27 12h438q150 0 252 -122.5t102 -287.5q0 -220 -139.5 -362t-341.5 -142h-209l-68 -481q-1 -15 -14 -27t-27 -12h-196q-15 0 -23 12q-6 9 -7 19q0 4 1 8zM463 770h190q76 0 136.5 72t60.5 170q0 72 -39.5 121t-99.5 49h-191z" />
<glyph unicode="Q" horiz-adv-x="1519" d="M106 614q0 228 101 421t278 306t389 113q163 0 295 -86t205.5 -232.5t73.5 -322.5q0 -264 -119 -456t-323 -306l172 -401q9 -21 -3 -38.5t-34 -17.5h-201q-21 0 -32.5 8t-18.5 29l-139 355q-38 -6 -72 -6q-122 0 -230 53t-182 141t-117 203t-43 237zM385 649 q0 -171 90 -287t238 -116q123 0 229.5 72t169 195t62.5 267q0 171 -91 289.5t-239 118.5q-121 0 -227 -73.5t-169 -198t-63 -267.5z" />
<glyph unicode="R" horiz-adv-x="1265" d="M94 39l191 1356q1 15 13 27t26 12h540q149 0 247.5 -111.5t98.5 -271.5q0 -183 -87 -304.5t-238 -168.5l168 -525q6 -21 -3.5 -37t-31.5 -16h-195q-37 0 -45 33l-149 528h-195l-74 -522q-2 -15 -13.5 -27t-24.5 -12h-199q-15 0 -23 12q-6 9 -7 19q0 4 1 8zM467 780h256 q95 0 155 69.5t60 168.5q0 82 -37 126t-96 44h-281z" />
<glyph unicode="S" horiz-adv-x="1046" d="M57 139q-13 13 -13 28.5t13 33.5l80 116q12 20 32.5 20.5t31.5 -11.5q36 -30 62.5 -48.5t80 -38.5t111.5 -20q72 0 127 50t55 124q0 64 -41.5 114t-134.5 111q-40 26 -69 47t-66.5 52t-63 62.5t-49 70t-35.5 83.5t-12 95q0 80 28 153.5t82 135.5t145.5 99.5t207.5 37.5 q124 0 223 -45.5t141 -87.5q20 -20 20 -43q0 -19 -14 -39l-79 -113q-12 -19 -31 -20t-41 16q-54 44 -107 67t-125 23q-75 0 -124.5 -48t-49.5 -111q0 -57 37.5 -96.5t141.5 -108.5q125 -84 177 -132q138 -129 138 -296q0 -186 -134.5 -313t-355.5 -127q-219 0 -389 159z" />
<glyph unicode="T" horiz-adv-x="1007" d="M152 1227l24 168q2 15 14 27t25 12h813q15 0 24 -12q7 -10 8 -22q0 -3 -1 -5l-25 -168q-2 -15 -14 -27t-27 -12h-270l-162 -1149q-1 -15 -14 -27t-27 -12h-198q-13 0 -23 12t-8 27l162 1149h-271q-16 0 -24 12q-7 9 -6 21v6z" />
<glyph unicode="U" horiz-adv-x="1355" d="M141 436q0 38 6 82l125 877q1 15 14 27t27 12h203q15 0 24 -12t7 -27l-123 -863q-4 -23 -4 -65q0 -103 53 -160t156 -57q123 0 195 73.5t91 206.5l123 865q2 15 14 27t27 12h203q13 0 23 -12t8 -27l-125 -877q-33 -238 -189 -388t-391 -150q-206 0 -336.5 127.5 t-130.5 328.5z" />
<glyph unicode="V" horiz-adv-x="1265" d="M127 1380q-2 6 -2 13q1 13 9 24q12 17 32 17h203q10 0 18 -7.5t10 -15.5l211 -856h8l455 856q14 23 33 23h229q21 0 29 -17q3 -7 3 -14q0 -11 -7 -23l-770 -1378q-11 -22 -35 -22h-18q-22 0 -29 22z" />
<glyph unicode="W" horiz-adv-x="1669" d="M168 1384q-1 4 -1 8q-1 16 9 28q12 14 31 14h178q10 0 18.5 -9t10.5 -20l69 -776h9l413 803q11 22 35 22h33q24 0 28 -22l166 -803h9l290 776q5 11 16 20t21 9h195q20 0 28 -14q3 -6 3 -14q0 -10 -5 -22l-540 -1376q-4 -12 -15 -20t-22 -8h-31q-25 0 -29 22l-208 887h-9 l-454 -887q-11 -22 -35 -22h-29q-26 0 -30 28z" />
<glyph unicode="X" horiz-adv-x="1204" d="M-26 16q-1 4 -1 9q0 13 11 28l479 682l-283 645q-8 21 3.5 37.5t35.5 16.5h207q21 0 27 -19l186 -465h4l301 465q14 19 33 19h250q23 0 29 -17q2 -5 2 -10q0 -13 -11 -27l-465 -645l291 -682q9 -22 -1.5 -37.5t-33.5 -15.5h-196q-11 0 -19 6t-10 12l-205 500h-6 l-330 -500q-14 -18 -34 -18h-236q-23 0 -28 16z" />
<glyph unicode="Y" horiz-adv-x="1136" d="M125 1384q-4 9 -4 17q0 10 6 18q11 15 33 15h192q16 0 24.5 -6.5t14.5 -22.5l213 -467h4l342 477q14 19 33 19h225q23 0 28 -17q1 -4 1 -9q0 -13 -10 -28l-516 -688l-90 -653q-1 -15 -14 -27t-27 -12h-199q-14 0 -22.5 11.5t-6.5 27.5l92 651z" />
<glyph unicode="Z" horiz-adv-x="1026" d="M-16 33q0 35 20 69l664 1078v6h-435q-13 0 -22.5 12t-7.5 27l24 170q1 15 14 27t27 12h776q31 0 31 -31q0 -29 -14 -51l-658 -1098v-6h439q14 0 22 -11.5t6 -27.5l-22 -170q-2 -15 -14 -27t-27 -12h-795q-28 0 -28 33z" />
<glyph unicode="[" horiz-adv-x="690" d="M-14 -449l260 1844q2 15 14 27t25 12h438q13 0 22 -12t7 -27l-17 -127q-1 -17 -14 -28t-27 -11h-235l-213 -1512h235q14 0 23 -10.5t8 -25.5l-18 -130q-1 -15 -14 -26.5t-27 -11.5h-437q-13 0 -22.5 11.5t-7.5 26.5z" />
<glyph unicode="\" horiz-adv-x="761" d="M209 1382q-3 22 9 37t32 15h141q11 0 20.5 -8.5t10.5 -18.5l170 -1356q3 -21 -9.5 -36t-31.5 -15h-143q-11 0 -20.5 8.5t-10.5 18.5z" />
<glyph unicode="]" horiz-adv-x="692" d="M-92 -449l18 130q1 15 14 25.5t27 10.5h236l213 1512h-238q-14 0 -22.5 11t-5.5 28l18 127q2 15 14 27t25 12h438q14 0 23 -12t6 -27l-258 -1844q-1 -15 -14 -26.5t-27 -11.5h-436q-14 0 -23 11.5t-8 26.5z" />
<glyph unicode="^" horiz-adv-x="966" d="M90 803.5q-5 15.5 10 34.5l469 604q16 20 35 20h10q21 0 29 -20l293 -602q9 -20 0 -36t-31 -16h-133q-25 0 -33 19l-164 344h-2l-264 -344q-14 -19 -43 -19h-149q-22 0 -27 15.5z" />
<glyph unicode="_" horiz-adv-x="1138" d="M111 -139l10 80q1 17 13.5 28t27.5 11h645q15 0 24.5 -11t6.5 -28l-13 -80q-3 -16 -14 -26.5t-25 -10.5h-647q-13 0 -21.5 11t-6.5 26z" />
<glyph unicode="`" horiz-adv-x="557" d="M154 1300l59 89q12 19 30.5 21.5t24.5 -5.5l281 -199q8 -5 10.5 -16t-4.5 -23l-41 -67q-19 -29 -49 -13l-307 158q-29 17 -4 55z" />
<glyph unicode="a" horiz-adv-x="1091" d="M59 412q0 151 62.5 278t173.5 202t246 75q88 0 159 -40.5t107 -84.5l43 73q16 31 39 31h84q17 0 27 -13q8 -9 7 -22q0 -5 -1 -10l-117 -856q-1 -18 -16 -31.5t-31 -13.5h-84q-30 0 -37 41l-16 72q-136 -136 -285 -136q-161 0 -261 125t-100 310zM315 418q0 -85 41 -143 t119 -58q66 0 126 54.5t75 99.5l31 227q-7 45 -52.5 88t-113.5 43q-95 0 -160.5 -87.5t-65.5 -223.5z" />
<glyph unicode="b" horiz-adv-x="1081" d="M53 45l191 1344q1 18 16 31.5t29 13.5h178q17 0 28 -13t9 -32l-68 -465q38 18 92.5 30.5t96.5 12.5q171 0 268.5 -124.5t97.5 -322.5q0 -142 -62.5 -267t-174.5 -201.5t-246 -76.5q-52 0 -97.5 15t-74.5 36t-50.5 42t-30.5 36l-9 15l-35 -78q-18 -41 -51 -41h-72 q-18 0 -28 13q-8 10 -8 24q0 4 1 8zM356 369q5 -31 21 -63.5t52 -60.5t81 -28q91 0 158 85.5t67 215.5q0 97 -46 154t-120 57q-44 0 -86.5 -13.5t-62.5 -27.5l-21 -14z" />
<glyph unicode="c" horiz-adv-x="925" d="M61 418q0 238 142.5 393.5t349.5 155.5q101 0 185.5 -46.5t135.5 -117.5q7 -10 7 -22q0 -21 -25 -46l-78 -80q-16 -16 -30 -16q-16 0 -31 18q-23 27 -64 49.5t-94 22.5q-101 0 -170.5 -80t-69.5 -215q0 -106 44.5 -161.5t115.5 -55.5q28 0 53.5 8.5t50 27.5t34 28 t29.5 31l5 5q12 13 28 16t32 -11l88 -89q19 -19 19 -39q0 -13 -9 -26q-67 -87 -158 -139t-198 -52q-173 0 -282.5 124.5t-109.5 316.5z" />
<glyph unicode="d" horiz-adv-x="1089" d="M59 412q0 152 64 279t177 201.5t251 74.5q50 0 112 -15.5t87 -33.5l67 468q3 29 18.5 38.5t45.5 9.5h155q15 0 26.5 -13.5t10.5 -31.5l-188 -1344q-1 -18 -16 -31.5t-31 -13.5h-80q-30 0 -37 41l-16 72q-136 -136 -291 -136q-150 0 -252.5 126.5t-102.5 308.5zM313 418 q0 -97 44 -149t118 -52q66 0 125 50.5t74 94.5l43 318q-8 5 -22.5 13.5t-58.5 22t-87 13.5q-104 0 -170 -93t-66 -218z" />
<glyph unicode="e" horiz-adv-x="948" d="M57 397q0 108 37 210t103.5 182.5t168.5 129t222 48.5q137 0 225 -75.5t88 -186.5q0 -87 -52.5 -151.5t-141.5 -100t-190 -52.5t-214 -18q-1 -9 -1 -17q0 -66 36 -110q40 -50 121 -49q38 0 87.5 20.5t86.5 44.5q36 28 53 0l78 -104q10 -15 10 -29q0 -18 -16 -33 q-65 -59 -151 -94t-177 -35q-173 0 -273 121t-100 299zM328 557q137 0 228 32t91 87q0 30 -24 52t-74 22q-69 0 -135 -61.5t-86 -131.5z" />
<glyph unicode="f" horiz-adv-x="774" d="M59 -440l168 1157h-102q-18 0 -28.5 13.5t-8.5 31.5l23 139q7 45 43 45h104l10 76q14 101 41.5 177t74 135t119 89.5t169.5 30.5q79 0 152 -28.5t104 -59.5q8 -10 8 -27q0 -15 -6 -26l-60 -111q-14 -26 -36 -26q-12 0 -27 8q-60 33 -135 33q-38 0 -65 -15t-43 -44.5 t-24 -60.5t-14 -75l-10 -76h223q19 0 28.5 -12.5t6.5 -32.5l-20 -139q-3 -18 -16 -31.5t-31 -13.5h-222l-166 -1157q-5 -19 -18.5 -33t-28.5 -14h-180q-17 0 -26 14q-8 11 -8 24q0 4 1 9z" />
<glyph unicode="g" horiz-adv-x="1091" d="M59 406q0 108 33.5 208t95 179t155.5 126.5t206 47.5q50 0 95.5 -14.5t73.5 -35.5t49.5 -42t30.5 -35l9 -15l33 76q17 45 47 45h84q17 0 27 -13q9 -10 9 -24q0 -4 -1 -8l-127 -911q-18 -128 -66.5 -222t-118 -145t-146 -74.5t-163.5 -23.5q-96 0 -179.5 39.5t-121.5 77.5 q-9 9 -10 25t8 28l72 129q8 14 23.5 17.5t27.5 -5.5q104 -72 192 -72q103 0 159 49.5t75 176.5l4 26q-105 -39 -207 -39q-168 0 -268.5 118t-100.5 311zM324 422q0 -94 37.5 -152.5t123.5 -58.5q47 0 90.5 13.5t63.5 26.5l20 13l48 338q-12 52 -49 91.5t-111 39.5 q-57 0 -102 -30t-70 -77.5t-38 -100t-13 -103.5z" />
<glyph unicode="h" horiz-adv-x="1058" d="M53 45l191 1344q1 18 16 31.5t29 13.5h176q17 0 28 -13t9 -32l-70 -496q97 74 209 74q78 0 136 -24.5t90.5 -66.5t51.5 -100q19 -56 18 -120q0 -67 -7 -142l-66 -469q-1 -18 -16 -31.5t-31 -13.5h-174q-17 0 -27 13t-8 32l66 473q6 53 6 93v20q-2 47 -30.5 72.5 t-86.5 25.5q-35 0 -65.5 -12t-48.5 -29.5t-31.5 -34.5t-19.5 -29l-5 -12l-80 -567q-10 -45 -53 -45h-172q-17 0 -27 13q-8 11 -8 26v6z" />
<glyph unicode="i" horiz-adv-x="516" d="M53 45l121 856q3 19 17 32t30 13h176q16 0 28 -13t9 -32l-123 -856q-3 -18 -17.5 -31.5t-29.5 -13.5h-174q-15 0 -26.5 13.5t-10.5 31.5zM190 1249q0 76 55.5 130.5t129.5 54.5q61 0 100 -41.5t39 -102.5q0 -73 -55.5 -127.5t-128.5 -54.5q-61 0 -100.5 41t-39.5 100z " />
<glyph unicode="j" horiz-adv-x="516" d="M-182 -360q-2 11 -2 21q0 41 39 60q81 41 111 68q59 53 71 137l137 975q3 20 18 32.5t33 12.5h166q18 0 30 -12.5t9 -32.5l-131 -940q-14 -101 -47 -180t-82 -132.5t-101.5 -88t-119.5 -62.5q-20 -10 -41 -10q-6 0 -12 1q-28 4 -35 30zM186 1249q0 76 55.5 130.5 t129.5 54.5q61 0 100 -41.5t39 -102.5q0 -73 -55.5 -127.5t-128.5 -54.5q-61 0 -100.5 41t-39.5 100z" />
<glyph unicode="k" horiz-adv-x="1013" d="M53 45l191 1344q1 18 16 31.5t29 13.5h178q17 0 28 -13t9 -32l-115 -809l305 338q25 28 58 28h219q27 0 32 -22q1 -4 1 -9q0 -18 -17 -34l-366 -387l274 -435q13 -20 2 -39.5t-39 -19.5h-194q-37 0 -52 27l-239 428l-58 -410q-3 -18 -18 -31.5t-29 -13.5h-180 q-18 0 -28 13q-8 10 -8 24q0 4 1 8z" />
<glyph unicode="l" horiz-adv-x="522" d="M55 45l191 1344q1 18 16 31.5t29 13.5h176q17 0 28 -13q9 -11 10 -26q0 -3 -1 -6l-191 -1344q-1 -18 -16 -31.5t-31 -13.5h-176q-17 0 -27 13q-8 11 -8 26v6z" />
<glyph unicode="m" horiz-adv-x="1566" d="M53 45l121 856q1 19 15 32t30 13h74q27 0 33 -26l20 -91q37 38 67 63t89.5 50t124.5 25q88 0 142 -35.5t87 -108.5q28 27 46.5 42.5t60 44t90 43t100.5 14.5q78 0 136 -24t90.5 -66t50.5 -100q18 -55 18 -118v-7q-1 -67 -10 -142l-68 -465q-3 -19 -16.5 -32t-30.5 -13 h-176q-17 0 -27 13t-8 32l74 483q5 40 5 72q0 50 -13 80q-22 49 -93 49q-31 0 -60.5 -12.5t-49 -30.5t-35 -36.5t-22.5 -31.5l-7 -12l-80 -561q-3 -19 -16.5 -32t-30.5 -13h-170q-18 0 -26.5 13t-5.5 32l75 483q6 39 6 71q1 48 -13 79q-22 51 -93 51q-33 0 -62.5 -12.5 t-48 -30.5t-33 -36.5t-20.5 -31.5l-6 -12l-84 -561q-1 -18 -16 -31.5t-31 -13.5h-168q-18 0 -28 13q-8 10 -8 24q0 4 1 8z" />
<glyph unicode="n" horiz-adv-x="1054" d="M53 45l121 856q1 19 15 32t30 13h78q13 0 22.5 -7.5t10.5 -20.5l20 -89q1 1 18.5 17t24.5 22t27 22t34 24t37.5 20t45 18t49.5 10.5t57 4.5q76 0 133 -23.5t90 -65.5t52 -99t19 -124t-9 -141l-68 -469q-1 -18 -15 -31.5t-30 -13.5h-180q-17 0 -26 13t-7 32l74 483 q5 39 5 71q-1 50 -13 80q-20 50 -95 50q-34 0 -66 -13.5t-53 -32.5t-37 -38.5t-23 -32.5l-7 -14l-82 -553q-3 -26 -14 -35.5t-35 -9.5h-168q-18 0 -28 13q-8 10 -8 24q0 4 1 8z" />
<glyph unicode="o" horiz-adv-x="1036" d="M57 408q0 150 69 279t188 204.5t259 75.5q106 0 193 -58t135.5 -155.5t48.5 -212.5q0 -150 -71 -280.5t-190 -207t-255 -76.5q-107 0 -194.5 61t-135 159t-47.5 211zM305 434q0 -94 41.5 -155.5t122.5 -61.5q95 0 162 87.5t67 213.5q0 90 -41 150.5t-116 60.5 q-101 0 -168.5 -85.5t-67.5 -209.5z" />
<glyph unicode="p" horiz-adv-x="1083" d="M-12 -449l186 1350q1 19 15 32t30 13h80q29 0 35 -28l16 -76q120 125 303 125q106 0 184.5 -58t117 -152.5t38.5 -211.5q0 -157 -65 -287.5t-177.5 -205.5t-246.5 -75q-51 0 -107.5 16.5t-85.5 37.5l-63 -471q-6 -47 -58 -47h-170q-14 0 -23.5 11.5t-8.5 26.5zM344 276 q7 -7 20 -16.5t54 -26t84 -16.5q97 0 167 92.5t70 225.5q0 89 -40.5 141.5t-120.5 52.5q-66 0 -119 -39t-74 -78z" />
<glyph unicode="q" horiz-adv-x="1079" d="M59 403q0 113 36.5 216.5t99.5 180t153 122t191 45.5q88 0 159 -40.5t107 -84.5l43 73q16 31 39 31h76q16 0 26 -13q7 -9 7 -22q0 -5 -1 -10l-188 -1341q-1 -19 -15.5 -33t-31.5 -14h-172q-20 0 -30.5 12.5t-6.5 34.5l63 469q-34 -20 -94 -36t-110 -16q-150 0 -250.5 123 t-100.5 303zM309 424q0 -90 44.5 -148.5t127.5 -58.5q43 0 87 14.5t66 29.5l23 15l50 332q-17 43 -59.5 82t-108.5 39q-100 0 -165 -85.5t-65 -219.5z" />
<glyph unicode="r" horiz-adv-x="759" d="M53 45l121 856q1 19 15 32t30 13h78q29 0 37 -31l18 -92q38 55 106.5 99.5t149.5 44.5q91 0 152 -39q17 -15 17 -33q0 -12 -7 -25l-74 -143q-17 -34 -49 -18q-46 20 -100 20q-59 0 -94.5 -31t-61.5 -82l-82 -571q-3 -25 -16 -35t-39 -10h-166q-18 0 -28 13q-8 10 -8 24 q0 4 1 8z" />
<glyph unicode="s" horiz-adv-x="788" d="M25 129l57 111q7 13 25.5 17t31.5 -5q88 -53 176 -53q46 0 73.5 18t27.5 53q0 33 -30.5 63t-96.5 70q-98 59 -146.5 119.5t-48.5 153.5q0 121 92 206t256 85q81 0 155.5 -24t109.5 -52q13 -11 17 -31q1 -6 1 -11q0 -14 -6 -28l-55 -106q-18 -28 -56 -13q-113 48 -174 48 q-52 0 -76 -20t-24 -50q0 -28 25 -53t87 -58q224 -118 224 -288q0 -128 -96.5 -216t-260.5 -88q-85 0 -162 31t-122 66q-13 10 -13 25q0 13 9 30z" />
<glyph unicode="t" horiz-adv-x="749" d="M78 764l16 137q3 20 16 32.5t29 12.5h105l35 262q3 18 17.5 31.5t29.5 13.5h180q17 0 25.5 -13t5.5 -32l-35 -262h180q20 0 28 -12q6 -9 6 -23q0 -5 -1 -10l-17 -137q-2 -18 -15.5 -31.5t-31.5 -13.5h-182l-57 -416q-1 -10 -2 -19q0 -53 47 -53q39 0 110 31 q19 7 31.5 0.5t15.5 -24.5l23 -144q1 -4 1 -8q0 -27 -36 -47q-16 -9 -45.5 -21t-89.5 -26.5t-115 -14.5q-111 0 -167 82q-41 60 -41 151q0 34 6 73l63 436h-100q-17 -1 -27 13q-8 11 -8 26v6z" />
<glyph unicode="u" horiz-adv-x="1021" d="M84 232q-2 22 -1 46q0 57 11 121l74 502q3 20 15.5 32.5t29.5 12.5h176q18 0 28 -12.5t7 -32.5l-74 -510q-5 -36 -5 -63q0 -44 13 -70q21 -40 82 -41q33 0 61.5 13.5t46 32.5t30.5 37.5t18 31.5l6 14l78 555q7 45 51 45h172q16 0 27 -13q9 -10 9 -24q0 -4 -1 -8 l-119 -856q-1 -18 -16 -31.5t-31 -13.5h-78q-29 0 -37 35l-16 80q-3 -3 -8 -9q-25 -28 -42 -44t-51 -39.5t-79 -34.5t-101 -11q-94 0 -155.5 32t-88 89t-32.5 134z" />
<glyph unicode="v" horiz-adv-x="931" d="M80 893q-2 8 -2 14q0 13 8 23q12 16 35 16h170q29 0 35 -26l112 -451h6l240 451q10 17 22 21.5t35 4.5h172q23 0 31 -18q2 -6 2 -12q0 -13 -10 -27l-510 -887q-11 -25 -41 -25h-8q-25 0 -33 25z" />
<glyph unicode="w" horiz-adv-x="1345" d="M96 897q-1 5 -1 9q0 16 9 27q11 13 33 13h162q10 0 21 -8t12 -20l63 -420h2l279 450q16 23 37 23h20q19 0 31 -23l147 -450h2l185 420q5 13 14 19.5t17 7.5t22 1h156q25 0 31 -16q2 -6 2 -12q0 -11 -7 -25l-391 -889q-15 -27 -41 -27h-12q-21 0 -29 23l-190 553h-2 l-351 -553q-11 -23 -38 -23h-9q-13 0 -21.5 8t-10.5 19z" />
<glyph unicode="x" horiz-adv-x="980" d="M-28 19q-1 4 0 8q0 16 14 34l331 428l-217 390q-12 25 -1 46t38 21h180q27 0 45 -33l130 -249h2l178 249q15 20 28 26.5t37 6.5h195q28 0 34 -21q2 -5 2 -11q0 -16 -14 -35l-325 -410l221 -406q9 -23 -3.5 -43t-37.5 -20h-162q-20 0 -30 9.5t-19 29.5l-141 270h-4 l-205 -291q-11 -18 -37 -18h-207q-28 0 -32 19z" />
<glyph unicode="y" horiz-adv-x="966" d="M-1 -472q-2 5 -2 11q0 13 9 31l264 498l-182 817q-5 26 3.5 43.5t33.5 17.5h182q10 0 22 -7.5t13 -18.5l92 -578h6l267 578q11 26 47 26h186q24 0 32 -19q3 -7 3 -15q0 -13 -8 -27l-705 -1344q-14 -28 -41 -28h-194q-22 0 -28 15z" />
<glyph unicode="z" horiz-adv-x="794" d="M-10 37q0 23 18 53l389 617v6h-256q-15 0 -23 13.5t-5 31.5l20 143q1 20 14 32.5t29 12.5h569q39 0 39 -37q0 -15 -8 -28l-411 -643v-7h243q18 0 26.5 -12.5t6.5 -32.5l-23 -141q-2 -19 -15 -32t-32 -13h-544q-18 0 -27.5 11.5t-9.5 25.5z" />
<glyph unicode="{" horiz-adv-x="747" d="M23 416l12 100q5 26 31 35q15 3 44.5 18t64.5 49t40 74l33 240q18 130 58 227t90 152t118 88.5t129.5 44t136.5 10.5q34 0 31 -35l-10 -129q-1 -16 -10.5 -25.5t-20.5 -11.5q-133 -29 -202.5 -100t-90.5 -221l-26 -195q-7 -50 -28 -94.5t-45 -73t-51.5 -52t-43.5 -33 t-25 -13.5v-8q22 -11 42 -27.5t42 -46t31.5 -77t1.5 -105.5l-27 -199q-21 -149 29.5 -218t173.5 -95q10 -2 15.5 -12.5t2.5 -26.5l-22 -129q-3 -15 -16 -26t-27 -9q-72 3 -145.5 40.5t-133.5 101t-90.5 162.5t-15.5 212l31 232q8 61 -28 96t-79 43q-11 2 -17 12t-3 25z" />
<glyph unicode="|" horiz-adv-x="358" d="M-14 -451l276 1969q1 17 13 27.5t26 10.5h29q14 0 21.5 -10.5t6.5 -27.5l-276 -1969q-1 -15 -14 -25.5t-27 -10.5h-25q-14 0 -22.5 10.5t-7.5 25.5z" />
<glyph unicode="}" horiz-adv-x="745" d="M-96 -475l12 129q1 16 11 26.5t20 12.5q140 29 205 96t86 219l26 199q8 58 31 105.5t53.5 77t55.5 46t51 27.5l2 8q-11 6 -29 21.5t-44 47t-39.5 84t-4.5 113.5l27 195q8 79 0.5 133.5t-38.5 92.5t-70 59.5t-95 35.5q-27 5 -19 37l25 129q6 35 41 35q55 0 113 -19.5 t113.5 -62t95.5 -101.5t58.5 -147.5t4.5 -191.5l-33 -240q-4 -31 9 -58.5t34.5 -44t39 -26.5t26.5 -12q23 -8 20 -35l-14 -100q-3 -15 -12.5 -25t-20.5 -12q-46 -8 -91.5 -43t-53.5 -96l-33 -232q-17 -116 -54.5 -206.5t-87.5 -148.5t-115 -95.5t-131.5 -52.5t-141.5 -15 q-14 0 -24 10t-9 25z" />
<glyph unicode="~" horiz-adv-x="1032" d="M66 496q-20 23 2 49q6 8 16.5 21t44 46.5t67 59t81 46.5t90.5 21q87 0 188 -84q4 -3 20.5 -16.5t24.5 -19t22.5 -14t28.5 -12t29 -3.5q19 0 38.5 9t42 31.5l30.5 30.5t30 35q13 15 29.5 15.5t26.5 -11.5l81 -96q8 -9 7 -24t-11 -25q-6 -8 -16 -21t-42 -46.5t-64.5 -59.5 t-78.5 -47t-89 -21q-103 0 -209 89q-24 21 -33 28.5t-31 18t-43 10.5q-62 0 -141 -105q-12 -15 -27.5 -15.5t-25.5 11.5z" />
<glyph unicode="&#xa1;" horiz-adv-x="497" d="M-41 -449l33 230l162 575q3 12 16 22.5t25 10.5h67q13 0 23 -10.5t8 -22.5l2 -571l-33 -234q-1 -15 -13 -26.5t-26 -11.5h-235q-13 0 -22 11.5t-7 26.5zM119 778q0 76 59 132.5t133 56.5q59 0 100.5 -43.5t41.5 -104.5q0 -76 -58 -133t-131 -57q-62 0 -103.5 44 t-41.5 105z" />
<glyph unicode="&#xa2;" horiz-adv-x="1019" d="M106 418q0 238 142.5 393.5t349.5 155.5q35 0 88 -11l41 107q6 16 21.5 24t29.5 5l31 -7q17 -3 22.5 -18t-0.5 -35l-45 -114q77 -41 134 -115q20 -29 -19 -68l-78 -80q-32 -32 -61 2q-32 32 -57 45l-189 -485h8q28 0 53.5 8.5t50 27.5t34 28t29.5 31l5 5q12 13 28 16 t32 -11l88 -89q33 -33 10 -65q-67 -87 -158 -139t-198 -52q-32 0 -72 7l-88 -230q-6 -17 -21 -26t-30 -4l-29 8q-16 3 -23 17.5t1 33.5l90 233q-103 51 -161.5 157t-58.5 245zM365 434q0 -103 57 -166l176 461q-96 -3 -164.5 -88.5t-68.5 -206.5z" />
<glyph unicode="&#xa3;" d="M213 39l6 37q146 237 139 520h-77q-14 0 -23 12t-6 27l4 27q3 15 14.5 26.5t24.5 11.5h57q-16 126 -16 252q0 231 128 366.5t333 135.5q165 0 297 -145q9 -9 8 -25.5t-12 -28.5l-117 -114q-27 -27 -49 -6q-79 88 -150 88q-70 0 -123 -63t-53 -177q0 -47 14.5 -146.5 t16.5 -136.5h188q15 0 25.5 -11.5t7.5 -26.5l-6 -29q-3 -15 -14.5 -26t-26.5 -11h-172q-8 -199 -72 -369h334q14 0 22 -11t5 -28l-21 -149q-1 -15 -13 -27t-26 -12h-616q-13 0 -23 12t-8 27z" />
<glyph unicode="&#xa4;" horiz-adv-x="950" d="M123 438.5q3 17.5 14 28.5l107 98q-6 30 -6 66q0 92 38 164l-79 98q-8 10 -6 28t14 27l94 80q12 10 26.5 10t22.5 -10l78 -96q54 26 100 26q48 0 95 -26l104 96q11 10 25.5 9.5t23.5 -9.5l72 -82q9 -9 7 -25.5t-13 -27.5l-105 -96q8 -46 8 -70q0 -87 -41 -164l78 -96 q8 -10 6 -27.5t-14 -27.5l-96 -80q-13 -10 -26 -11t-21 9l-80 98q-49 -27 -100 -27q-53 0 -93 27l-106 -98q-11 -10 -25.5 -9.5t-23.5 9.5l-72 82q-9 9 -6 26.5zM399 662q0 -37 21 -62t53 -25q43 0 71.5 39t28.5 88q0 37 -20 60.5t-53 23.5q-42 0 -71.5 -39.5t-29.5 -84.5z " />
<glyph unicode="&#xa5;" d="M168 1384q-9 20 2 35t33 15h192q16 0 24.5 -6.5t14.5 -22.5l215 -471l344 481q14 19 33 19h225q23 0 28 -17t-9 -37l-516 -688l-15 -96h193q15 0 23.5 -12t5.5 -27l-3 -29q-3 -15 -14 -25.5t-26 -10.5h-193l-18 -142h190q15 0 24 -12t7 -27l-4 -28q-3 -15 -14.5 -26 t-26.5 -11h-191l-28 -207q-1 -15 -14 -27t-27 -12h-199q-14 0 -22.5 11.5t-6.5 27.5l29 207h-195q-13 0 -20.5 11.5t-5.5 27.5l4 26q1 15 13 27t26 12h192l21 142h-195q-13 0 -21 11.5t-5 26.5l4 27q2 15 13 27t24 12h194l14 94z" />
<glyph unicode="&#xa6;" horiz-adv-x="370" d="M-8 -451l94 678q3 17 15 28t26 11h29q14 0 21.5 -11t6.5 -28l-96 -678q-1 -15 -14 -25.5t-27 -10.5h-24q-14 0 -23 10.5t-8 25.5zM172 840l96 678q1 17 13 27.5t26 10.5h29q14 0 22 -10.5t7 -27.5l-97 -678q-1 -15 -13 -26t-26 -11h-26q-14 0 -23 11t-8 26z" />
<glyph unicode="&#xa7;" horiz-adv-x="1073" d="M9.5 -328.5q-0.5 13.5 15.5 39.5l67 99q32 48 70 16q15 -13 45.5 -33t90.5 -44.5t110 -24.5q64 0 109.5 39.5t45.5 103.5q0 133 -164 229q-57 33 -99.5 65.5t-86.5 78.5t-68 104.5t-24 124.5q0 110 47.5 194.5t124.5 135.5q-39 34 -65.5 96.5t-26.5 140.5 q0 79 26.5 151.5t78.5 133t139 97t198 36.5q31 0 61 -3t56.5 -10t48.5 -14t44.5 -18t37.5 -18.5t33.5 -20t26 -18t22.5 -17t16 -12.5q12 -9 13 -28.5t-11 -34.5l-84 -111q-28 -38 -63 -10q-33 29 -100 57.5t-132 28.5q-66 0 -108.5 -44t-42.5 -104q0 -55 40.5 -101.5 t127.5 -90.5q48 -25 83.5 -47t80.5 -58.5t73 -74t48 -91t20 -112.5q0 -107 -51 -197.5t-121 -140.5q37 -33 63.5 -97t26.5 -145q0 -89 -31.5 -167t-89.5 -137.5t-147.5 -93.5t-198.5 -34q-66 0 -131 18.5t-111.5 46t-76 49.5t-43.5 38q-13 16 -13.5 29.5zM369 508 q0 -17 2.5 -32t10.5 -30t13.5 -25.5t20.5 -24.5t23 -21.5t29.5 -22.5t30.5 -21.5t36.5 -24t37.5 -23.5q3 2 9 7t21 22.5t26 37t20.5 51.5t9.5 66q0 67 -54 117t-159 102q-77 -67 -77 -178z" />
<glyph unicode="&#xa8;" horiz-adv-x="763" d="M109 1260q6 62 51.5 104.5t99.5 42.5q58 0 92.5 -42t28.5 -105q-7 -62 -54 -106t-102 -44q-57 0 -90.5 43.5t-25.5 106.5zM496 1260q6 62 51 104.5t100 42.5q57 0 92 -42t29 -105q-7 -62 -54.5 -106t-101.5 -44q-58 0 -91 43t-25 107z" />
<glyph unicode="&#xa9;" horiz-adv-x="1566" d="M131 621q0 134 39.5 261t112 229.5t167.5 180t213 120t242 42.5q161 0 292 -86.5t203.5 -233t72.5 -321.5q0 -168 -63 -322t-167.5 -265.5t-247.5 -177.5t-297 -66q-121 0 -227.5 50.5t-180.5 136.5t-116.5 203.5t-42.5 248.5zM287 639q0 -135 55 -249t155 -181.5 t224 -67.5q114 0 223 52.5t191 140t132 209t50 252.5q0 136 -55 249.5t-155 180.5t-224 67q-114 0 -223 -52t-191 -139t-132 -208.5t-50 -253.5zM469 672q0 182 117 304t282 122q135 0 205 -78q11 -12 10 -29.5t-16 -29.5l-84 -74q-24 -21 -45 -4q-38 28 -92 28 q-74 0 -129 -66.5t-55 -156.5q0 -69 36 -115.5t95 -46.5q43 0 96 39q12 9 24.5 8t20.5 -12l67 -88q8 -12 5 -28.5t-15 -28.5q-104 -86 -221 -86q-129 0 -215 98.5t-86 243.5z" />
<glyph unicode="&#xaa;" horiz-adv-x="657" d="M131 991q0 98 68 162t180 64q21 0 43.5 -4.5t34.5 -8.5l12 -4q11 59 -1 84t-56 25q-47 0 -142 -23q-15 -3 -22 4.5t-6 26.5l-2 67q0 24 28 41q56 29 185 29q122 0 162.5 -64t21.5 -200l-45 -330q-1 -12 -10.5 -20.5t-20.5 -8.5h-55q-23 0 -35 64q-24 -23 -43.5 -37.5 t-56.5 -28.5t-78 -14q-73 0 -117.5 48t-44.5 128zM301 1016q0 -28 15 -45t40 -17q27 0 50.5 17.5t31.5 38.5l8 80q-20 16 -63 16q-34 0 -58 -25t-24 -65z" />
<glyph unicode="&#xab;" horiz-adv-x="952" d="M66 459q-13 26 6 49l233 303q20 25 43 25h131q24 0 29.5 -19.5t-8.5 -44.5l-164 -305l65 -281q6 -26 -3.5 -43.5t-32.5 -17.5h-127q-17 0 -25 16zM451 459q-13 26 6 49l233 303q20 25 43 25h131q24 0 29.5 -19.5t-8.5 -44.5l-164 -305l65 -281q6 -26 -3.5 -43.5 t-32.5 -17.5h-127q-17 0 -25 16z" />
<glyph unicode="&#xac;" horiz-adv-x="1085" d="M131 653l16 115q1 15 13 27t26 12h734q14 0 22 -12t6 -27l-65 -463q-1 -15 -13 -26t-26 -11h-119q-14 0 -23 11t-6 26l43 309h-579q-13 0 -22 12t-7 27z" />
<glyph unicode="&#xad;" horiz-adv-x="712" d="M92 430l19 137q1 17 13.5 28t27.5 11h417q15 0 23 -11t6 -28l-18 -137q-1 -15 -13.5 -26t-27.5 -11h-418q-15 0 -23 11t-6 26z" />
<glyph unicode="&#xae;" horiz-adv-x="1566" d="M131 621q0 134 39.5 261t112 229.5t167.5 180t213 120t242 42.5q161 0 292 -86.5t203.5 -233t72.5 -321.5q0 -168 -63 -322t-167.5 -265.5t-247.5 -177.5t-297 -66q-121 0 -227.5 50.5t-180.5 136.5t-116.5 203.5t-42.5 248.5zM287 639q0 -135 55 -249t155 -181.5 t224 -67.5q114 0 223 52.5t191 140t132 209t50 252.5q0 136 -55 249.5t-155 180.5t-224 67q-114 0 -223 -52t-191 -139t-132 -208.5t-50 -253.5zM506 383l94 672q2 15 14 27t25 12h293q81 0 137.5 -59.5t56.5 -157.5q0 -192 -163 -254l51 -224q5 -22 -7 -38.5t-32 -16.5 h-111q-10 0 -18 9t-10 20l-41 229h-88l-31 -219q-2 -15 -13 -27t-26 -12h-102q-15 0 -23.5 12t-5.5 27zM723 754h135q31 0 55.5 29t24.5 69q0 31 -15 50.5t-40 19.5h-135z" />
<glyph unicode="&#xaf;" horiz-adv-x="763" d="M78 1204l8 70q1 17 13.5 28t27.5 11h473q14 0 23 -11t6 -28l-11 -70q-2 -15 -12.5 -26t-25.5 -11h-474q-15 0 -22.5 10.5t-5.5 26.5z" />
<glyph unicode="&#xb0;" horiz-adv-x="643" d="M152 1141q0 132 78 222.5t202 90.5q95 0 159 -70t64 -170q0 -130 -81 -221.5t-197 -91.5q-96 0 -160.5 69.5t-64.5 170.5zM328 1161q0 -35 17 -59.5t44 -24.5q33 0 59.5 35t26.5 80q0 35 -16 59.5t-43 24.5q-34 0 -61 -34t-27 -81z" />
<glyph unicode="&#xb1;" d="M143 135l15 115q1 15 14 27t27 12h733q13 0 22 -12t7 -27l-17 -115q-2 -15 -14 -27t-25 -12h-727q-18 0 -27.5 11.5t-7.5 27.5zM258 782l16 115q2 15 14 27t25 12h269l43 303q1 15 14 26t27 11h125q14 0 22.5 -11t7.5 -26l-43 -303h269q13 0 21.5 -12t6.5 -27l-16 -115 q-1 -15 -13 -27t-26 -12h-268l-27 -211q-3 -15 -15 -25.5t-26 -10.5h-127q-14 0 -23 10.5t-6 25.5l27 211h-268q-13 0 -22 12t-7 27z" />
<glyph unicode="&#xb2;" horiz-adv-x="536" d="M125 1051l6 34l229 258q60 69 60 117q0 25 -12.5 41.5t-36.5 16.5q-33 0 -90 -39q-20 -13 -33 10l-37 67q-8 11 -6 21t20 22q84 60 181 60q76 0 128 -45.5t52 -116.5q0 -103 -86 -203l-117 -131h135q8 0 13 -5.5t4 -12.5l-15 -94q0 -7 -6 -13t-12 -6h-361q-19 0 -16 19z " />
<glyph unicode="&#xb3;" horiz-adv-x="528" d="M143 1079q-17 17 0 37l45 53q20 20 35 5q27 -27 76 -27q39 0 58.5 19.5t19.5 54.5q0 26 -16.5 41.5t-47.5 15.5h-57q-25 0 -20 29l8 63q3 29 35 29h53q30 0 50.5 21t20.5 53q0 23 -14 37t-39 14q-30 0 -67 -33q-8 -6 -15 -5.5t-14 11.5l-43 64q-6 7 -3.5 18.5t11.5 17.5 q7 7 21 17.5t56.5 27.5t86.5 17q84 0 137 -40.5t53 -107.5q0 -60 -35 -102t-81 -63q34 -16 62 -51t28 -87q0 -91 -68.5 -143.5t-169.5 -52.5q-44 0 -82.5 14.5t-55.5 27.5t-28 25z" />
<glyph unicode="&#xb4;" horiz-adv-x="557" d="M104 1174q-9 25 17 38l336 199q35 23 49 -10l49 -107q8 -19 2.5 -34t-20.5 -21l-353 -158q-22 -8 -31.5 -5t-15.5 18z" />
<glyph unicode="&#xb5;" horiz-adv-x="1062" d="M18 -442l193 1343q3 20 15.5 32.5t29.5 12.5h176q18 0 28 -12.5t7 -32.5l-74 -516q-11 -79 12.5 -123.5t77.5 -44.5q33 0 61.5 13.5t46 32.5t30.5 37.5t19 31.5l5 14l78 555q7 45 51 45h172q16 0 27 -13t8 -32l-119 -856q-1 -18 -16 -31.5t-31 -13.5h-78q-29 0 -37 35 l-16 80q-3 -3 -8 -9q-25 -28 -42 -44t-51 -39.5t-79 -34.5t-101 -11q-32 0 -67 7l-60 -426q-1 -18 -16 -31.5t-31 -13.5h-176q-17 0 -27 13t-8 32z" />
<glyph unicode="&#xb6;" horiz-adv-x="1398" d="M121 948q0 127 59 240t156.5 179.5t206.5 66.5h846q14 0 23.5 -12t6.5 -27l-14 -95q-3 -17 -14 -27.5t-25 -10.5h-127l-240 -1711q-2 -15 -14 -26.5t-27 -11.5h-116q-13 0 -22 11.5t-7 26.5l240 1709h-242l-240 -1709q-1 -15 -13 -26.5t-26 -11.5h-116q-14 0 -23 11.5 t-8 26.5l143 1024h-79q-140 0 -234 107.5t-94 265.5z" />
<glyph unicode="&#xb7;" horiz-adv-x="536" d="M74 504q0 85 64 147t145 62q70 0 116.5 -48t46.5 -118q0 -82 -65.5 -143.5t-149.5 -61.5q-67 0 -112 47.5t-45 114.5z" />
<glyph unicode="&#xb8;" horiz-adv-x="505" d="M45 -453q-17 20 6 58l25 41q12 22 28 27t31 -9q33 -33 82 -33q41 0 75 23.5t34 69.5q0 32 -22.5 48.5t-61.5 16.5q-17 0 -31.5 -4t-30 -10.5t-18.5 -7.5q-17 -6 -28.5 8t-2.5 28l123 203h139l-102 -133q21 6 43 6q65 0 108 -40t43 -109q0 -104 -74.5 -169t-185.5 -65 q-60 0 -109 14t-71 37z" />
<glyph unicode="&#xb9;" horiz-adv-x="415" d="M174 1456l6 62q2 18 19 28l151 92h107q7 0 11.5 -5t2.5 -13l-80 -569q-4 -19 -20 -19h-127q-7 0 -12 5.5t-5 13.5l56 395l-97 -8q-15 0 -12 18z" />
<glyph unicode="&#xba;" horiz-adv-x="643" d="M152 1059q0 181 77.5 288t212.5 107q93 0 147 -68t54 -184q0 -180 -78.5 -287.5t-212.5 -107.5q-92 0 -146 68.5t-54 183.5zM324 1065q0 -49 13.5 -78t35.5 -29q42 0 70 69t28 169q0 49 -13.5 78t-35.5 29q-43 0 -70.5 -70t-27.5 -168z" />
<glyph unicode="&#xbb;" horiz-adv-x="952" d="M30 144q-5 19 9 44l164 306l-66 280q-6 25 4 43.5t33 18.5h127q17 0 25 -17l147 -317q13 -26 -6 -49l-234 -303q-20 -25 -43 -25h-131q-24 0 -29 19zM415 144q-5 19 9 44l164 306l-66 280q-6 25 4 43.5t33 18.5h127q16 0 25 -17l147 -317q13 -26 -6 -49l-234 -303 q-20 -25 -43 -25h-131q-24 0 -29 19z" />
<glyph unicode="&#xbc;" horiz-adv-x="1249" d="M101.5 17.5q-7.5 17.5 4.5 37.5l826 1358q14 21 35 21h106q20 0 27.5 -18t-4.5 -38l-828 -1358q-15 -20 -32 -20h-105q-22 0 -29.5 17.5zM172 1251l6 62q2 18 19 28l151 93h107q7 0 11.5 -5.5t2.5 -13.5l-80 -569q-4 -19 -20 -19h-127q-7 0 -12 5.5t-5 13.5l56 395 l-97 -8q-15 0 -12 18zM610 133l15 105l342 358q10 10 26 10h80q6 0 10.5 -5.5t3.5 -12.5l-49 -348h72q7 0 11.5 -5.5t2.5 -11.5l-12 -88q0 -7 -6 -12.5t-12 -5.5h-74l-12 -99q-4 -18 -21 -18h-115q-8 0 -12.5 5.5t-3.5 12.5l14 99h-245q-6 0 -10.5 5t-4.5 11zM768 238h121 l24 147z" />
<glyph unicode="&#xbd;" horiz-adv-x="1232" d="M101.5 17.5q-7.5 17.5 4.5 37.5l826 1358q14 21 35 21h106q20 0 27.5 -18t-4.5 -38l-828 -1358q-15 -20 -32 -20h-105q-22 0 -29.5 17.5zM172 1251l6 62q2 18 19 28l151 93h107q7 0 11.5 -5.5t2.5 -13.5l-80 -569q-4 -19 -20 -19h-127q-7 0 -12 5.5t-5 13.5l56 395 l-97 -8q-15 0 -12 18zM659 18l7 35l229 258q59 68 59 117q0 25 -12.5 41t-36.5 16q-33 0 -90 -39q-20 -13 -33 11l-37 67q-8 11 -6 21t21 22q84 60 180 60q76 0 128 -45.5t52 -116.5q0 -103 -86 -203l-116 -131h135q8 0 12.5 -5.5t3.5 -12.5l-14 -95q0 -7 -6.5 -12.5 t-12.5 -5.5h-360q-20 0 -17 18z" />
<glyph unicode="&#xbe;" horiz-adv-x="1351" d="M137 874q-17 17 0 37l45 54q20 19 35 4q27 -27 76 -27q39 0 58.5 19.5t19.5 54.5q0 26 -16.5 41.5t-47.5 15.5h-57q-26 0 -21 29l9 63q3 29 34 29h54q30 0 50.5 21t20.5 53q0 23 -14 37t-39 14q-31 0 -68 -33q-8 -6 -14.5 -5.5t-13.5 11.5l-43 64q-6 7 -3.5 19t11.5 18 q7 7 21 17t56.5 27t86.5 17q84 0 137 -40t53 -107q0 -60 -35 -102.5t-81 -63.5q34 -16 62 -50.5t28 -86.5q0 -91 -68.5 -144t-169.5 -53q-44 0 -82.5 14.5t-55.5 27.5t-28 25zM206.5 17.5q-7.5 17.5 4.5 37.5l825 1358q14 21 35 21h107q20 0 27 -18t-5 -38l-827 -1358 q-15 -20 -33 -20h-104q-22 0 -29.5 17.5zM715 133l14 105l342 358q10 10 27 10h80q6 0 10.5 -5.5t3.5 -12.5l-49 -348h71q7 0 12 -5.5t3 -11.5l-12 -88q0 -7 -6.5 -12.5t-12.5 -5.5h-74l-12 -99q-4 -18 -20 -18h-115q-8 0 -12.5 5.5t-3.5 12.5l14 99h-246q-6 0 -10 5t-4 11z M872 238h121l25 147z" />
<glyph unicode="&#xbf;" horiz-adv-x="858" d="M-53 -199q0 57 17 107.5t45 87t62.5 68.5t70 58.5t65.5 50.5t52 51.5t28 54.5l16 77q7 33 39 33h176q14 0 23 -11t8 -28l-12 -86q-7 -47 -33.5 -91t-61.5 -75.5t-74 -65.5t-71.5 -62t-54 -64.5t-21.5 -73.5q0 -47 29 -75.5t80 -28.5q15 0 30.5 3.5t28.5 8.5t28.5 14.5 t24.5 15.5t23.5 18t19.5 16.5t17.5 17t13.5 12.5q16 12 32 11t27 -13l95 -104q8 -11 5.5 -26t-13.5 -28l-12 -14q-12 -13 -20 -21t-25.5 -25t-34.5 -28.5t-40.5 -27t-49 -26t-55.5 -20.5t-65.5 -15t-72.5 -5q-142 0 -241 89t-99 220zM322 778q0 75 58.5 132t131.5 57 q61 0 102 -43.5t41 -104.5q0 -76 -58 -133t-132 -57q-61 0 -102 44t-41 105z" />
<glyph unicode="&#xc0;" horiz-adv-x="1267" d="M-57 16.5q-7 16.5 4 36.5l770 1379q13 22 35 22h18q22 0 29 -22l377 -1379q6 -20 -5.5 -36.5t-33.5 -16.5h-179q-24 0 -36.5 9t-16.5 32l-51 227h-510l-119 -227q-21 -41 -65 -41h-189q-21 0 -28 16.5zM465 489h323l-96 447h-4zM606 1788l60 88q12 19 30.5 21.5 t24.5 -5.5l280 -198q8 -5 11 -16t-4 -23l-41 -68q-19 -28 -49 -12l-308 158q-29 17 -4 55z" />
<glyph unicode="&#xc1;" horiz-adv-x="1267" d="M-57 16.5q-7 16.5 4 36.5l770 1379q13 22 35 22h18q22 0 29 -22l377 -1379q6 -20 -5.5 -36.5t-33.5 -16.5h-179q-24 0 -36.5 9t-16.5 32l-51 227h-510l-119 -227q-21 -41 -65 -41h-189q-21 0 -28 16.5zM465 489h323l-96 447h-4zM575 1665q-10 26 17 39l336 199 q34 23 49 -11l49 -106q8 -19 2.5 -34t-20.5 -21l-353 -158q-35 -15 -47 12z" />
<glyph unicode="&#xc2;" horiz-adv-x="1267" d="M-57 16.5q-7 16.5 4 36.5l770 1379q13 22 35 22h18q22 0 29 -22l377 -1379q6 -20 -5.5 -36.5t-33.5 -16.5h-179q-24 0 -36.5 9t-16.5 32l-51 227h-510l-119 -227q-21 -41 -65 -41h-189q-21 0 -28 16.5zM465 489h323l-96 447h-4zM506 1640q-19 27 10 48l275 206 q23 17 43 0l217 -206q8 -7 10.5 -17.5t-4.5 -21.5l-60 -76q-19 -25 -41 -6l-159 127l-205 -127q-26 -16 -41 6z" />
<glyph unicode="&#xc3;" horiz-adv-x="1267" d="M-57 16.5q-7 16.5 4 36.5l770 1379q13 22 35 22h18q22 0 29 -22l377 -1379q6 -20 -5.5 -36.5t-33.5 -16.5h-179q-24 0 -36.5 9t-16.5 32l-51 227h-510l-119 -227q-21 -41 -65 -41h-189q-21 0 -28 16.5zM465 489h323l-96 447h-4zM510 1706q11 23 25.5 45.5t41.5 54.5 t64 52t78 20q31 0 59.5 -17.5t46.5 -39t41 -39t45 -17.5q35 0 66 64q9 19 26 25t35 -5l47 -37q28 -19 5 -67q-9 -19 -24 -41.5t-39.5 -50.5t-60 -46t-73.5 -18q-32 0 -63.5 18t-51.5 39.5t-42.5 39.5t-39.5 18q-18 0 -35 -16t-23.5 -27.5t-19.5 -36.5q-6 -12 -21.5 -15 t-27.5 7l-55 43q-20 20 -4 47z" />
<glyph unicode="&#xc4;" horiz-adv-x="1267" d="M-57 16.5q-7 16.5 4 36.5l770 1379q13 22 35 22h18q22 0 29 -22l377 -1379q6 -20 -5.5 -36.5t-33.5 -16.5h-179q-24 0 -36.5 9t-16.5 32l-51 227h-510l-119 -227q-21 -41 -65 -41h-189q-21 0 -28 16.5zM438 1718q6 62 51 105t99 43q58 0 92.5 -42.5t28.5 -105.5 q-7 -62 -54 -105.5t-102 -43.5q-57 0 -90 43t-25 106zM465 489h323l-96 447h-4zM893 1718q6 62 51 105t100 43q57 0 91 -42.5t28 -105.5q-7 -62 -53 -105.5t-100 -43.5q-58 0 -91.5 43t-25.5 106z" />
<glyph unicode="&#xc5;" horiz-adv-x="1267" d="M-57 16.5q-7 16.5 4 36.5l770 1379q13 22 35 22h18q22 0 29 -22l377 -1379q6 -20 -5.5 -36.5t-33.5 -16.5h-179q-24 0 -36.5 9t-16.5 32l-51 227h-510l-119 -227q-21 -41 -65 -41h-189q-21 0 -28 16.5zM465 489h323l-96 447h-4zM596 1745q0 109 71.5 185.5t174.5 76.5 q77 0 128.5 -58.5t51.5 -142.5q0 -108 -72 -185t-172 -77q-79 0 -130.5 58.5t-51.5 142.5zM725 1763q0 -36 20.5 -63t49.5 -27q37 0 67.5 35.5t30.5 79.5q0 36 -20 61t-50 25q-37 0 -67.5 -33.5t-30.5 -77.5z" />
<glyph unicode="&#xc6;" horiz-adv-x="1683" d="M-88 16.5q-4 16.5 10 36.5l924 1317q2 3 10.5 14t10.5 13.5t8.5 10.5t9.5 9.5t9.5 6.5t12 6t13 2.5t16.5 1.5h735q13 0 22 -12t7 -27l-25 -168q-2 -15 -13 -27t-26 -12h-528l-47 -336h436q13 0 23 -12t8 -27l-25 -170q-3 -17 -15 -28t-26 -11h-436l-51 -358h528 q14 0 22.5 -11.5t6.5 -27.5l-23 -168q-2 -15 -14 -27t-27 -12h-757q-15 0 -24 12t-7 27l33 223h-359l-151 -231q-22 -31 -56 -31h-210q-21 0 -25 16.5zM518 489h225l64 455z" />
<glyph unicode="&#xc7;" horiz-adv-x="1286" d="M109 616q0 177 60 333.5t162 266.5t243 174t298 64q132 0 241 -52.5t185 -141.5q9 -12 7 -29t-15 -29l-110 -106q-18 -15 -36 -14.5t-32 14.5q-106 102 -254 102q-121 0 -227 -75t-169 -201.5t-63 -270.5q0 -169 85.5 -286t228.5 -117q141 0 280 121q38 33 66 -2 l106 -134q7 -11 4 -27.5t-14 -27.5q-194 -186 -434 -198l-82 -107q21 6 43 6q65 0 108.5 -40.5t43.5 -108.5q0 -104 -75 -169t-186 -65q-60 0 -109 14t-71 37q-17 20 6 58l25 41q12 22 28 27t31 -9q33 -33 82 -33q41 0 75 23.5t34 69.5q0 32 -22.5 48.5t-61.5 16.5 q-17 0 -31.5 -4t-30 -10.5t-18.5 -7.5q-17 -6 -28.5 8t-2.5 28l111 185q-218 36 -349.5 211.5t-131.5 416.5z" />
<glyph unicode="&#xc8;" horiz-adv-x="1095" d="M94 39l191 1356q1 15 13 27t26 12h757q15 0 24 -12t7 -27l-25 -168q-2 -15 -13.5 -27t-26.5 -12h-525l-47 -336h434q13 0 23 -12t8 -27l-25 -170q-3 -17 -15 -28t-26 -11h-434l-51 -358h526q14 0 22.5 -11.5t6.5 -27.5l-22 -168q-2 -15 -14 -27t-27 -12h-758 q-15 0 -23.5 12t-5.5 27zM549 1788l59 88q12 19 31 21.5t25 -5.5l280 -198q8 -5 10.5 -16t-4.5 -23l-41 -68q-19 -28 -49 -12l-307 158q-29 17 -4 55z" />
<glyph unicode="&#xc9;" horiz-adv-x="1095" d="M94 39l191 1356q1 15 13 27t26 12h757q15 0 24 -12t7 -27l-25 -168q-2 -15 -13.5 -27t-26.5 -12h-525l-47 -336h434q13 0 23 -12t8 -27l-25 -170q-3 -17 -15 -28t-26 -11h-434l-51 -358h526q14 0 22.5 -11.5t6.5 -27.5l-22 -168q-2 -15 -14 -27t-27 -12h-758 q-15 0 -23.5 12t-5.5 27zM520 1665q-10 26 17 39l335 199q13 10 28 7.5t22 -18.5l49 -106q8 -19 2 -33.5t-21 -21.5l-352 -158q-35 -15 -47 12z" />
<glyph unicode="&#xca;" horiz-adv-x="1095" d="M94 39l191 1356q1 15 13 27t26 12h757q15 0 24 -12t7 -27l-25 -168q-2 -15 -13.5 -27t-26.5 -12h-525l-47 -336h434q13 0 23 -12t8 -27l-25 -170q-3 -17 -15 -28t-26 -11h-434l-51 -358h526q14 0 22.5 -11.5t6.5 -27.5l-22 -168q-2 -15 -14 -27t-27 -12h-758 q-15 0 -23.5 12t-5.5 27zM453 1640q-19 27 10 48l274 206q23 17 43 0l217 -206q22 -18 7 -39l-60 -76q-19 -25 -41 -6l-160 127l-204 -127q-26 -16 -41 6z" />
<glyph unicode="&#xcb;" horiz-adv-x="1095" d="M94 39l191 1356q1 15 13 27t26 12h757q15 0 24 -12t7 -27l-25 -168q-2 -15 -13.5 -27t-26.5 -12h-525l-47 -336h434q13 0 23 -12t8 -27l-25 -170q-3 -17 -15 -28t-26 -11h-434l-51 -358h526q14 0 22.5 -11.5t6.5 -27.5l-22 -168q-2 -15 -14 -27t-27 -12h-758 q-15 0 -23.5 12t-5.5 27zM383 1718q6 62 50.5 105t98.5 43q58 0 92.5 -42.5t28.5 -105.5q-7 -62 -53.5 -105.5t-101.5 -43.5q-57 0 -90 43t-25 106zM838 1718q6 62 51 105t100 43q57 0 91 -42.5t28 -105.5q-7 -62 -53.5 -105.5t-100.5 -43.5q-58 0 -91 42.5t-25 106.5z" />
<glyph unicode="&#xcc;" horiz-adv-x="610" d="M94 39l191 1356q1 15 13 27t26 12h200q14 0 23 -12t6 -27l-191 -1356q-2 -15 -13.5 -27t-24.5 -12h-201q-14 0 -23 12t-6 27zM268 1788l60 88q12 19 30.5 21.5t24.5 -5.5l281 -198q8 -5 10.5 -16t-4.5 -23l-41 -68q-19 -28 -49 -12l-308 158q-29 17 -4 55z" />
<glyph unicode="&#xcd;" horiz-adv-x="610" d="M94 39l191 1356q1 15 13 27t26 12h200q14 0 23 -12t6 -27l-191 -1356q-2 -15 -13.5 -27t-24.5 -12h-201q-14 0 -23 12t-6 27zM238 1665q-10 26 16 39l336 199q34 23 49 -11l49 -106q8 -19 2.5 -34t-20.5 -21l-353 -158q-35 -15 -47 12z" />
<glyph unicode="&#xce;" horiz-adv-x="610" d="M94 39l191 1356q1 15 13 27t26 12h200q14 0 23 -12t6 -27l-191 -1356q-2 -15 -13.5 -27t-24.5 -12h-201q-14 0 -23 12t-6 27zM170 1640q-19 27 10 48l275 206q23 17 43 0l217 -206q8 -7 10.5 -17.5t-4.5 -21.5l-59 -76q-19 -25 -41 -6l-160 127l-205 -127q-26 -16 -41 6z " />
<glyph unicode="&#xcf;" horiz-adv-x="610" d="M94 39l191 1356q1 15 13 27t26 12h200q14 0 23 -12t6 -27l-191 -1356q-2 -15 -13.5 -27t-24.5 -12h-201q-14 0 -23 12t-6 27zM100 1718q6 62 51 105t99 43q58 0 92.5 -42.5t28.5 -105.5q-7 -62 -54 -105.5t-102 -43.5q-57 0 -90 43t-25 106zM555 1718q6 62 51.5 105 t100.5 43q57 0 90.5 -42.5t27.5 -105.5q-7 -62 -53 -105.5t-100 -43.5q-58 0 -91.5 43t-25.5 106z" />
<glyph unicode="&#xd0;" horiz-adv-x="1394" d="M96 39l86 618h-53q-13 0 -22 12t-7 27l2 27q1 15 14 27t27 12h54l90 633q1 15 13 27t26 12h442q157 0 286 -88t199 -230t70 -305q0 -164 -59.5 -313.5t-160 -259t-241 -174t-295.5 -64.5h-444q-13 0 -21.5 12t-5.5 27zM391 250h191q124 0 228.5 71t166 196.5t61.5 275.5 q0 170 -89 281.5t-234 111.5h-193l-59 -424h280q14 0 22.5 -11.5t6.5 -27.5l-4 -29q-2 -15 -13 -26t-26 -11h-280z" />
<glyph unicode="&#xd1;" horiz-adv-x="1443" d="M96 35l193 1382q1 15 13 26t26 11h22q14 0 19.5 -1.5t14 -8.5t19.5 -23l603 -852h2l110 826q2 15 13 27t26 12h199q13 0 22.5 -12t7.5 -27l-194 -1379q-1 -15 -13 -25.5t-26 -10.5h-20q-23 0 -34 6.5t-26 29.5l-598 875h-2l-111 -852q-2 -15 -13.5 -27t-26.5 -12h-197 q-12 0 -21 11t-8 24zM578 1706q11 23 25.5 45.5t41 54.5t63.5 52t78 20q25 0 48.5 -11.5t40.5 -28t33.5 -33.5t34.5 -28.5t36 -11.5q22 0 36.5 17t28.5 47q9 19 27 25.5t35 -5.5l47 -37q27 -19 4 -67q-9 -19 -23.5 -41.5t-39.5 -50.5t-60 -46t-73 -18q-32 0 -63.5 18 t-51.5 39.5t-42.5 39.5t-39.5 18q-18 0 -35 -16t-23.5 -27.5t-19.5 -36.5q-6 -12 -21.5 -15t-27.5 7l-55 43q-20 20 -4 47z" />
<glyph unicode="&#xd2;" horiz-adv-x="1521" d="M109 614q0 229 99.5 421.5t275.5 305.5t390 113q162 0 295 -87.5t207 -234t74 -319.5q0 -170 -59.5 -324t-161 -265.5t-244 -177.5t-301.5 -66q-163 0 -296 87.5t-206 232.5t-73 314zM385 649q0 -171 90 -287t238 -116q123 0 229.5 72t169 195t62.5 267q0 171 -91 289.5 t-239 118.5q-121 0 -227 -73.5t-169 -198t-63 -267.5zM707 1788l59 88q12 19 30.5 21.5t24.5 -5.5l281 -198q8 -5 10.5 -16t-4.5 -23l-41 -68q-19 -28 -49 -12l-307 158q-29 17 -4 55z" />
<glyph unicode="&#xd3;" horiz-adv-x="1521" d="M109 614q0 229 99.5 421.5t275.5 305.5t390 113q162 0 295 -87.5t207 -234t74 -319.5q0 -170 -59.5 -324t-161 -265.5t-244 -177.5t-301.5 -66q-163 0 -296 87.5t-206 232.5t-73 314zM385 649q0 -171 90 -287t238 -116q123 0 229.5 72t169 195t62.5 267q0 171 -91 289.5 t-239 118.5q-121 0 -227 -73.5t-169 -198t-63 -267.5zM676 1665q-10 26 16 39l336 199q34 23 49 -11l49 -106q8 -19 2.5 -34t-20.5 -21l-352 -158q-35 -15 -47 12z" />
<glyph unicode="&#xd4;" horiz-adv-x="1521" d="M109 614q0 229 99.5 421.5t275.5 305.5t390 113q162 0 295 -87.5t207 -234t74 -319.5q0 -170 -59.5 -324t-161 -265.5t-244 -177.5t-301.5 -66q-163 0 -296 87.5t-206 232.5t-73 314zM385 649q0 -171 90 -287t238 -116q123 0 229.5 72t169 195t62.5 267q0 171 -91 289.5 t-239 118.5q-121 0 -227 -73.5t-169 -198t-63 -267.5zM606 1640q-19 27 10 48l275 206q23 17 43 0l217 -206q8 -7 10.5 -17.5t-4.5 -21.5l-59 -76q-19 -25 -41 -6l-160 127l-205 -127q-26 -16 -41 6z" />
<glyph unicode="&#xd5;" horiz-adv-x="1521" d="M109 614q0 229 99.5 421.5t275.5 305.5t390 113q162 0 295 -87.5t207 -234t74 -319.5q0 -170 -59.5 -324t-161 -265.5t-244 -177.5t-301.5 -66q-163 0 -296 87.5t-206 232.5t-73 314zM385 649q0 -171 90 -287t238 -116q123 0 229.5 72t169 195t62.5 267q0 171 -91 289.5 t-239 118.5q-121 0 -227 -73.5t-169 -198t-63 -267.5zM610 1706q11 23 25.5 45.5t41.5 54.5t64 52t78 20q25 0 48.5 -11.5t40.5 -28t33.5 -33.5t34.5 -28.5t36 -11.5q22 0 36.5 17t28.5 47q9 19 27 25.5t35 -5.5l47 -37q27 -19 4 -67q-9 -19 -24 -41.5t-39.5 -50.5t-60 -46 t-73.5 -18q-32 0 -63.5 18t-51 39.5t-42 39.5t-39.5 18q-18 0 -35 -16t-23.5 -27.5t-19.5 -36.5q-6 -12 -21.5 -15t-27.5 7l-56 43q-20 20 -4 47z" />
<glyph unicode="&#xd6;" horiz-adv-x="1521" d="M109 614q0 229 99.5 421.5t275.5 305.5t390 113q162 0 295 -87.5t207 -234t74 -319.5q0 -170 -59.5 -324t-161 -265.5t-244 -177.5t-301.5 -66q-163 0 -296 87.5t-206 232.5t-73 314zM385 649q0 -171 90 -287t238 -116q123 0 229.5 72t169 195t62.5 267q0 171 -91 289.5 t-239 118.5q-121 0 -227 -73.5t-169 -198t-63 -267.5zM541 1718q6 62 50.5 105t98.5 43q58 0 92.5 -42.5t28.5 -105.5q-7 -62 -54 -105.5t-102 -43.5q-57 0 -89.5 43t-24.5 106zM995 1718q6 62 51.5 105t100.5 43q57 0 91 -42.5t28 -105.5q-7 -62 -53.5 -105.5t-100.5 -43.5 q-58 0 -91.5 43t-25.5 106z" />
<glyph unicode="&#xd7;" d="M261 469q2 16 13 27l228 221l-160 215q-8 10 -6 28t14 27l86 74q12 9 26.5 9.5t22.5 -9.5l160 -215l227 223q12 10 26.5 9.5t23.5 -11.5l75 -86q9 -9 7.5 -26t-13.5 -27l-227 -223l160 -216q9 -12 6 -29t-15 -26l-88 -72q-13 -10 -26 -11t-21 9l-162 218l-227 -222 q-11 -10 -24.5 -9.5t-22.5 9.5l-76 86q-9 11 -7 27z" />
<glyph unicode="&#xd8;" horiz-adv-x="1521" d="M51.5 71.5q1.5 15.5 14.5 28.5l149 144q-106 162 -106 370q0 229 99.5 421.5t275.5 305.5t390 113q120 0 227 -50t185 -138l152 145q11 10 24.5 9.5t22.5 -9.5l18 -20q9 -11 6.5 -26.5t-14.5 -27.5l-154 -147q109 -170 109 -377q0 -170 -59.5 -324t-161 -265.5 t-244 -177.5t-301.5 -66q-122 0 -228 49t-184 137l-147 -141q-11 -10 -24 -9t-23 11l-19 20q-9 9 -7.5 24.5zM385 649q0 -113 41 -203l653 623q-94 119 -235 119q-87 0 -171 -43.5t-147 -116t-102 -173t-39 -206.5zM477 362q92 -116 236 -116q118 0 224 71.5t171.5 195.5 t65.5 267q0 108 -44 207z" />
<glyph unicode="&#xd9;" horiz-adv-x="1355" d="M141 436q0 38 6 82l125 877q1 15 14 27t27 12h203q15 0 24 -12t7 -27l-123 -863q-4 -23 -4 -65q0 -103 53 -160t156 -57q123 0 195 73.5t91 206.5l123 865q2 15 14 27t27 12h203q13 0 23 -12t8 -27l-125 -877q-33 -238 -189 -388t-391 -150q-206 0 -336.5 127.5 t-130.5 328.5zM635 1788l59 88q12 19 31 21.5t25 -5.5l280 -198q8 -5 10.5 -16t-4.5 -23l-41 -68q-19 -28 -49 -12l-307 158q-29 17 -4 55z" />
<glyph unicode="&#xda;" horiz-adv-x="1355" d="M141 436q0 38 6 82l125 877q1 15 14 27t27 12h203q15 0 24 -12t7 -27l-123 -863q-4 -23 -4 -65q0 -103 53 -160t156 -57q123 0 195 73.5t91 206.5l123 865q2 15 14 27t27 12h203q13 0 23 -12t8 -27l-125 -877q-33 -238 -189 -388t-391 -150q-206 0 -336.5 127.5 t-130.5 328.5zM606 1665q-10 26 17 39l335 199q13 10 28 7.5t22 -18.5l49 -106q8 -19 2 -33.5t-21 -21.5l-352 -158q-35 -15 -47 12z" />
<glyph unicode="&#xdb;" horiz-adv-x="1355" d="M141 436q0 38 6 82l125 877q1 15 14 27t27 12h203q15 0 24 -12t7 -27l-123 -863q-4 -23 -4 -65q0 -103 53 -160t156 -57q123 0 195 73.5t91 206.5l123 865q2 15 14 27t27 12h203q13 0 23 -12t8 -27l-125 -877q-33 -238 -189 -388t-391 -150q-206 0 -336.5 127.5 t-130.5 328.5zM539 1640q-19 27 10 48l274 206q23 17 43 0l217 -206q22 -18 7 -39l-60 -76q-19 -25 -41 -6l-160 127l-204 -127q-26 -16 -41 6z" />
<glyph unicode="&#xdc;" horiz-adv-x="1355" d="M141 436q0 38 6 82l125 877q1 15 14 27t27 12h203q15 0 24 -12t7 -27l-123 -863q-4 -23 -4 -65q0 -103 53 -160t156 -57q123 0 195 73.5t91 206.5l123 865q2 15 14 27t27 12h203q13 0 23 -12t8 -27l-125 -877q-33 -238 -189 -388t-391 -150q-206 0 -336.5 127.5 t-130.5 328.5zM469 1718q6 62 50.5 105t98.5 43q58 0 92.5 -42.5t28.5 -105.5q-7 -62 -53.5 -105.5t-101.5 -43.5q-57 0 -90 43t-25 106zM924 1718q6 62 51 105t100 43q57 0 91 -42.5t28 -105.5q-7 -62 -53.5 -105.5t-100.5 -43.5q-58 0 -91 42.5t-25 106.5z" />
<glyph unicode="&#xdd;" horiz-adv-x="1136" d="M125 1384q-9 20 2 35t33 15h192q16 0 24.5 -6.5t14.5 -22.5l213 -467h4l342 477q14 19 33 19h225q23 0 28 -17t-9 -37l-516 -688l-90 -653q-1 -15 -14 -27t-27 -12h-199q-14 0 -22.5 11.5t-6.5 27.5l92 651zM483 1665q-10 26 17 39l336 199q34 23 49 -11l49 -106 q8 -19 2 -33.5t-21 -21.5l-352 -158q-35 -15 -47 12z" />
<glyph unicode="&#xde;" horiz-adv-x="1122" d="M94 39l191 1356q2 15 14 27t27 12h196q13 0 22 -12t7 -27l-31 -221h207q152 1 253 -116.5t101 -279.5q0 -139 -64.5 -258.5t-175.5 -189.5t-241 -70h-209l-31 -221q-1 -15 -14 -27t-27 -12h-196q-15 0 -23.5 12t-5.5 27zM426 510h192q76 0 136.5 72t60.5 170 q0 73 -39 121.5t-100 48.5h-191z" />
<glyph unicode="&#xdf;" horiz-adv-x="1112" d="M-16 -440l196 1376q35 239 164 378.5t336 139.5q163 0 273 -96.5t110 -257.5q0 -58 -22 -110t-53.5 -88t-63.5 -67t-54 -58.5t-22 -49.5q0 -25 24 -66.5t52.5 -81.5t52.5 -102t24 -123q0 -94 -36 -168t-95 -118.5t-130.5 -67.5t-147.5 -23q-18 0 -29 1t-26.5 5.5 t-23 15.5t-7.5 28v145q0 45 59 45q150 0 150 141q0 44 -23.5 94.5t-51.5 88t-51.5 80.5t-23.5 75q0 49 34 108t74.5 103.5t74.5 96t34 88.5q0 125 -118 125q-84 0 -145.5 -79t-80.5 -210l-194 -1368q-3 -18 -18 -32.5t-29 -14.5h-181q-18 0 -26.5 13.5t-5.5 33.5z" />
<glyph unicode="&#xe0;" horiz-adv-x="1091" d="M59 412q0 151 62.5 278t173.5 202t246 75q88 0 159 -40.5t107 -84.5l43 73q16 31 39 31h84q16 0 26.5 -13t6.5 -32l-117 -856q-1 -18 -16 -31.5t-31 -13.5h-84q-30 0 -37 41l-16 72q-136 -136 -285 -136q-161 0 -261 125t-100 310zM315 418q0 -85 41 -143t119 -58 q66 0 126 54.5t75 99.5l31 227q-7 45 -52.5 88t-113.5 43q-95 0 -160.5 -87.5t-65.5 -223.5zM432 1300l60 89q12 19 30.5 21.5t24.5 -5.5l280 -199q8 -5 11 -16t-4 -23l-41 -67q-19 -29 -50 -13l-307 158q-29 17 -4 55z" />
<glyph unicode="&#xe1;" horiz-adv-x="1091" d="M59 412q0 151 62.5 278t173.5 202t246 75q88 0 159 -40.5t107 -84.5l43 73q16 31 39 31h84q16 0 26.5 -13t6.5 -32l-117 -856q-1 -18 -16 -31.5t-31 -13.5h-84q-30 0 -37 41l-16 72q-136 -136 -285 -136q-161 0 -261 125t-100 310zM315 418q0 -85 41 -143t119 -58 q66 0 126 54.5t75 99.5l31 227q-7 45 -52.5 88t-113.5 43q-95 0 -160.5 -87.5t-65.5 -223.5zM432 1174q-9 25 17 38l335 199q13 10 28 8t22 -18l49 -107q8 -19 2 -33.5t-21 -21.5l-352 -158q-22 -8 -31.5 -5t-15.5 18z" />
<glyph unicode="&#xe2;" horiz-adv-x="1091" d="M59 412q0 151 62.5 278t173.5 202t246 75q88 0 159 -40.5t107 -84.5l43 73q16 31 39 31h84q16 0 26.5 -13t6.5 -32l-117 -856q-1 -18 -16 -31.5t-31 -13.5h-84q-30 0 -37 41l-16 72q-136 -136 -285 -136q-161 0 -261 125t-100 310zM315 418q0 -85 41 -143t119 -58 q66 0 126 54.5t75 99.5l31 227q-7 45 -52.5 88t-113.5 43q-95 0 -160.5 -87.5t-65.5 -223.5zM338 1151q-19 27 10 47l275 207q23 17 43 0l217 -207q8 -7 10.5 -17.5t-4.5 -21.5l-60 -76q-19 -25 -41 -6l-159 127l-205 -127q-26 -16 -41 6z" />
<glyph unicode="&#xe3;" horiz-adv-x="1091" d="M59 412q0 151 62.5 278t173.5 202t246 75q88 0 159 -40.5t107 -84.5l43 73q16 31 39 31h84q16 0 26.5 -13t6.5 -32l-117 -856q-1 -18 -16 -31.5t-31 -13.5h-84q-30 0 -37 41l-16 72q-136 -136 -285 -136q-161 0 -261 125t-100 310zM315 418q0 -85 41 -143t119 -58 q66 0 126 54.5t75 99.5l31 227q-7 45 -52.5 88t-113.5 43q-95 0 -160.5 -87.5t-65.5 -223.5zM360 1241q11 23 25.5 45.5t41.5 54.5t64 52t78 20q25 0 48.5 -11.5t40.5 -28.5l33.5 -33.5t34.5 -28t36 -11.5q22 0 36.5 17t28.5 47q9 19 27 25.5t35 -5.5l47 -36q28 -19 4 -68 q-9 -19 -24 -41.5t-39.5 -50.5t-60 -46t-73.5 -18q-32 0 -63.5 18t-51 39.5t-42 39.5t-39.5 18q-18 0 -35 -16t-23.5 -27.5t-19.5 -36.5q-6 -12 -21.5 -15t-27.5 7l-55 43q-20 20 -5 47z" />
<glyph unicode="&#xe4;" horiz-adv-x="1091" d="M59 412q0 151 62.5 278t173.5 202t246 75q88 0 159 -40.5t107 -84.5l43 73q16 31 39 31h84q16 0 26.5 -13t6.5 -32l-117 -856q-1 -18 -16 -31.5t-31 -13.5h-84q-30 0 -37 41l-16 72q-136 -136 -285 -136q-161 0 -261 125t-100 310zM315 418q0 -85 41 -143t119 -58 q66 0 126 54.5t75 99.5l31 227q-7 45 -52.5 88t-113.5 43q-95 0 -160.5 -87.5t-65.5 -223.5zM330 1260q6 62 51.5 104.5t99.5 42.5q58 0 92.5 -42t28.5 -105q-7 -62 -54 -106t-102 -44q-57 0 -90.5 43.5t-25.5 106.5zM717 1260q6 62 51 104.5t100 42.5q57 0 92 -42t29 -105 q-7 -62 -54 -106t-101 -44q-58 0 -91.5 43.5t-25.5 106.5z" />
<glyph unicode="&#xe5;" horiz-adv-x="1091" d="M59 412q0 151 62.5 278t173.5 202t246 75q88 0 159 -40.5t107 -84.5l43 73q16 31 39 31h84q16 0 26.5 -13t6.5 -32l-117 -856q-1 -18 -16 -31.5t-31 -13.5h-84q-30 0 -37 41l-16 72q-136 -136 -285 -136q-161 0 -261 125t-100 310zM315 418q0 -85 41 -143t119 -58 q66 0 126 54.5t75 99.5l31 227q-7 45 -52.5 88t-113.5 43q-95 0 -160.5 -87.5t-65.5 -223.5zM434 1245q0 109 71.5 185.5t174.5 76.5q77 0 128.5 -58t51.5 -142q0 -108 -72 -185.5t-172 -77.5q-79 0 -130.5 58.5t-51.5 142.5zM563 1264q0 -36 20.5 -63t49.5 -27 q37 0 67.5 35t30.5 79q0 36 -19.5 61t-49.5 25q-37 0 -68 -33.5t-31 -76.5z" />
<glyph unicode="&#xe6;" horiz-adv-x="1445" d="M27 250q0 152 106.5 250t276.5 98q36 0 73.5 -5t56.5 -10l19 -5q9 96 -9 133t-83 37q-82 0 -227 -37q-16 -2 -29.5 9t-13.5 28l-4 126q0 18 12.5 31.5t30.5 18.5q167 43 290 43q165 0 240 -117q48 54 137.5 85.5t181.5 31.5q137 0 225.5 -75.5t88.5 -186.5 q0 -70 -35.5 -126t-94 -92t-137.5 -60t-161 -34t-170 -10q-6 -76 34 -126t123 -50q39 0 87 20.5t81 44.5q41 25 58 0l80 -106q19 -34 -9 -62q-140 -127 -335 -127q-185 0 -291 154h-2q-16 -24 -40.5 -47t-64 -49t-99 -42t-128.5 -16q-119 0 -193.5 74.5t-74.5 198.5z M274 287q0 -47 31.5 -77t73.5 -30q47 0 79 21.5t48 60t23 74.5t10 82q-70 14 -119 14q-54 0 -100 -40.5t-46 -104.5zM825 557q137 0 228.5 32t91.5 87q0 30 -24 52t-74 22q-69 0 -135.5 -61.5t-86.5 -131.5z" />
<glyph unicode="&#xe7;" horiz-adv-x="925" d="M61 418q0 238 142.5 393.5t349.5 155.5q101 0 185.5 -46.5t135.5 -117.5q21 -29 -18 -68l-78 -80q-32 -32 -61 2q-23 27 -64 49.5t-94 22.5q-98 0 -169 -86.5t-71 -208.5q0 -86 47 -151.5t113 -65.5q28 0 53.5 8.5t50 27.5t34 28t29.5 31l5 5q12 13 28 16t32 -11l88 -89 q33 -33 10 -65q-128 -165 -309 -188l-82 -107q21 6 43 6q65 0 108 -40t43 -109q0 -104 -74.5 -169t-185.5 -65q-60 0 -109 14t-71 37q-17 20 6 58l25 41q12 22 28 27t31 -9q33 -33 82 -33q41 0 75 23.5t34 69.5q0 32 -22.5 48.5t-61.5 16.5q-17 0 -31.5 -4t-30 -10.5 t-18.5 -7.5q-17 -6 -28.5 8t-2.5 28l111 183q-140 29 -224 147t-84 285z" />
<glyph unicode="&#xe8;" horiz-adv-x="948" d="M57 397q0 108 37 210t103.5 182.5t168.5 129t222 48.5q137 0 225 -75.5t88 -186.5q0 -87 -52.5 -151.5t-141.5 -100t-190 -52.5t-214 -18q-5 -77 34.5 -126.5t121.5 -49.5q38 0 87.5 20.5t86.5 44.5q36 28 53 0l78 -104q22 -34 -6 -62q-65 -59 -151 -94t-177 -35 q-173 0 -273 121t-100 299zM328 557q137 0 228 32t91 87q0 30 -24 52t-74 22q-69 0 -135 -61.5t-86 -131.5zM477 1300l60 89q12 19 30.5 21.5t24.5 -5.5l280 -199q8 -5 11 -16t-4 -23l-41 -67q-19 -29 -50 -13l-307 158q-29 17 -4 55z" />
<glyph unicode="&#xe9;" horiz-adv-x="948" d="M57 397q0 108 37 210t103.5 182.5t168.5 129t222 48.5q137 0 225 -75.5t88 -186.5q0 -87 -52.5 -151.5t-141.5 -100t-190 -52.5t-214 -18q-5 -77 34.5 -126.5t121.5 -49.5q38 0 87.5 20.5t86.5 44.5q36 28 53 0l78 -104q22 -34 -6 -62q-65 -59 -151 -94t-177 -35 q-173 0 -273 121t-100 299zM328 557q137 0 228 32t91 87q0 30 -24 52t-74 22q-69 0 -135 -61.5t-86 -131.5zM440 1174q-9 25 17 38l336 199q35 23 49 -10l49 -107q8 -19 2 -33.5t-21 -21.5l-352 -158q-22 -8 -31.5 -5t-15.5 18z" />
<glyph unicode="&#xea;" horiz-adv-x="948" d="M57 397q0 108 37 210t103.5 182.5t168.5 129t222 48.5q137 0 225 -75.5t88 -186.5q0 -87 -52.5 -151.5t-141.5 -100t-190 -52.5t-214 -18q-5 -77 34.5 -126.5t121.5 -49.5q38 0 87.5 20.5t86.5 44.5q36 28 53 0l78 -104q22 -34 -6 -62q-65 -59 -151 -94t-177 -35 q-173 0 -273 121t-100 299zM328 557q137 0 228 32t91 87q0 30 -24 52t-74 22q-69 0 -135 -61.5t-86 -131.5zM360 1151q-18 26 11 47l274 207q23 17 43 0l217 -207q8 -7 10.5 -17.5t-4.5 -21.5l-59 -76q-19 -25 -41 -6l-160 127l-205 -127q-18 -9 -25 -7.5t-15 13.5z" />
<glyph unicode="&#xeb;" horiz-adv-x="948" d="M57 397q0 108 37 210t103.5 182.5t168.5 129t222 48.5q137 0 225 -75.5t88 -186.5q0 -87 -52.5 -151.5t-141.5 -100t-190 -52.5t-214 -18q-5 -77 34.5 -126.5t121.5 -49.5q38 0 87.5 20.5t86.5 44.5q36 28 53 0l78 -104q22 -34 -6 -62q-65 -59 -151 -94t-177 -35 q-173 0 -273 121t-100 299zM328 557q137 0 228 32t91 87q0 30 -24 52t-74 22q-69 0 -135 -61.5t-86 -131.5zM330 1260q6 62 51.5 104.5t99.5 42.5q58 0 92.5 -42t28.5 -105q-7 -62 -54 -106t-102 -44q-57 0 -90.5 43.5t-25.5 106.5zM717 1260q6 62 51 104.5t100 42.5 q57 0 92 -42t29 -105q-7 -62 -54 -106t-101 -44q-58 0 -91.5 43.5t-25.5 106.5z" />
<glyph unicode="&#xec;" horiz-adv-x="516" d="M53 45l121 856q3 19 17 32t30 13h176q16 0 28 -13t9 -32l-123 -856q-1 -18 -16 -31.5t-31 -13.5h-174q-15 0 -26.5 13.5t-10.5 31.5zM150 1300l59 89q12 19 30.5 21.5t24.5 -5.5l281 -199q8 -5 10.5 -16t-4.5 -23l-41 -67q-19 -29 -49 -13l-307 158q-29 17 -4 55z" />
<glyph unicode="&#xed;" horiz-adv-x="516" d="M53 45l121 856q3 19 17 32t30 13h176q16 0 28 -13t9 -32l-123 -856q-1 -18 -16 -31.5t-31 -13.5h-174q-15 0 -26.5 13.5t-10.5 31.5zM145 1174q-9 25 17 38l336 199q35 23 49 -10l49 -107q8 -19 2.5 -34t-20.5 -21l-353 -158q-22 -8 -31.5 -5t-15.5 18z" />
<glyph unicode="&#xee;" horiz-adv-x="516" d="M51 1151q-19 27 10 47l275 207q23 17 43 0l217 -207q8 -7 10.5 -17.5t-4.5 -21.5l-59 -76q-19 -25 -41 -6l-160 127l-205 -127q-26 -16 -41 6zM53 45l121 856q3 19 17 32t30 13h176q16 0 28 -13t9 -32l-123 -856q-1 -18 -16 -31.5t-31 -13.5h-174q-15 0 -26.5 13.5 t-10.5 31.5z" />
<glyph unicode="&#xef;" horiz-adv-x="516" d="M20 1260q6 61 52 104t100 43q58 0 92.5 -42t28.5 -105q-7 -62 -54 -106t-102 -44q-57 0 -91 43.5t-26 106.5zM53 45l121 856q3 19 17 32t30 13h176q16 0 28 -13t9 -32l-123 -856q-1 -18 -16 -31.5t-31 -13.5h-174q-15 0 -26.5 13.5t-10.5 31.5zM408 1260q6 62 51 104.5 t100 42.5q57 0 92 -42t29 -105q-7 -62 -54.5 -106t-101.5 -44q-58 0 -91 43t-25 107z" />
<glyph unicode="&#xf0;" horiz-adv-x="1054" d="M63 463q15 109 61 198t110 144t136.5 85t145.5 30q60 0 115 -19.5t82 -40.5q-18 151 -152 281l-176 -101q-14 -7 -27 -3t-18 16l-10 26q-6 13 -1 29t19 25l129 75q-64 44 -112 62q-49 18 -25 61l57 121q21 41 58 29q133 -55 239 -148l142 82q26 14 45 -16l14 -23 q7 -14 0.5 -30.5t-21.5 -24.5l-104 -59q248 -275 188 -701q-22 -162 -90 -291.5t-183 -209.5t-259 -80q-115 0 -205 64.5t-133 176.5t-25 242zM295 467q-14 -102 32 -175t132 -73q56 0 102 27.5t76.5 74t49 99t26.5 110.5q-4 32 -15.5 61.5t-32 58t-55.5 46t-80 17.5 q-88 0 -154.5 -71.5t-80.5 -174.5z" />
<glyph unicode="&#xf1;" horiz-adv-x="1054" d="M53 45l121 856q1 19 15 32t30 13h78q13 0 22.5 -7.5t10.5 -20.5l20 -89q1 1 18.5 17t24.5 22t27 22t34 24t37.5 20t45 18t49.5 10.5t57 4.5q76 0 133 -23.5t90 -65.5t52 -99t19 -124t-9 -141l-68 -469q-1 -18 -15 -31.5t-30 -13.5h-180q-17 0 -26 13t-7 32l74 483 q13 101 -7.5 151t-95.5 50q-34 0 -66 -13.5t-53 -32.5t-37 -38.5t-23 -32.5l-7 -14l-82 -553q-3 -26 -14 -35.5t-35 -9.5h-168q-17 0 -27.5 13t-7.5 32zM346 1241q11 23 25.5 45.5t41.5 54.5t64 52t78 20q25 0 48.5 -11.5t40.5 -28.5l33.5 -33.5t34.5 -28t36 -11.5 q22 0 36.5 17t28.5 47q9 19 26 25t35 -5l48 -36q28 -19 4 -68q-9 -19 -24 -41.5t-39.5 -50.5t-60 -46t-73.5 -18q-32 0 -63.5 18t-51.5 39.5t-42.5 39.5t-39.5 18q-24 0 -41 -20.5t-33 -52.5q-2 -5 -3 -7q-6 -12 -21.5 -15t-27.5 7l-56 43q-20 20 -4 47z" />
<glyph unicode="&#xf2;" horiz-adv-x="1036" d="M57 408q0 150 69 279t188 204.5t259 75.5q106 0 193 -58t135.5 -155.5t48.5 -212.5q0 -150 -71 -280.5t-190 -207t-255 -76.5q-107 0 -194.5 61t-135 159t-47.5 211zM305 434q0 -94 41.5 -155.5t122.5 -61.5q95 0 162 87.5t67 213.5q0 90 -41 150.5t-116 60.5 q-101 0 -168.5 -85.5t-67.5 -209.5zM426 1300l59 89q12 19 31 21.5t25 -5.5l280 -199q8 -5 10.5 -16t-4.5 -23l-41 -67q-19 -29 -49 -13l-307 158q-29 17 -4 55z" />
<glyph unicode="&#xf3;" horiz-adv-x="1036" d="M57 408q0 150 69 279t188 204.5t259 75.5q106 0 193 -58t135.5 -155.5t48.5 -212.5q0 -150 -71 -280.5t-190 -207t-255 -76.5q-107 0 -194.5 61t-135 159t-47.5 211zM305 434q0 -94 41.5 -155.5t122.5 -61.5q95 0 162 87.5t67 213.5q0 90 -41 150.5t-116 60.5 q-101 0 -168.5 -85.5t-67.5 -209.5zM395 1174q-9 25 17 38l336 199q35 23 49 -10l49 -107q8 -19 2 -33.5t-21 -21.5l-352 -158q-22 -8 -31.5 -5t-15.5 18z" />
<glyph unicode="&#xf4;" horiz-adv-x="1036" d="M57 408q0 150 69 279t188 204.5t259 75.5q106 0 193 -58t135.5 -155.5t48.5 -212.5q0 -150 -71 -280.5t-190 -207t-255 -76.5q-107 0 -194.5 61t-135 159t-47.5 211zM305 434q0 -94 41.5 -155.5t122.5 -61.5q95 0 162 87.5t67 213.5q0 90 -41 150.5t-116 60.5 q-101 0 -168.5 -85.5t-67.5 -209.5zM319 1151q-18 26 11 47l274 207q23 17 43 0l217 -207q8 -7 10.5 -17.5t-4.5 -21.5l-59 -76q-19 -25 -41 -6l-160 127l-204 -127q-26 -16 -41 6z" />
<glyph unicode="&#xf5;" horiz-adv-x="1036" d="M57 408q0 150 69 279t188 204.5t259 75.5q106 0 193 -58t135.5 -155.5t48.5 -212.5q0 -150 -71 -280.5t-190 -207t-255 -76.5q-107 0 -194.5 61t-135 159t-47.5 211zM305 434q0 -94 41.5 -155.5t122.5 -61.5q95 0 162 87.5t67 213.5q0 90 -41 150.5t-116 60.5 q-101 0 -168.5 -85.5t-67.5 -209.5zM322 1241q11 23 25.5 45.5t41 54.5t63.5 52t78 20q25 0 48.5 -11.5t40.5 -28.5l33.5 -33.5t34.5 -28t36 -11.5q22 0 36.5 17t28.5 47q9 19 27 25.5t35 -5.5l47 -36q28 -19 4 -68q-9 -19 -23.5 -41.5t-39.5 -50.5t-60 -46t-73 -18 q-32 0 -63.5 18t-51.5 39.5t-42.5 39.5t-39.5 18q-18 0 -35 -16t-23.5 -27.5t-19.5 -36.5q-6 -12 -21.5 -15t-27.5 7l-55 43q-20 20 -4 47z" />
<glyph unicode="&#xf6;" horiz-adv-x="1036" d="M57 408q0 150 69 279t188 204.5t259 75.5q106 0 193 -58t135.5 -155.5t48.5 -212.5q0 -150 -71 -280.5t-190 -207t-255 -76.5q-107 0 -194.5 61t-135 159t-47.5 211zM291 1260q6 62 51.5 104.5t99.5 42.5q58 0 92.5 -42t28.5 -105q-7 -62 -53.5 -106t-101.5 -44 q-57 0 -91 43.5t-26 106.5zM305 434q0 -94 41.5 -155.5t122.5 -61.5q95 0 162 87.5t67 213.5q0 90 -41 150.5t-116 60.5q-101 0 -168.5 -85.5t-67.5 -209.5zM678 1260q6 62 51 104.5t100 42.5q57 0 92 -42t29 -105q-7 -62 -54 -106t-101 -44q-58 0 -91.5 43.5t-25.5 106.5z " />
<glyph unicode="&#xf7;" d="M223 651l17 115q2 15 14 27t25 12h733q13 0 21.5 -12t6.5 -27l-16 -115q-2 -15 -14 -27t-25 -12h-733q-13 0 -22 12t-7 27zM438 309q0 65 45.5 111.5t106.5 46.5q51 0 84 -35t33 -86q0 -65 -47.5 -112.5t-108.5 -47.5q-49 0 -81 35.5t-32 87.5zM549 1090q0 64 46 110.5 t107 46.5q49 0 82 -36t33 -87q0 -64 -47 -111.5t-108 -47.5q-49 0 -81 36.5t-32 88.5z" />
<glyph unicode="&#xf8;" horiz-adv-x="1036" d="M37 86q2 19 16 33l62 59q-58 107 -58 230q0 150 69 279t188 204.5t259 75.5q146 0 252 -109l66 64q31 28 55 0l21 -23q22 -28 -9 -63l-67 -66q59 -105 59 -229q0 -150 -71 -280.5t-190 -207t-255 -76.5q-146 0 -254 111l-59 -57q-13 -11 -27.5 -10t-27.5 12l-21 22 q-10 12 -8 31zM305 434q0 -37 6 -67l332 317q-39 45 -102 45q-101 0 -168.5 -85.5t-67.5 -209.5zM360 262q42 -45 109 -45q95 0 162 87.5t67 213.5q0 35 -6 62z" />
<glyph unicode="&#xf9;" horiz-adv-x="1021" d="M84.5 232q-6.5 77 9.5 167l74 502q3 20 15.5 32.5t29.5 12.5h176q18 0 28 -12.5t7 -32.5l-74 -510q-13 -93 8 -133.5t82 -40.5q33 0 61.5 13.5t46 32.5t30.5 37.5t18 31.5l6 14l78 555q7 45 51 45h172q16 0 27 -13t8 -32l-119 -856q-1 -18 -16 -31.5t-31 -13.5h-78 q-29 0 -37 35l-16 80q-3 -3 -8 -9q-25 -28 -42 -44t-51 -39.5t-79 -34.5t-101 -11q-94 0 -155.5 32t-87.5 89t-32.5 134zM379 1300l59 89q12 19 31 21.5t25 -5.5l280 -199q8 -5 10.5 -16t-4.5 -23l-41 -67q-19 -29 -49 -13l-307 158q-29 17 -4 55z" />
<glyph unicode="&#xfa;" horiz-adv-x="1021" d="M84.5 232q-6.5 77 9.5 167l74 502q3 20 15.5 32.5t29.5 12.5h176q18 0 28 -12.5t7 -32.5l-74 -510q-13 -93 8 -133.5t82 -40.5q33 0 61.5 13.5t46 32.5t30.5 37.5t18 31.5l6 14l78 555q7 45 51 45h172q16 0 27 -13t8 -32l-119 -856q-1 -18 -16 -31.5t-31 -13.5h-78 q-29 0 -37 35l-16 80q-3 -3 -8 -9q-25 -28 -42 -44t-51 -39.5t-79 -34.5t-101 -11q-94 0 -155.5 32t-87.5 89t-32.5 134zM414 1174q-9 25 16 38l336 199q35 23 49 -10l49 -107q8 -19 2.5 -34t-20.5 -21l-352 -158q-36 -15 -48 13z" />
<glyph unicode="&#xfb;" horiz-adv-x="1021" d="M84.5 232q-6.5 77 9.5 167l74 502q3 20 15.5 32.5t29.5 12.5h176q18 0 28 -12.5t7 -32.5l-74 -510q-13 -93 8 -133.5t82 -40.5q33 0 61.5 13.5t46 32.5t30.5 37.5t18 31.5l6 14l78 555q7 45 51 45h172q16 0 27 -13t8 -32l-119 -856q-1 -18 -16 -31.5t-31 -13.5h-78 q-29 0 -37 35l-16 80q-3 -3 -8 -9q-25 -28 -42 -44t-51 -39.5t-79 -34.5t-101 -11q-94 0 -155.5 32t-87.5 89t-32.5 134zM317 1151q-18 26 11 47l274 207q23 17 43 0l217 -207q8 -7 10.5 -17.5t-4.5 -21.5l-59 -76q-19 -25 -41 -6l-160 127l-205 -127q-26 -16 -41 6z" />
<glyph unicode="&#xfc;" horiz-adv-x="1021" d="M84.5 232q-6.5 77 9.5 167l74 502q3 20 15.5 32.5t29.5 12.5h176q18 0 28 -12.5t7 -32.5l-74 -510q-13 -93 8 -133.5t82 -40.5q33 0 61.5 13.5t46 32.5t30.5 37.5t18 31.5l6 14l78 555q7 45 51 45h172q16 0 27 -13t8 -32l-119 -856q-1 -18 -16 -31.5t-31 -13.5h-78 q-29 0 -37 35l-16 80q-3 -3 -8 -9q-25 -28 -42 -44t-51 -39.5t-79 -34.5t-101 -11q-94 0 -155.5 32t-87.5 89t-32.5 134zM272 1260q6 61 52 104t100 43q58 0 92.5 -42t28.5 -105q-7 -62 -54 -106t-102 -44q-57 0 -91 43.5t-26 106.5zM659 1260q6 62 51.5 104.5t100.5 42.5 q57 0 92 -42t29 -105q-7 -62 -54.5 -106t-101.5 -44q-58 0 -91.5 43.5t-25.5 106.5z" />
<glyph unicode="&#xfd;" horiz-adv-x="966" d="M-1 -471.5q-6 15.5 7 41.5l264 498l-182 817q-5 26 3.5 43.5t33.5 17.5h182q10 0 22 -7.5t13 -18.5l92 -578h6l267 578q11 26 47 26h186q24 0 32 -19t-5 -42l-705 -1344q-14 -28 -41 -28h-194q-22 0 -28 15.5zM461 1174q-9 25 16 38l336 199q35 23 49 -10l49 -107 q8 -19 2.5 -34t-20.5 -21l-352 -158q-22 -8 -31.5 -5t-15.5 18z" />
<glyph unicode="&#xfe;" horiz-adv-x="1079" d="M-14 -442l256 1831q1 18 16 31.5t29 13.5h178q17 0 28 -13t9 -32l-68 -486q27 25 91.5 44.5t123.5 19.5q154 0 246 -125.5t92 -317.5q0 -237 -141.5 -392t-360.5 -155q-39 0 -95 18t-81 36l-65 -473q-1 -17 -15.5 -31t-29.5 -14h-181q-17 0 -26 13.5t-6 31.5zM348 285 q16 -27 59 -47.5t93 -20.5q94 0 163.5 81.5t69.5 213.5q0 87 -43.5 152t-120.5 65q-31 0 -60 -9.5t-48 -23.5t-34 -28t-21 -24l-7 -9z" />
<glyph unicode="&#xff;" horiz-adv-x="966" d="M-1 -471.5q-6 15.5 7 41.5l264 498l-182 817q-5 26 3.5 43.5t33.5 17.5h182q10 0 22 -7.5t13 -18.5l92 -578h6l267 578q11 26 47 26h186q24 0 32 -19t-5 -42l-705 -1344q-14 -28 -41 -28h-194q-22 0 -28 15.5zM268 1260q6 61 52 104t100 43q58 0 92.5 -42t28.5 -105 q-7 -62 -54 -106t-102 -44q-57 0 -91 43.5t-26 106.5zM655 1260q6 62 51.5 104.5t100.5 42.5q57 0 92 -42t29 -105q-7 -62 -54.5 -106t-101.5 -44q-58 0 -91.5 43.5t-25.5 106.5z" />
<glyph unicode="&#x152;" horiz-adv-x="1832" d="M106 614q0 171 61 326t164 268t247 179.5t303 66.5q43 0 88.5 -5t69.5 -10l24 -5h758q13 0 21.5 -12t6.5 -27l-24 -168q-2 -15 -13 -27t-26 -12h-526l-48 -336h437q13 0 21.5 -12t6.5 -27l-24 -170q-3 -17 -14 -28t-25 -11h-436l-52 -358h527q14 0 22 -11.5t6 -27.5 l-22 -168q-2 -15 -14 -27t-27 -12h-758q-102 -20 -186 -20q-152 0 -283 84.5t-208 230.5t-77 319zM379 649q0 -168 94.5 -287.5t237.5 -119.5q87 0 153 26l125 895q-73 29 -145 29q-117 0 -224.5 -74t-174 -200.5t-66.5 -268.5z" />
<glyph unicode="&#x153;" horiz-adv-x="1546" d="M57 414q0 145 66 271.5t185 204t263 77.5q80 0 152 -35t121 -94q62 60 152.5 94.5t187.5 34.5q141 0 228 -76.5t87 -188.5q0 -71 -38 -128t-98 -92t-140.5 -58t-159.5 -32t-162 -9q-5 -74 33.5 -125t122.5 -51q38 0 88 20.5t84 44.5q40 25 55 0l78 -104q10 -13 9 -31 t-15 -31q-63 -58 -150 -93.5t-176 -35.5q-172 0 -278 125q-143 -125 -318 -125q-163 0 -270 129.5t-107 307.5zM303 434q0 -94 41.5 -155.5t122.5 -61.5q95 0 162 87.5t67 213.5q0 90 -41 150.5t-116 60.5q-101 0 -168.5 -85.5t-67.5 -209.5zM926 557q137 0 228 32t91 87 q0 30 -24 52t-74 22q-69 0 -135 -61.5t-86 -131.5z" />
<glyph unicode="&#x178;" horiz-adv-x="1136" d="M125 1384q-9 20 2 35t33 15h192q16 0 24.5 -6.5t14.5 -22.5l213 -467h4l342 477q14 19 33 19h225q23 0 28 -17t-9 -37l-516 -688l-90 -653q-1 -15 -14 -27t-27 -12h-199q-14 0 -22.5 11.5t-6.5 27.5l92 651zM350 1718q6 62 51 105t99 43q58 0 92.5 -42.5t28.5 -105.5 q-7 -62 -54 -105.5t-102 -43.5q-57 0 -90 43t-25 106zM805 1718q6 62 51 105t100 43q57 0 91 -42.5t28 -105.5q-7 -62 -53 -105.5t-100 -43.5q-58 0 -91.5 43t-25.5 106z" />
<glyph unicode="&#x2c6;" horiz-adv-x="688" d="M109 1151q-19 27 10 47l274 207q23 17 43 0l217 -207q8 -7 10.5 -17.5t-4.5 -21.5l-59 -76q-19 -25 -41 -6l-160 127l-204 -127q-26 -16 -41 6z" />
<glyph unicode="&#x2dc;" horiz-adv-x="700" d="M113 1241q11 23 25.5 45.5t41.5 54.5t64 52t78 20q31 0 59.5 -17.5t46.5 -39t41 -39t45 -17.5q35 0 66 64q9 19 26 25t35 -5l47 -36q28 -19 4 -68q-9 -19 -23.5 -41.5t-39.5 -50.5t-60 -46t-73 -18q-32 0 -63.5 18t-51.5 39.5t-42.5 39.5t-39.5 18q-18 0 -35 -16 t-23.5 -27.5t-19.5 -36.5q-6 -12 -21.5 -15t-27.5 7l-55 43q-20 20 -4 47z" />
<glyph unicode="&#x2000;" horiz-adv-x="1003" />
<glyph unicode="&#x2001;" horiz-adv-x="2007" />
<glyph unicode="&#x2002;" horiz-adv-x="1003" />
<glyph unicode="&#x2003;" horiz-adv-x="2007" />
<glyph unicode="&#x2004;" horiz-adv-x="669" />
<glyph unicode="&#x2005;" horiz-adv-x="501" />
<glyph unicode="&#x2006;" horiz-adv-x="334" />
<glyph unicode="&#x2007;" horiz-adv-x="334" />
<glyph unicode="&#x2008;" horiz-adv-x="250" />
<glyph unicode="&#x2009;" horiz-adv-x="401" />
<glyph unicode="&#x200a;" horiz-adv-x="111" />
<glyph unicode="&#x2010;" horiz-adv-x="712" d="M92 430l19 137q1 17 13.5 28t27.5 11h417q15 0 23 -11t6 -28l-18 -137q-1 -15 -13.5 -26t-27.5 -11h-418q-15 0 -23 11t-6 26z" />
<glyph unicode="&#x2011;" horiz-adv-x="712" d="M92 430l19 137q1 17 13.5 28t27.5 11h417q15 0 23 -11t6 -28l-18 -137q-1 -15 -13.5 -26t-27.5 -11h-418q-15 0 -23 11t-6 26z" />
<glyph unicode="&#x2012;" horiz-adv-x="712" d="M92 430l19 137q1 17 13.5 28t27.5 11h417q15 0 23 -11t6 -28l-18 -137q-1 -15 -13.5 -26t-27.5 -11h-418q-15 0 -23 11t-6 26z" />
<glyph unicode="&#x2013;" horiz-adv-x="1040" d="M96 467l10 76q1 17 13.5 28t27.5 11h744q15 0 23 -11t6 -28l-11 -76q-1 -15 -13.5 -26t-27.5 -11h-741q-15 0 -24 11t-7 26z" />
<glyph unicode="&#x2014;" horiz-adv-x="1445" d="M96 467l10 76q1 17 13.5 28t27.5 11h1149q15 0 23 -11t6 -28l-10 -76q-1 -15 -13.5 -26t-27.5 -11h-1147q-15 0 -24 11t-7 26z" />
<glyph unicode="&#x2018;" horiz-adv-x="489" d="M141 983q0 125 54.5 245t152.5 212q22 22 43 2l53 -41q18 -15 -10 -47q-134 -146 -139 -289q33 20 74 20q52 0 80 -31.5t28 -82.5q0 -72 -52.5 -125t-129.5 -53q-68 0 -111 49.5t-43 140.5z" />
<glyph unicode="&#x2019;" horiz-adv-x="483" d="M160 1276q0 72 52.5 125t129.5 53q68 0 111 -49.5t43 -140.5q0 -125 -54.5 -245t-152.5 -212q-23 -23 -43 -2l-53 41q-18 15 10 47q134 146 139 289q-35 -21 -74 -21q-52 0 -80 31.5t-28 83.5z" />
<glyph unicode="&#x201a;" horiz-adv-x="505" d="M20 139q0 72 53 125t130 53q68 0 110.5 -49.5t42.5 -140.5q0 -125 -54 -245t-152 -212q-23 -23 -44 -2l-53 41q-18 15 10 47q135 147 140 289q-33 -20 -74 -20q-52 0 -80.5 31.5t-28.5 82.5z" />
<glyph unicode="&#x201c;" horiz-adv-x="907" d="M141 983q0 125 54.5 245t152.5 212q22 22 43 2l53 -41q18 -15 -10 -47q-134 -146 -139 -289q33 20 74 20q52 0 80 -31.5t28 -82.5q0 -72 -52.5 -125t-129.5 -53q-68 0 -111 49.5t-43 140.5zM559 983q0 125 54.5 245t152.5 212q22 22 43 2l53 -41q18 -15 -10 -47 q-134 -146 -139 -289q33 20 73 20q52 0 80.5 -31.5t28.5 -82.5q0 -72 -52.5 -125t-129.5 -53q-68 0 -111 49.5t-43 140.5z" />
<glyph unicode="&#x201d;" horiz-adv-x="901" d="M160 1276q0 72 52.5 125t129.5 53q68 0 111 -49.5t43 -140.5q0 -125 -54.5 -245t-152.5 -212q-23 -23 -43 -2l-53 41q-18 15 10 47q134 146 139 289q-35 -21 -74 -21q-52 0 -80 31.5t-28 83.5zM578 1276q0 72 52.5 125t129.5 53q68 0 110.5 -49.5t42.5 -140.5 q0 -125 -54 -245t-152 -212q-23 -23 -43 -2l-54 41q-17 15 11 47q134 146 139 289q-35 -21 -74 -21q-52 0 -80 31.5t-28 83.5z" />
<glyph unicode="&#x201e;" horiz-adv-x="921" d="M20 139q0 72 53 125t130 53q68 0 110.5 -49.5t42.5 -140.5q0 -125 -54 -245t-152 -212q-23 -23 -44 -2l-53 41q-18 15 10 47q135 147 140 289q-33 -20 -74 -20q-52 0 -80.5 31.5t-28.5 82.5zM436 139q0 72 52.5 125t129.5 53q68 0 111 -49.5t43 -140.5q0 -125 -54.5 -245 t-152.5 -212q-23 -22 -43 -2l-53 41q-18 15 10 47q134 146 139 289q-33 -20 -73 -20q-52 0 -80.5 31.5t-28.5 82.5z" />
<glyph unicode="&#x2022;" horiz-adv-x="763" d="M117 489q0 121 89.5 212.5t201.5 91.5q95 0 158 -70t63 -170q0 -120 -90 -208.5t-207 -88.5q-91 0 -153 68.5t-62 164.5z" />
<glyph unicode="&#x2026;" horiz-adv-x="1259" d="M18 109q0 68 48.5 116.5t113.5 48.5q52 0 86.5 -37.5t34.5 -91.5q0 -67 -49.5 -116t-114.5 -49q-52 0 -85.5 37.5t-33.5 91.5zM430 109q0 68 49 116.5t113 48.5q53 0 88 -37t35 -92q0 -67 -50 -116t-114 -49q-53 0 -87 37.5t-34 91.5zM831 109q0 68 49.5 116.5 t114.5 48.5q52 0 86.5 -37.5t34.5 -91.5q0 -67 -49.5 -116t-114.5 -49q-52 0 -86.5 38t-34.5 91z" />
<glyph unicode="&#x202f;" horiz-adv-x="401" />
<glyph unicode="&#x2039;" horiz-adv-x="567" d="M66 459q-13 26 6 49l233 303q20 25 43 25h131q24 0 29.5 -19.5t-8.5 -44.5l-164 -305l65 -281q6 -26 -3.5 -43.5t-32.5 -17.5h-127q-17 0 -25 16z" />
<glyph unicode="&#x203a;" horiz-adv-x="567" d="M30 144q-5 19 9 44l164 306l-66 280q-6 25 4 43.5t33 18.5h127q17 0 25 -17l147 -317q13 -26 -6 -49l-234 -303q-20 -25 -43 -25h-131q-24 0 -29 19z" />
<glyph unicode="&#x205f;" horiz-adv-x="501" />
<glyph unicode="&#x20ac;" d="M68 551l4 27q3 15 15.5 26.5t27.5 11.5h78q0 63 14 140h-74q-15 0 -24 12t-7 27l4 28q1 15 15 27t29 12h79q32 125 89 231t135.5 187.5t183.5 127.5t225 46q236 0 389 -170q10 -12 9 -29.5t-13 -31.5l-114 -136q-12 -13 -28.5 -12.5t-27.5 12.5q-92 111 -225 111 q-106 0 -196.5 -92t-133.5 -244h406q17 0 26 -11.5t7 -27.5l-5 -30q-2 -15 -15 -26t-30 -11h-415q-15 -92 -15 -140h330q17 0 26 -11t7 -27l-4 -29q-2 -15 -14 -26t-29 -11h-312q11 -122 70 -193t164 -71q22 0 41.5 2.5t39.5 10.5t31.5 12t33 18.5t26.5 18t28.5 21.5 t24.5 19q14 10 28.5 8.5t20.5 -12.5l92 -153q7 -14 3.5 -29.5t-15.5 -26.5q-101 -87 -191 -123.5t-194 -36.5q-223 0 -354.5 147t-140.5 388h-93q-15 0 -25 12t-7 27z" />
<glyph unicode="&#x2122;" horiz-adv-x="1458" d="M238 1321l10 74q1 15 14 27t27 12h383q15 0 23.5 -11.5t6.5 -27.5l-10 -74q-3 -17 -14.5 -28t-26.5 -11h-114l-64 -455q-1 -15 -14 -27t-27 -12h-86q-15 0 -23.5 12t-5.5 27l64 455h-115q-14 0 -22.5 11t-5.5 28zM686 836l176 577q8 31 41 31h6q21 0 29 -23l111 -379 l221 379q14 23 35 23h6q12 0 21 -9.5t9 -21.5l17 -579q0 -19 -12 -32.5t-29 -13.5h-82q-12 0 -20.5 10.5t-8.5 24.5v256l-151 -278q-11 -19 -33 -19h-10q-23 0 -29 21l-76 276l-71 -258q-3 -13 -15 -23t-26 -10h-80q-18 0 -26.5 14.5t-2.5 33.5z" />
<glyph unicode="&#x25fc;" horiz-adv-x="942" d="M0 0v942h942v-942h-942z" />
<glyph unicode="&#xfb03;" horiz-adv-x="1789" d="M61 -440l164 1157h-100q-18 0 -28.5 13.5t-8.5 31.5l18 139q3 20 16.5 32.5t29.5 12.5h102l4 27q26 210 142.5 335.5t308.5 125.5q161 0 292 -109q69 69 138.5 99t173.5 30q97 0 182 -33.5t139 -72.5q11 -8 12.5 -26.5t-8.5 -33.5l-75 -108q-17 -25 -30 -30t-32 7 q-93 60 -194 60q-157 0 -185 -226l-6 -45h561q15 0 24.5 -12.5t6.5 -32.5l-119 -856q-3 -19 -16.5 -32t-28.5 -13h-180q-18 0 -28 13t-7 32l96 672h-340l-159 -1157q-3 -27 -16.5 -37t-39.5 -10h-176q-15 0 -26.5 14.5t-8.5 32.5l164 1157h-340l-161 -1157 q-1 -18 -16.5 -32.5t-31.5 -14.5h-178q-17 0 -27.5 14t-7.5 33zM518 946h338l4 35q7 68 27 129q-24 36 -72 65t-115 29q-44 0 -76 -16t-52 -48t-31.5 -70t-18.5 -91z" />
<glyph unicode="&#xfb04;" horiz-adv-x="1851" d="M61 -440l164 1157h-100q-18 0 -28.5 13.5t-8.5 31.5l18 139q3 20 16.5 32.5t29.5 12.5h102l4 27q26 210 142.5 335.5t308.5 125.5q157 0 288 -109h4q67 67 145.5 98t184.5 31q53 0 104 -13.5t87 -32t64 -37.5t42 -33l14 -13l37 66q24 43 58 43h63q14 0 25 -13.5t8 -31.5 l-188 -1344q-3 -18 -17 -31.5t-29 -13.5h-182q-17 0 -27.5 13t-7.5 32l146 1073q-15 27 -66 63t-121 36q-87 0 -146 -58.5t-73 -177.5l-4 -35h174q18 0 28 -12.5t7 -32.5l-20 -141q-3 -18 -16.5 -30.5t-30.5 -12.5h-175l-159 -1157q-3 -19 -16.5 -33t-30.5 -14h-183 q-15 0 -26 14.5t-8 32.5l163 1157h-342l-161 -1157q-1 -18 -16.5 -32.5t-31.5 -14.5h-178q-17 0 -27.5 14t-7.5 33zM518 946h338l4 35q6 59 29 129q-24 36 -73 65t-116 29q-44 0 -76 -16t-52 -48t-31.5 -70t-18.5 -91z" />
</font>
</defs>
</svg>
