<?xml version="1.0" standalone="no"?>
<!DOCTYPE svg PUBLIC "-//W3C//DTD SVG 1.1//EN" "http://www.w3.org/Graphics/SVG/1.1/DTD/svg11.dtd" >
<svg xmlns="http://www.w3.org/2000/svg">
<metadata></metadata>
<defs>
<font id="brandon_textmedium_italic" horiz-adv-x="1228" >
<font-face units-per-em="2048" ascent="1434" descent="-614" />
<missing-glyph horiz-adv-x="491" />
<glyph unicode="&#xfb01;" horiz-adv-x="1161" d="M80 -440l168 1202h-131q-18 0 -27.5 13.5t-7.5 31.5l14 94q3 20 16 32.5t29 12.5h135l13 84q62 424 418 424q93 0 175 -32.5t130 -67.5q12 -10 12.5 -28.5t-8.5 -33.5l-51 -84q-13 -20 -27.5 -22t-30.5 10q-113 68 -219 68q-167 0 -201 -244l-10 -74h557q15 0 25 -14 t6 -31l-119 -856q-1 -18 -14.5 -31.5t-28.5 -13.5h-125q-15 0 -25.5 13.5t-7.5 31.5l99 717h-393l-166 -1202q-5 -47 -56 -47h-116q-17 0 -26.5 14t-6.5 33z" />
<glyph unicode="&#xfb02;" horiz-adv-x="1214" d="M82 -440l168 1202h-133q-17 0 -26.5 14t-6.5 33l10 92q3 20 16.5 32.5t30.5 12.5h135l19 121q28 185 132.5 286t279.5 101q52 0 101.5 -12.5t84 -31t62 -36.5t40.5 -30l13 -13l30 64q20 39 56 39h47q16 0 27 -13.5t8 -31.5l-187 -1344q-3 -19 -16.5 -32t-30.5 -13h-129 q-17 0 -26.5 13t-6.5 32l156 1090q-8 14 -23.5 31.5t-43 41.5t-69.5 40t-89 16q-95 0 -149 -55t-68 -154l-17 -109h209q19 0 29 -12.5t8 -32.5l-16 -92q-2 -19 -14.5 -33t-30.5 -14h-209l-164 -1202q-3 -19 -16.5 -33t-30.5 -14h-127q-17 0 -26.5 14t-6.5 33z" />
<glyph horiz-adv-x="0" />
<glyph horiz-adv-x="0" />
<glyph horiz-adv-x="682" />
<glyph unicode="&#xd;" horiz-adv-x="0" />
<glyph unicode=" "  horiz-adv-x="491" />
<glyph unicode="&#x09;" horiz-adv-x="491" />
<glyph unicode="&#xa0;" horiz-adv-x="491" />
<glyph unicode="!" horiz-adv-x="532" d="M59 104q0 65 49.5 112.5t110.5 47.5q52 0 86.5 -36t34.5 -89q0 -65 -49 -112t-113 -47q-50 0 -84.5 36t-34.5 88zM207 590l20 571l33 234q2 15 14 27t25 12h172q13 0 23 -12t8 -27l-33 -230l-143 -575q-3 -12 -15 -22.5t-24 -10.5h-49q-12 0 -21.5 10.5t-9.5 22.5z" />
<glyph unicode="&#x22;" horiz-adv-x="694" d="M180 1065l47 330q1 15 13 27t26 12h125q18 0 25.5 -15t-0.5 -37l-113 -325q-12 -31 -37 -31h-57q-13 0 -22 12t-7 27zM485 1065l45 330q3 15 15.5 27t25.5 12h123q19 0 27.5 -15t-0.5 -37l-113 -325q-12 -31 -39 -31h-55q-14 0 -23 12t-6 27z" />
<glyph unicode="#" horiz-adv-x="1064" d="M78 430l2 19q1 16 14 27t27 11h143l92 347h-133q-13 0 -21.5 11.5t-6.5 26.5l2 19q1 15 14 27t27 12h143l125 471q3 12 14 22.5t23 10.5h24q15 0 23 -13t4 -32l-119 -459h287l121 471q3 12 16 22.5t25 10.5h18q17 0 25.5 -13t3.5 -32l-119 -459h121q14 0 22 -11.5 t6 -27.5l-2 -19q-2 -15 -12.5 -26.5t-25.5 -11.5h-134l-92 -347h123q14 0 21 -10.5t6 -27.5l-2 -19q-1 -15 -13 -27t-26 -12h-137l-95 -358q-3 -13 -15 -23t-26 -10h-20q-17 0 -25.5 13t-3.5 32l94 346h-290l-95 -358q-3 -13 -14.5 -23t-23.5 -10h-19q-18 0 -26 13t-3 32 l93 346h-129q-15 0 -24 12t-7 27zM356 487h289l88 347h-287z" />
<glyph unicode="$" d="M144 178q2 13 14 29l61 76q13 18 33 20t33 -12q102 -95 223 -127l70 463q-56 30 -94 53.5t-83 61t-71.5 76.5t-45 95t-18.5 121q0 169 117.5 284t308.5 134l10 66q1 17 13 27.5t26 10.5h21q14 0 24 -11t7 -27l-9 -68q159 -14 291 -117q12 -9 14.5 -28t-12.5 -41l-67 -80 q-13 -15 -30.5 -17t-29.5 9q-85 68 -192 90l-66 -451q55 -33 92.5 -58.5t84 -66.5t74.5 -80t47.5 -94t19.5 -115q0 -182 -118 -299t-319 -120l-30 -213q-6 -37 -43 -37h-19q-13 0 -21 10t-7 27l30 213q-192 16 -325 159q-9 10 -12.5 17t-1.5 20zM475 1061q0 -124 131 -205 l58 410q-87 -11 -138 -72.5t-51 -132.5zM600 166q83 3 137 63.5t54 147.5q0 118 -132 209z" />
<glyph unicode="%" horiz-adv-x="1280" d="M165.5 17.5q-7.5 17.5 4.5 37.5l823 1358q14 21 33 21h84q20 0 27.5 -18t-4.5 -38l-828 -1358q-3 -7 -13 -13.5t-20 -6.5h-79q-20 0 -27.5 17.5zM172 1141q0 130 84 221.5t205 91.5q89 0 152 -70t63 -170q0 -130 -84.5 -221.5t-204.5 -91.5q-89 0 -152 70t-63 170z M322 1157q0 -47 23.5 -78.5t60.5 -31.5q48 0 84 44t36 105q0 44 -23.5 76.5t-60.5 32.5q-48 0 -84 -44t-36 -104zM641 219q0 130 84 221.5t205 91.5q89 0 152 -69.5t63 -169.5q0 -130 -84.5 -221.5t-204.5 -91.5q-89 0 -152 69.5t-63 169.5zM791 236q0 -47 23 -79t60 -32 q48 0 84.5 44t36.5 105q0 44 -23.5 76.5t-60.5 32.5q-48 0 -84 -43.5t-36 -103.5z" />
<glyph unicode="&#x26;" horiz-adv-x="1280" d="M98 311q0 67 20.5 129t47.5 104t69.5 84.5t70.5 63.5t67.5 47.5t44.5 30.5v4l-35 51q-92 130 -92 244q0 159 110.5 272t266.5 113q141 0 228 -84t87 -205q0 -40 -11 -80t-28 -72.5t-43 -66t-49.5 -57.5t-55.5 -51t-51.5 -41.5t-47.5 -34.5l-35 -25l204 -284q38 57 72 142 t49 163q6 32 21 43t41 6l92 -19q33 -6 20 -63q-24 -107 -77.5 -219.5t-104.5 -183.5l151 -197q11 -16 15.5 -26t-0.5 -25t-25 -29l-67 -45q-21 -16 -39.5 -15.5t-34.5 23.5l-117 164q-30 -35 -67.5 -66t-90 -61t-122.5 -47.5t-148 -17.5q-152 0 -244 96t-92 235zM297 342 q0 -83 48 -135.5t124 -52.5q93 0 167.5 44t119.5 105l-246 352q-3 -3 -33.5 -25t-47 -35.5t-45.5 -44t-45 -57.5t-29 -67.5t-13 -83.5zM475 1079q0 -83 64 -172l32 -45q2 1 28.5 20t41 30.5t42.5 34.5t45 43.5t36 46t28 52.5t9 54q0 62 -39 107.5t-105 45.5 q-80 0 -131 -66.5t-51 -150.5z" />
<glyph unicode="'" horiz-adv-x="389" d="M180 1065l47 330q1 15 13 27t26 12h125q18 0 25.5 -15t-0.5 -37l-113 -325q-12 -31 -37 -31h-57q-13 0 -22 12t-7 27z" />
<glyph unicode="(" horiz-adv-x="663" d="M100 424q0 164 18.5 303.5t50.5 242.5t77 185t95.5 135.5t109.5 90t116 53.5t117 20q15 2 23.5 -6t7.5 -21l-8 -96q-3 -33 -27 -37q-71 -17 -129 -57.5t-97 -94t-68 -126t-45.5 -142t-26 -154.5t-12.5 -152.5t-3 -145.5q0 -366 199 -428q9 -3 14 -13.5t2 -23.5l-18 -90 q-7 -30 -39 -27q-49 2 -98 24t-96 68t-83 112t-58 164t-22 216z" />
<glyph unicode=")" horiz-adv-x="663" d="M-33 -127l6 90q4 28 27 35q80 20 143 67t103.5 115.5t68.5 145.5t42.5 172t20 180t5.5 182q0 177 -50 292.5t-151 143.5q-9 2 -14 12t-2 25l20 94q7 30 37 27q51 -4 99 -23.5t95.5 -63.5t83 -108.5t57.5 -165.5t22 -227q0 -227 -34.5 -407t-90.5 -294t-133.5 -188.5 t-157.5 -105t-168 -31.5q-32 0 -29 33z" />
<glyph unicode="*" horiz-adv-x="813" d="M188.5 995.5q1.5 15.5 14.5 22.5l174 100l-135 101q-11 8 -11.5 25t9.5 28l34 39q10 11 23.5 14.5t24.5 -4.5l118 -100l21 174q4 39 39 39h49q14 0 23 -12t6 -27l-29 -174l147 104q10 8 24.5 4t20.5 -16l21 -39q17 -31 -12 -51l-168 -105l135 -102q12 -9 12.5 -26 t-8.5 -27l-35 -39q-11 -13 -25 -17t-24 4l-117 103l-20 -172q-1 -15 -14 -27t-27 -12h-47q-17 0 -24.5 11.5t-4.5 27.5l27 174l-146 -101q-12 -9 -25.5 -5t-19.5 16l-24 41q-8 13 -6.5 28.5z" />
<glyph unicode="+" d="M231 666l11 86q1 18 13.5 28.5t27.5 10.5h274l43 317q1 15 14 26t27 11h102q14 0 23 -11t8 -26l-45 -317h275q13 0 21.5 -12t6.5 -27l-12 -86q-1 -17 -13 -28t-26 -11h-274l-45 -314q-1 -15 -13 -26t-26 -11h-105q-13 0 -22 11t-7 26l43 314h-272q-14 0 -23 12t-6 27z " />
<glyph unicode="," horiz-adv-x="516" d="M31 119q0 67 50 117.5t124 50.5q68 0 109.5 -52t41.5 -141q0 -126 -56 -245.5t-157 -217.5q-26 -23 -45 -4l-43 41q-20 17 6 43q150 159 150 291q0 17 -2 27q-30 -23 -74 -23q-50 0 -77 31.5t-27 81.5z" />
<glyph unicode="-" horiz-adv-x="731" d="M111 459l12 88q3 17 14.5 28t26.5 11h403q15 0 24.5 -11t6.5 -28l-12 -88q-1 -15 -13.5 -26t-27.5 -11h-404q-15 0 -23.5 11t-6.5 26z" />
<glyph unicode="." horiz-adv-x="501" d="M31 121q0 74 54.5 129t125.5 55q61 0 100 -41t39 -102q0 -76 -55.5 -131.5t-130.5 -55.5q-58 0 -95.5 42.5t-37.5 103.5z" />
<glyph unicode="/" horiz-adv-x="768" d="M40.5 14.5q-8.5 14.5 0.5 36.5l553 1356q12 27 37 27h106q19 0 27.5 -15t-0.5 -37l-551 -1355q-12 -27 -37 -27h-108q-19 0 -27.5 14.5z" />
<glyph unicode="0" horiz-adv-x="1239" d="M150 539q0 277 68.5 482.5t203.5 319t323 113.5q121 0 208.5 -71.5t131 -195.5t43.5 -286q0 -276 -70 -483.5t-204 -322.5t-317 -115q-124 0 -212.5 74t-131.5 198.5t-43 286.5zM356 545q0 -172 55.5 -272.5t151.5 -100.5q106 0 187.5 92.5t125.5 256t44 372.5 q0 170 -54 268.5t-149 98.5q-108 0 -190.5 -91t-126.5 -253t-44 -371z" />
<glyph unicode="1" horiz-adv-x="714" d="M139 1116q-4 30 23 51l291 240q30 27 71 27h70q15 0 24 -12t7 -27l-193 -1354q-1 -17 -13.5 -29t-27.5 -12h-135q-15 0 -24 12t-7 29l152 1069l-178 -96q-35 -14 -43 28z" />
<glyph unicode="2" horiz-adv-x="1052" d="M25 41l2 20q1 14 2.5 20.5t8.5 18t21 27.5l551 604q170 185 170 332q0 80 -46.5 138.5t-141.5 58.5q-124 0 -246 -146q-13 -13 -29.5 -12t-27.5 12l-68 76q-27 30 -2 59q24 29 58 59t85.5 65.5t119 58t136.5 22.5q170 0 269.5 -104t99.5 -252q0 -135 -51.5 -237 t-165.5 -230l-397 -445v-4h446q15 0 24 -12.5t7 -28.5l-12 -100q-1 -17 -15 -29t-28 -12h-740q-34 0 -30 41z" />
<glyph unicode="3" horiz-adv-x="1071" d="M48 193q3 15 15 24l87 70q27 24 53 -6q29 -32 53 -53t75.5 -43.5t108.5 -22.5q103 0 177.5 67.5t74.5 186.5q0 90 -65.5 153.5t-186.5 63.5h-106q-35 0 -29 45l12 90q6 45 43 45h107q135 0 212 75t77 187q0 88 -48.5 136.5t-123.5 48.5q-47 0 -93.5 -21t-70.5 -41 t-62 -57q-12 -12 -27 -13t-26 11l-67 80q-26 33 2 61q24 24 40 39t55 43.5t75.5 46t90.5 31.5t111 14q155 0 259 -93t104 -243q0 -93 -38 -172t-90.5 -126.5t-119.5 -82.5v-6q68 -33 126 -117.5t58 -191.5q0 -188 -132 -315t-345 -127q-77 0 -146 21t-116 53t-76 60t-45 52 q-6 12 -3 27z" />
<glyph unicode="4" horiz-adv-x="1202" d="M37 354l10 86q6 42 33 72l784 905q21 24 32.5 30.5t37.5 6.5h65q14 0 23 -12t6 -29l-131 -924h156q15 0 23 -10.5t5 -27.5l-12 -99q-2 -15 -14 -27t-27 -12h-154l-36 -272q-3 -17 -15 -29t-26 -12h-133q-14 0 -23 12t-6 29l37 272h-604q-17 0 -25.5 12.5t-5.5 28.5z M287 489h418l83 584h-4l-497 -579v-5z" />
<glyph unicode="5" horiz-adv-x="1085" d="M77 193q3 15 13 24l86 70q30 24 53 -6q87 -115 240 -115q85 0 152 49.5t101 126t34 162.5q0 98 -55 161.5t-160 63.5h-283q-31 0 -44.5 23t-10.5 51l84 592q2 15 13 27t26 12h594q15 0 23.5 -11.5t6.5 -27.5l-14 -105q-2 -16 -14 -27.5t-29 -11.5h-438l-45 -336h178 q173 0 276 -109.5t103 -293.5q0 -145 -62.5 -266t-179 -193.5t-264.5 -72.5q-83 0 -153 20.5t-115 53.5t-71 59.5t-42 52.5q-6 12 -3 27z" />
<glyph unicode="6" horiz-adv-x="1120" d="M119 453q0 137 31.5 261.5t82 218t120.5 175.5t140.5 139t148 103.5t137.5 72.5t114 43q38 11 47 -24l25 -94q10 -40 -39 -58q-42 -18 -81 -36.5t-111.5 -60.5t-129.5 -86t-114.5 -109.5t-86.5 -133.5q117 56 234 56q156 0 260 -105t104 -291q0 -232 -138 -388t-347 -156 q-118 0 -210 65t-139.5 172t-47.5 236zM314 478.5q-2 -59.5 13 -116.5t39 -102t66 -72.5t94 -27.5q122 0 200.5 96.5t78.5 232.5q0 112 -56.5 184t-152.5 72q-53 0 -101 -17t-82 -44.5t-53.5 -48.5t-33.5 -41q-10 -56 -12 -115.5z" />
<glyph unicode="7" horiz-adv-x="987" d="M76 31q0 29 14 51l678 1163v4h-553q-15 0 -24 12t-7 27l15 107q3 15 16 27t27 12h780q14 0 23.5 -9t9.5 -24q0 -23 -3.5 -34.5t-17.5 -37.5l-743 -1290q-19 -39 -55 -39h-127q-15 0 -24 9t-9 22z" />
<glyph unicode="8" horiz-adv-x="1159" d="M102 332q0 78 30 149.5t76.5 121.5t92 83.5t86.5 50.5v8q-59 37 -106.5 113t-47.5 172q0 186 131.5 305t331.5 119q156 0 260.5 -93t104.5 -241q0 -70 -24.5 -134t-63.5 -111t-78.5 -79.5t-79.5 -52.5l-2 -10q184 -122 184 -309q0 -92 -34 -172.5t-97 -141t-158.5 -95.5 t-211.5 -35q-170 0 -282 101t-112 251zM324 348q0 -87 56.5 -141.5t135.5 -54.5q106 0 184 71.5t78 184.5q0 78 -51.5 143.5t-140.5 81.5q-115 -20 -188.5 -103.5t-73.5 -181.5zM442 1042q0 -171 170 -206q107 23 171.5 93.5t64.5 164.5q0 81 -49 130.5t-127 49.5 q-89 0 -159.5 -67.5t-70.5 -164.5z" />
<glyph unicode="9" horiz-adv-x="1120" d="M160 920q0 148 62 270t173.5 193t249.5 71q178 0 286.5 -136t108.5 -335q0 -137 -31.5 -261t-82 -217.5t-120 -175.5t-140 -139t-148 -103.5t-137.5 -72.5t-115 -43q-35 -14 -45 25l-26 92q-5 21 4 35t37 24q42 18 81 36.5t111 60.5t128.5 85.5t113.5 108.5t86 133 q-18 -9 -46 -20t-82 -23t-104 -12q-154 0 -259 110t-105 294zM356 948q0 -121 55.5 -188.5t153.5 -67.5q53 0 101.5 17.5t82 44.5t53 48t32.5 40q13 56 13.5 116t-13 116t-39 100.5t-67 71t-93.5 26.5q-122 0 -200.5 -95t-78.5 -229z" />
<glyph unicode=":" horiz-adv-x="536" d="M59 111q0 70 50 121t116 51q54 0 88.5 -39.5t34.5 -96.5q0 -70 -50 -121t-116 -51q-53 0 -88 40.5t-35 95.5zM156 795q0 70 50.5 121t117.5 51q53 0 87.5 -39t34.5 -97q0 -70 -49.5 -121t-115.5 -51q-54 0 -89.5 40t-35.5 96z" />
<glyph unicode=";" horiz-adv-x="550" d="M57 106q0 62 47 111t117 49q67 0 107.5 -49.5t40.5 -134.5q0 -119 -55 -234t-148 -204q-25 -22 -43 -4l-41 36q-20 17 6 43q141 150 141 277q0 12 -4 24q-23 -20 -67 -20q-49 0 -75 29.5t-26 76.5zM158 795q0 70 50.5 121t117.5 51q53 0 86.5 -39t33.5 -97 q0 -70 -48.5 -121t-114.5 -51q-54 0 -89.5 40t-35.5 96z" />
<glyph unicode="&#x3c;" d="M217 465l2 12q3 21 23 33l700 436q17 11 31.5 2t11.5 -30l-16 -121q-3 -25 -23 -37l-467 -295v-2l385 -283q20 -15 15 -39l-17 -104q-3 -24 -19.5 -33t-31.5 4l-580 422q-17 10 -14 35z" />
<glyph unicode="=" d="M246 311l14 90q3 16 14 27.5t25 11.5h586q15 0 24 -12t6 -27l-14 -90q-3 -16 -14 -27.5t-25 -11.5h-586q-15 0 -24 12t-6 27zM307 741l15 90q3 16 13.5 27.5t24.5 11.5h586q15 0 24.5 -12t6.5 -27l-14 -90q-3 -16 -14 -27.5t-25 -11.5h-586q-15 0 -24.5 12t-6.5 27z" />
<glyph unicode="&#x3e;" d="M213 35l12 127q3 23 23 35l461 284v4l-379 291q-16 12 -13 31l17 111q3 24 18.5 32t32.5 -4l578 -436q19 -14 14 -33l-4 -18q-3 -17 -21 -29l-698 -420q-19 -11 -31.5 -3.5t-9.5 28.5z" />
<glyph unicode="?" horiz-adv-x="921" d="M179 1226.5q0 15.5 11 28.5q15 17 23 26.5t50 47t81.5 60.5t104.5 44t131 21q129 0 216 -86.5t87 -206.5q0 -52 -15 -99t-34 -78.5t-55 -66t-59.5 -52t-64.5 -46.5q-59 -39 -88 -71.5t-35 -73.5l-10 -76q-6 -41 -43 -41h-123q-14 0 -21.5 11t-6.5 28l10 86q6 48 25.5 88 t53 75t61.5 57.5t75 55.5q66 46 98.5 87t32.5 100q0 55 -38 91t-91 36q-69 0 -134.5 -44t-109.5 -95q-11 -13 -24.5 -12t-24.5 12l-69 65q-14 13 -14 28.5zM217 104q0 65 48 112.5t110 47.5q53 0 87 -36t34 -89q0 -65 -48 -112t-112 -47q-52 0 -85.5 35.5t-33.5 88.5z" />
<glyph unicode="@" horiz-adv-x="1886" d="M98 324q0 239 71 446.5t199 359t316.5 238t413.5 86.5q158 0 290.5 -50.5t224 -140.5t142.5 -218.5t51 -280.5q0 -71 -8 -141.5t-26.5 -142.5t-46 -136t-68 -120t-90.5 -96t-117 -63.5t-143 -23.5q-165 0 -195 160h-10q-40 -68 -115 -114t-158 -46q-124 0 -200 100.5 t-76 255.5q0 219 119.5 361.5t283.5 142.5q43 0 81 -14t63.5 -36.5t38 -36.5t20.5 -26l29 60q14 33 45 33h47q13 0 23 -12t8 -27l-58 -406q-8 -72 -7.5 -117.5t15 -71t32.5 -35t46 -9.5q119 0 202 154.5t83 390.5q0 252 -135 397t-399 145q-235 0 -420.5 -121t-289.5 -338 t-104 -491q0 -217 98 -387.5t263 -255.5q15 -9 18 -20t-6 -31l-51 -92q-17 -31 -43 -19q-206 95 -331.5 308t-125.5 481zM745 406q2 -90 34 -139.5t91 -49.5q74 0 129.5 72t75.5 172l21 170q-2 4 -6 10t-18.5 22t-30.5 28t-42 22t-53 10q-91 0 -146 -92.5t-55 -224.5z" />
<glyph unicode="A" horiz-adv-x="1263" d="M-51 16q-3 6 -3 14q0 11 7 23l762 1379q11 22 35 22h18q22 0 29 -22l370 -1379q1 -6 1 -11q0 -14 -8 -26q-12 -16 -32 -16h-122q-36 0 -43 31l-74 284h-563l-158 -284q-18 -31 -51 -31h-140q-21 0 -28 16zM412 487h430l-133 564h-9z" />
<glyph unicode="B" horiz-adv-x="1179" d="M109 39l190 1356q3 16 15 27.5t26 11.5h418q146 0 240 -94.5t94 -235.5q0 -131 -68 -229t-172 -148v-4q186 -95 186 -285q0 -189 -129.5 -313.5t-330.5 -124.5h-439q-15 0 -23 12q-7 9 -7 21v6zM338 188h248q93 0 160 72t67 174q0 81 -53.5 137t-128.5 56h-230zM428 811 h184q108 0 182 71.5t74 184.5q0 77 -41.5 125.5t-111.5 48.5h-228z" />
<glyph unicode="C" horiz-adv-x="1308" d="M119 635q0 170 61.5 322.5t166 261t248 172t300.5 63.5q134 0 234 -47.5t186 -142.5q8 -10 8 -23v-6q-2 -17 -14 -29l-84 -76q-15 -14 -30 -14q-17 0 -34 17q-115 118 -278 118q-102 0 -200.5 -51t-171 -135t-117 -197.5t-44.5 -232.5q0 -189 100 -313.5t265 -124.5 q93 0 166 34.5t153 98.5q16 14 30 14q15 0 28 -16l82 -95q8 -11 5 -27.5t-14 -27.5q-106 -98 -226.5 -148t-236.5 -50q-172 0 -306 86.5t-205.5 235t-71.5 333.5z" />
<glyph unicode="D" horiz-adv-x="1402" d="M109 39l190 1356q1 15 13 27t26 12h428q157 0 285.5 -86.5t199 -229.5t70.5 -309q0 -164 -58.5 -313.5t-159 -258t-241 -173t-297.5 -64.5h-430q-13 0 -21 12q-6 9 -6 19q0 4 1 8zM338 195h229q106 0 203 46.5t168.5 126.5t113.5 193t42 240q0 190 -104.5 314t-274.5 124 h-230z" />
<glyph unicode="E" horiz-adv-x="1093" d="M109 39l190 1356q1 15 13 27t26 12h743q15 0 23 -12q7 -9 6 -21v-6l-16 -115q-2 -15 -13 -27t-26 -12h-568l-59 -418h477q13 0 22 -12t7 -27l-16 -114q-3 -17 -14 -28t-25 -11h-478l-61 -441h567q13 0 22 -11.5t7 -26.5l-16 -113q-2 -15 -14 -27t-27 -12h-742 q-15 0 -23 12q-6 9 -6 19q0 4 1 8z" />
<glyph unicode="F" horiz-adv-x="1060" d="M109 39l190 1356q1 15 13 27t26 12h743q15 0 23 -12q7 -9 6 -21v-6l-16 -115q-2 -15 -13 -27t-26 -12h-568l-65 -473h475q13 0 22 -12t7 -27l-15 -113q-1 -15 -14 -26.5t-27 -11.5h-477l-76 -539q-2 -15 -13.5 -27t-24.5 -12h-142q-15 0 -23 12q-6 9 -6 19q0 4 1 8z" />
<glyph unicode="G" horiz-adv-x="1370" d="M119 616q0 177 61 333.5t165 266.5t247 174t303 64q134 0 234 -47.5t186 -142.5q8 -10 8 -23v-6q-2 -17 -14 -29l-82 -78q-15 -15 -31 -15t-33 17q-48 52 -124 86.5t-156 34.5q-103 0 -200.5 -49.5t-170 -131.5t-116.5 -194t-44 -231q0 -123 44.5 -226.5t129.5 -166 t193 -62.5q137 0 268 68l33 229h-168q-15 0 -23.5 11t-5.5 26l17 119q1 17 13.5 28t27.5 11h342q12 0 20 -10.5t8 -24.5l-67 -500q-4 -19 -21 -32q-8 -5 -23.5 -14.5t-65.5 -32.5t-102 -41t-129.5 -32.5t-152.5 -14.5q-164 0 -295.5 85.5t-203.5 230.5t-72 320z" />
<glyph unicode="H" horiz-adv-x="1437" d="M109 39l190 1356q3 15 15.5 27t25.5 12h143q15 0 24 -12t7 -27l-82 -572h643l80 572q3 16 15 27.5t26 11.5h143q14 0 23 -12q7 -9 7 -20q0 -4 -1 -7l-190 -1356q-2 -15 -14 -27t-25 -12h-144q-15 0 -23.5 11.5t-6.5 27.5l84 592h-643l-84 -592q-2 -15 -13 -27t-26 -12 h-144q-13 0 -23 12q-8 10 -7 22v5z" />
<glyph unicode="I" horiz-adv-x="579" d="M109 39l190 1356q1 15 13 27t26 12h143q14 0 23 -12q7 -9 7 -20q0 -4 -1 -7l-191 -1356q-2 -15 -13.5 -27t-24.5 -12h-144q-15 0 -23 12q-6 9 -6 19q0 4 1 8z" />
<glyph unicode="J" horiz-adv-x="882" d="M-20 129q-4 9 -4 18q0 17 16 33l65 64q13 13 23.5 14.5t17 -3t17.5 -15.5q68 -72 149 -72q73 0 127.5 50t71.5 173l143 1004q2 15 14 27t27 12h144q15 0 23 -12q6 -9 6 -19q0 -4 -1 -8l-143 -1002q-29 -214 -129.5 -313.5t-290.5 -99.5q-56 0 -106.5 16.5t-84 42 t-54.5 48.5t-31 42z" />
<glyph unicode="K" horiz-adv-x="1189" d="M109 49l188 1335q3 21 17 35.5t34 14.5h129q19 0 30.5 -15t8.5 -35l-80 -567l559 590q24 27 56 27h163q26 0 32 -24q2 -6 1 -12q0 -18 -16 -36l-604 -623l450 -671q14 -20 2.5 -44t-39.5 -24h-147q-33 0 -51 27l-424 659l-90 -637q-3 -20 -18 -34.5t-34 -14.5h-129 q-20 0 -30 14q-8 12 -8 28v7z" />
<glyph unicode="L" horiz-adv-x="954" d="M109 39l190 1356q2 15 14 27t27 12h143q13 0 23 -12t8 -27l-170 -1205h485q15 0 24 -12q7 -9 7 -21v-5l-16 -113q-2 -15 -14 -27t-27 -12h-664q-15 0 -23 12q-7 9 -7 21v6z" />
<glyph unicode="M" horiz-adv-x="1646" d="M33 47l418 1376q3 13 13 22t23 9h29q25 0 29 -22l246 -1026h6l542 1026q11 22 35 22h29q11 0 20 -9.5t9 -21.5l28 -1376q0 -47 -39 -47h-139q-14 0 -23.5 11t-9.5 30l13 874h-1h-6l-467 -913q-11 -22 -34 -22h-33q-25 0 -29 22l-198 913h-9l-245 -882q-9 -33 -39 -33 h-140q-19 0 -27 12q-4 7 -4 17q0 8 3 18z" />
<glyph unicode="N" horiz-adv-x="1449" d="M109 39l194 1378q1 15 14 26t27 11h18q21 0 30.5 -5.5t25.5 -31.5l618 -985h4l129 963q2 15 13 27t26 12h142q12 0 22 -12q8 -10 8 -22v-5l-194 -1379q-1 -15 -14 -25.5t-27 -10.5h-21q-16 0 -22.5 1t-15.5 8t-19 23l-621 1006h-2l-127 -979q-2 -15 -14 -27t-27 -12h-137 q-13 0 -23 12q-8 10 -7 22v5z" />
<glyph unicode="O" horiz-adv-x="1538" d="M117 614q0 174 60.5 330t164 267.5t246 177t301.5 65.5q162 0 293.5 -88.5t203.5 -235t72 -317.5q0 -173 -61 -328t-164.5 -265.5t-246 -175t-300.5 -64.5q-122 0 -229 51.5t-181 138t-116.5 202.5t-42.5 242zM332 641q0 -199 107 -328t274 -129q147 0 269 81.5 t191.5 219.5t69.5 301q0 211 -105.5 337t-275.5 126q-144 0 -266 -82.5t-193 -222.5t-71 -303z" />
<glyph unicode="P" horiz-adv-x="1136" d="M109 39l190 1356q2 15 14 27t27 12h426q100 0 182 -55.5t127 -146t45 -194.5q0 -139 -65 -258.5t-176 -189.5t-240 -70h-250l-67 -481q-2 -15 -15.5 -27t-30.5 -12h-137q-15 0 -23 12q-7 9 -7 21v6zM416 721h235q107 0 179.5 86.5t72.5 210.5q0 94 -45.5 152.5 t-134.5 58.5h-236z" />
<glyph unicode="Q" horiz-adv-x="1536" d="M117 614q0 174 62.5 330.5t167 267.5t247 176.5t297.5 65.5q162 0 293 -89t202.5 -235t71.5 -317q0 -257 -130 -467t-339 -303l172 -391q9 -22 -2.5 -40t-34.5 -18h-151q-31 0 -43 31l-142 363q-44 -8 -104 -8q-162 0 -293.5 88.5t-202.5 233t-71 312.5zM332 641 q0 -199 107 -328t274 -129q147 0 269 81.5t191.5 219.5t69.5 301q0 211 -105.5 337t-275.5 126q-144 0 -266 -82.5t-193 -222.5t-71 -303z" />
<glyph unicode="R" horiz-adv-x="1253" d="M109 39l190 1356q1 15 13 27t26 12h512q148 0 247 -113.5t99 -267.5q0 -165 -94.5 -298t-245.5 -175l182 -523q8 -21 -1 -39t-31 -18h-142q-25 0 -36 9t-17 32l-149 518h-271l-74 -520q-2 -15 -13.5 -27t-24.5 -12h-142q-15 0 -23 12q-6 9 -6 19q0 4 1 8zM420 739h313 q97 0 171.5 78.5t74.5 206.5q0 93 -50 152t-126 59h-314z" />
<glyph unicode="S" horiz-adv-x="1036" d="M54 178q1 14 14 29l63 78q17 21 36 21q16 0 34 -15q31 -27 43.5 -37.5t43 -32t53 -30.5t57 -17t71.5 -8q96 0 158.5 62.5t62.5 154.5q0 75 -53.5 132t-169.5 126q-64 38 -110.5 74.5t-92 87.5t-69 115t-23.5 139q0 68 29.5 136.5t85 127.5t146 96t200.5 37 q197 0 346 -119q15 -13 15 -31q0 -15 -13 -38l-55 -74q-13 -18 -34 -21t-38 9q-66 45 -117.5 64.5t-126.5 19.5q-94 0 -152.5 -61.5t-58.5 -147.5q0 -71 46.5 -124t146.5 -110q56 -32 98 -60t86.5 -68t73 -81.5t47 -96.5t18.5 -116q0 -185 -124.5 -302t-323.5 -117 q-80 0 -152.5 19.5t-123 50.5t-77.5 52t-44 39q-9 11 -13 17q-3 5 -3 15v5z" />
<glyph unicode="T" horiz-adv-x="991" d="M160 1280l16 115q2 15 14 27t25 12h799q14 0 22 -12q6 -9 6 -21v-6l-16 -115q-2 -15 -13 -27t-26 -12h-293l-168 -1202q-1 -15 -14 -27t-27 -12h-143q-13 0 -23 12t-8 27l170 1202h-293q-14 -1 -22 11q-6 9 -6 22v6z" />
<glyph unicode="U" horiz-adv-x="1355" d="M154 414q0 39 6 82l125 899q3 15 15.5 27t25.5 12h147q15 0 23.5 -12t5.5 -27l-123 -885q-4 -25 -4 -70q0 -121 64.5 -187.5t181.5 -66.5q135 0 225 84.5t112 235.5l125 889q1 15 13 27t26 12h148q14 0 22 -12q6 -9 7 -19q0 -4 -1 -8l-124 -899q-32 -235 -189 -375.5 t-393 -140.5q-189 0 -313.5 119t-124.5 315z" />
<glyph unicode="V" horiz-adv-x="1259" d="M131 1384q-2 8 -2 14q0 12 6 22q9 14 29 14h155q11 0 19 -7.5t10 -15.5l240 -975h10l528 975q14 23 35 23h162q20 0 27 -17q3 -7 3 -14q0 -11 -7 -23l-762 -1378q-11 -22 -35 -22h-19q-19 0 -26 22z" />
<glyph unicode="W" horiz-adv-x="1675" d="M180 1384q-1 4 -1 8q-1 16 9 28q12 14 31 14h139q13 0 21 -8.5t10 -20.5l80 -899h8l432 926q9 22 35 22h33q9 0 18.5 -6.5t10.5 -15.5l163 -926h9l333 899q12 29 37 29h148q20 0 27 -14q3 -7 3 -15q0 -9 -4 -21l-542 -1376q-10 -28 -37 -28h-29q-24 0 -31 26l-182 959h-8 l-465 -963q-9 -22 -35 -22h-28q-12 0 -20.5 8t-10.5 20z" />
<glyph unicode="X" horiz-adv-x="1155" d="M-16 16q-2 5 -2 11q0 12 10 26l483 686l-280 645q-8 21 1.5 35.5t32.5 14.5h162q22 0 31 -25l192 -485h2l340 491q14 19 33 19h176q23 0 29 -16q2 -5 2 -10q0 -12 -10 -26l-461 -651l291 -678q9 -22 -2.5 -37.5t-34.5 -15.5h-150q-22 0 -28 18l-219 529h-4l-361 -529 q-11 -18 -35 -18h-166q-26 0 -32 16z" />
<glyph unicode="Y" horiz-adv-x="1116" d="M131 1380q-3 9 -3 17q0 10 6 20q10 17 32 17h145q25 0 35 -23l240 -520h4l393 520q19 23 41 23h162q23 0 28 -17q1 -4 1 -8q0 -14 -11 -29l-528 -688l-92 -653q-1 -15 -14 -27t-27 -12h-142q-15 0 -23.5 11.5t-6.5 27.5l92 651z" />
<glyph unicode="Z" horiz-adv-x="1013" d="M-14 27q0 42 20 73l731 1131v6h-495q-13 0 -22 12t-7 27l16 119q1 15 14 27t27 12h762q13 0 21 -8.5t8 -22.5q0 -26 -19 -60l-727 -1142v-6h506q14 0 22.5 -11.5t6.5 -27.5l-16 -117q-2 -15 -14 -27t-27 -12h-779q-28 0 -28 27z" />
<glyph unicode="[" horiz-adv-x="669" d="M2 -449l260 1844q2 15 14 27t25 12h397q13 0 22 -12t7 -27l-12 -90q-3 -17 -15 -28t-26 -11h-244l-223 -1588h244q14 0 22.5 -10.5t7.5 -25.5l-12 -91q-1 -15 -14 -26.5t-27 -11.5h-395q-14 0 -23 11.5t-8 26.5z" />
<glyph unicode="\" horiz-adv-x="770" d="M229 1382q-3 22 8.5 37t30.5 15h111q12 0 20.5 -8t10.5 -19l170 -1356q3 -21 -9.5 -36t-31.5 -15h-113q-9 0 -18.5 8.5t-10.5 18.5z" />
<glyph unicode="]" horiz-adv-x="667" d="M-90 -449l14 91q3 15 14.5 25.5t24.5 10.5h242l223 1588h-242q-14 0 -22.5 11t-5.5 28l12 90q2 15 14 27t25 12h397q13 0 22 -12t7 -27l-258 -1844q-3 -15 -15.5 -26.5t-25.5 -11.5h-395q-14 0 -24 11.5t-7 26.5z" />
<glyph unicode="^" horiz-adv-x="966" d="M100 817q-6 16 9 35l464 590q16 20 35 20h10q21 0 29 -20l289 -590q9 -20 -1.5 -35.5t-33.5 -15.5h-102q-21 0 -29 20l-182 383h-8l-293 -383q-16 -20 -35 -20h-123q-23 0 -29 16z" />
<glyph unicode="_" horiz-adv-x="1140" d="M131 -117l8 58q3 17 14.5 28t26.5 11h604q14 0 23 -11t6 -28l-8 -58q-1 -15 -13.5 -26t-27.5 -11h-602q-15 0 -24 11t-7 26z" />
<glyph unicode="`" horiz-adv-x="557" d="M168 1315l53 84q18 27 49 6l269 -186q8 -5 10.5 -16t-4.5 -23l-31 -54q-15 -24 -47 -8l-287 144q-34 16 -12 53z" />
<glyph unicode="a" horiz-adv-x="1064" d="M72 408q0 148 59 276t166.5 205.5t237.5 77.5q49 0 94.5 -14t77 -34.5t49.5 -36.5t28 -28l31 59q8 14 20.5 23.5t24.5 9.5h68q15 0 25 -14q8 -12 8 -25v-6l-111 -856q-1 -18 -16 -31.5t-31 -13.5h-74q-30 0 -33 33l-6 69q-1 -1 -10 -9.5t-17.5 -16t-24.5 -20t-31.5 -22.5 t-38 -21t-44.5 -18.5t-50 -12.5t-56 -5q-152 0 -249 117.5t-97 313.5zM266 438q0 -126 52.5 -197t142.5 -71q53 0 106 32t80 61.5t35 45.5l45 373q-3 4 -9.5 10t-26.5 22.5t-42.5 29t-56.5 22.5t-68 10q-75 0 -135 -49.5t-91.5 -126t-31.5 -162.5z" />
<glyph unicode="b" horiz-adv-x="1067" d="M70 45l188 1344q3 19 15.5 32t29.5 13h127q17 0 27.5 -13t7.5 -32l-66 -471q31 16 89 32.5t120 16.5q155 0 256 -123.5t101 -308.5q0 -148 -61 -276t-170.5 -205t-241.5 -77q-48 0 -91.5 14t-72.5 33.5t-50.5 39t-31.5 33.5l-10 14l-29 -70q-16 -41 -45 -41h-62 q-15 0 -24 13q-7 10 -7 23q0 4 1 9zM313 322q3 -37 52 -94.5t127 -57.5q108 0 188 103t80 249q0 113 -56.5 183.5t-144.5 70.5q-48 0 -96.5 -14t-72.5 -28l-25 -15z" />
<glyph unicode="c" horiz-adv-x="933" d="M70 403q0 116 41.5 221.5t111.5 180t165 118.5t198 44q94 0 169.5 -45t116.5 -119q7 -17 7 -30q0 -19 -15 -32l-78 -57q-14 -11 -26 -10t-17.5 6t-13.5 16q-60 80 -160 80q-121 0 -208 -107t-87 -251q0 -111 50 -179.5t141 -68.5q47 0 91 23.5t66 46t50 57.5q17 17 33 17 t32 -15l64 -57q17 -15 17 -34q0 -16 -13 -34q-146 -197 -361 -197q-162 0 -268 118t-106 308z" />
<glyph unicode="d" horiz-adv-x="1062" d="M70 397q0 159 66 290t179 205.5t248 74.5q60 0 115 -17.5t82 -34.5l67 474q3 22 19 33.5t37 11.5h114q17 0 27 -13q8 -11 8 -26v-6l-188 -1344q-3 -18 -17.5 -31.5t-29.5 -13.5h-62q-25 0 -30 33l-15 69q-10 -13 -28.5 -29t-53.5 -40t-88 -40t-112 -16 q-147 0 -242.5 122.5t-95.5 297.5zM274 424q0 -117 51 -185.5t136 -68.5q41 0 82 19.5t70 47t47.5 48.5t23.5 32l49 404q-8 6 -22.5 15t-61 24.5t-94.5 15.5q-112 0 -196.5 -106t-84.5 -246z" />
<glyph unicode="e" horiz-adv-x="964" d="M72 399q0 152 62.5 280.5t183 208t274.5 79.5q137 0 223 -70t86 -197q0 -65 -28 -117t-77 -84.5t-111 -54t-134.5 -30t-142 -8.5t-138.5 8q-1 -14 -1 -28q1 -84 47 -148q54 -74 149 -74q102 0 199 69q21 14 32.5 14.5t24.5 -14.5l57 -75q8 -14 8 -27q0 -20 -20 -37 q-63 -50 -149.5 -83.5t-184.5 -33.5q-166 0 -263 121t-97 301zM305 569q47 -7 100 -7h30q70 2 130 11.5t100 40.5t40 80q0 45 -38.5 72t-99.5 27q-95 0 -167 -65.5t-95 -158.5z" />
<glyph unicode="f" horiz-adv-x="745" d="M82 -440l164 1202h-129q-18 0 -27 14q-8 11 -8 25v6l12 94q3 20 16 32.5t29 12.5h135l21 152q48 356 354 356q80 0 143.5 -27.5t92.5 -62.5q9 -12 9 -25t-9 -28l-56 -84q-23 -31 -53 -10q-66 47 -141 47q-66 0 -96.5 -43.5t-42.5 -126.5l-21 -148h234q16 0 26 -13t6 -32 l-12 -94q-3 -18 -16 -31.5t-31 -13.5h-233l-168 -1202q-1 -19 -16 -33t-32 -14h-118q-17 0 -27 14q-7 11 -7 24q0 4 1 9z" />
<glyph unicode="g" horiz-adv-x="1069" d="M53 -287q-14 16 -14 34q0 21 20 44l54 64q11 13 28.5 14t36.5 -19q32 -39 89 -74.5t124 -35.5q105 0 163.5 59t82.5 203l4 25q-18 -15 -86.5 -32.5t-136.5 -17.5q-99 0 -179 60.5t-123.5 160t-43.5 214.5q0 145 62 272.5t172.5 205t242.5 77.5q92 0 159.5 -40t90.5 -73 l32 59q6 14 19.5 23.5t26.5 9.5h59q14 0 24 -14q8 -11 8 -23q0 -4 -1 -8l-123 -899q-17 -124 -58.5 -213.5t-102 -140t-131 -74t-155.5 -23.5q-202 0 -344 162zM279 426q0 -116 54.5 -186t141.5 -70q48 0 98 16.5t75 33.5l26 16l59 436q-13 30 -62.5 67t-123.5 37 q-113 0 -190.5 -103t-77.5 -247z" />
<glyph unicode="h" horiz-adv-x="1054" d="M70 45l188 1344q2 19 15 32t30 13h129q17 0 27.5 -13t7.5 -32l-78 -525q37 37 102 70t144 33q287 0 287 -313q0 -55 -9 -119l-67 -490q-1 -18 -16 -31.5t-31 -13.5h-127q-18 0 -27 13t-6 32l66 490q7 47 7 85q0 59 -17 96q-28 60 -115 60q-126 0 -222 -139l-82 -592 q-7 -45 -49 -45h-127q-15 0 -24 13q-7 10 -7 23q0 4 1 9z" />
<glyph unicode="i" horiz-adv-x="499" d="M70 45l116 856q1 17 16.5 31t30.5 14h134q15 0 25 -14t7 -31l-118 -856q-1 -18 -16.5 -31.5t-31.5 -13.5h-133q-15 0 -24 13q-7 10 -7 23q0 4 1 9zM205 1268q0 63 48 110t109 47q52 0 86.5 -33t34.5 -83q0 -65 -47.5 -112.5t-111.5 -47.5q-52 0 -85.5 34t-33.5 85z" />
<glyph unicode="j" horiz-adv-x="493" d="M-143 -393q-4 10 -4 21t5 22q10 22 33 33q62 29 103 74.5t53 131.5l141 1012q3 20 18 32.5t34 12.5h114q18 0 30 -12.5t9 -32.5l-139 -987q-47 -327 -293 -418q-13 -4 -24 -4q-10 0 -19 2q-20 7 -27 27zM203 1268q0 63 48 110t109 47q52 0 86.5 -33t34.5 -83 q0 -65 -47.5 -112.5t-111.5 -47.5q-52 0 -85.5 34t-33.5 85z" />
<glyph unicode="k" horiz-adv-x="964" d="M70 45l188 1344q3 19 15.5 32t29.5 13h125q17 0 27.5 -13t7.5 -32l-113 -801l344 330q32 28 62 28h164q26 0 30 -25q1 -5 0 -10q0 -18 -14 -30l-399 -377l299 -443q13 -17 3 -39t-34 -22h-160q-24 0 -35 18l-278 449l-60 -422q-1 -18 -15 -31.5t-28 -13.5h-129 q-15 0 -24 13q-7 10 -7 23q0 4 1 9z" />
<glyph unicode="l" horiz-adv-x="503" d="M76 45l188 1344q1 19 15.5 32t31.5 13h121q17 0 27 -13q8 -11 8 -26v-6l-191 -1344q-1 -18 -15 -31.5t-30 -13.5h-125q-15 0 -24 13q-7 10 -7 23q0 4 1 9z" />
<glyph unicode="m" horiz-adv-x="1568" d="M70 45l116 856q2 18 15 31.5t32 13.5h60q13 0 22.5 -7.5t10.5 -20.5l14 -82q123 131 278 131q90 0 143 -35t93 -111q1 1 22.5 19.5t36.5 31t46 32t59 32t66.5 22t76.5 9.5q77 0 132 -21.5t85 -60.5t46 -93q14 -50 14 -109v-11q-2 -66 -11 -140l-67 -487q-2 -19 -15 -32 t-32 -13h-119q-19 0 -29 12.5t-8 32.5l68 494q7 44 7 79q0 158 -130 158q-23 0 -44.5 -4.5t-39 -11.5t-34.5 -18t-28.5 -20t-24 -21t-18.5 -19t-13 -16l-7 -9q0 -52 -8 -112l-70 -500q-3 -19 -16.5 -32t-30.5 -13h-121q-18 0 -27 13t-6 32l70 494q5 42 5 77q0 64 -17 102 q-26 58 -109 58q-41 0 -78.5 -16t-63.5 -41.5t-40.5 -44t-24.5 -35.5l-86 -594q-3 -18 -17.5 -31.5t-29.5 -13.5h-123q-14 0 -24 14q-7 10 -7 21q0 5 1 10z" />
<glyph unicode="n" horiz-adv-x="1052" d="M70 45l116 856q2 18 15.5 31.5t31.5 13.5h60q11 0 20.5 -7.5t10.5 -20.5l16 -82q60 55 108 82q89 49 187 49q97 0 160 -33.5t89 -91.5t34 -138q2 -26 3 -55q0 -56 -10 -117l-67 -487q-1 -18 -16 -31.5t-31 -13.5h-127q-18 0 -27 13t-6 32l68 494q5 40 5 73 q0 164 -128 164q-43 0 -84 -16.5t-70 -41.5t-47 -44.5t-27 -34.5l-86 -594q-3 -24 -15.5 -34.5t-43.5 -10.5h-109q-14 0 -24 14q-7 10 -7 21q0 5 1 10z" />
<glyph unicode="o" horiz-adv-x="1050" d="M70 408q0 151 67 279t184.5 204t258.5 76q157 0 263.5 -125t106.5 -299q0 -152 -66.5 -282t-184.5 -207t-259 -77q-154 0 -262 126.5t-108 304.5zM274 426q0 -120 52 -188t141 -68q110 0 193 100.5t83 249.5q0 117 -52 186.5t-138 69.5q-111 0 -195 -100.5t-84 -249.5z " />
<glyph unicode="p" horiz-adv-x="1064" d="M2 -440l186 1341q2 18 16 31.5t32 13.5h61q28 0 33 -31l14 -61q34 34 112.5 73.5t170.5 39.5q102 0 179.5 -57.5t117 -152.5t39.5 -212q0 -156 -64 -286.5t-175.5 -206t-246.5 -75.5q-64 0 -124 19.5t-81 36.5l-63 -473q-10 -47 -53 -47h-119q-15 0 -27 15q-9 11 -9 25 q0 3 1 7zM301 238q7 -8 21 -19t60 -30t95 -19q113 0 197 101t84 251q0 119 -50 186.5t-135 67.5q-53 0 -105.5 -26.5t-78.5 -50t-33 -35.5z" />
<glyph unicode="q" horiz-adv-x="1067" d="M72 399q0 152 61 282t170.5 208t243.5 78q91 0 158 -40.5t90 -72.5l32 59q6 13 19.5 23t25.5 10h62q15 0 25 -14q8 -12 8 -25v-6l-189 -1341q-3 -19 -16.5 -33t-30.5 -14h-123q-20 0 -31 12.5t-8 34.5l70 475q-23 -16 -90.5 -37t-134.5 -21q-143 0 -242.5 122.5 t-99.5 299.5zM274 426q0 -119 54.5 -187.5t142.5 -68.5q51 0 101 16.5t74 33.5l24 16l57 428q-9 29 -59 70.5t-125 41.5q-114 0 -191.5 -100t-77.5 -250z" />
<glyph unicode="r" horiz-adv-x="739" d="M70 45l116 856q2 18 14.5 31.5t30.5 13.5h62q9 0 19.5 -10t13.5 -23l16 -82q1 1 12 12.5t19 19.5t24 22t30 24t35 21.5t41.5 19t46.5 12.5t52 5q87 0 135 -31q14 -8 14 -25q0 -13 -8 -30l-47 -99q-13 -26 -34 -26q-9 0 -19 4q-2 0 -21 4.5t-39 8t-36 3.5 q-69 0 -119.5 -38.5t-73.5 -75.5l-86 -617q-3 -25 -15.5 -35t-41.5 -10h-111q-15 0 -24 13q-7 10 -7 23q0 4 1 9z" />
<glyph unicode="s" horiz-adv-x="784" d="M31 123l53 88q8 15 21.5 19t29.5 -7q81 -65 184 -65q59 0 96.5 27t37.5 73q0 40 -35 74t-111 80q-102 62 -150 121.5t-48 150.5q0 53 20 102t59 90.5t105 66t149 24.5q155 0 248 -70q19 -15 19 -36q0 -16 -11 -34l-41 -69q-8 -16 -26 -21t-31 2q-92 45 -174 45 q-58 0 -88.5 -24t-30.5 -60t26 -64.5t95 -70.5q59 -36 93.5 -61.5t70 -60.5t51.5 -75t16 -89q0 -131 -94 -216.5t-256 -85.5q-149 0 -274 97q-12 8 -12 22q0 12 8 27z" />
<glyph unicode="t" horiz-adv-x="739" d="M82 807l12 94q3 20 15.5 32.5t29.5 12.5h119l35 262q1 19 15.5 32t31.5 13h123q17 0 27 -13t8 -32l-39 -262h215q18 0 28 -12q8 -10 8 -24q0 -4 -1 -9l-15 -94q-3 -19 -15 -32t-30 -13h-215l-67 -490q-2 -19 -3 -34q0 -29 10 -42q14 -20 46 -20q46 0 133 45q23 8 30.5 3 t12.5 -23l31 -103q4 -17 -4 -27.5t-27 -23.5q-20 -15 -102 -42.5t-148 -27.5q-112 -1 -158 75q-33 54 -34 135q0 33 6 71l71 504h-112q-18 0 -29 14q-9 11 -9 23q0 4 1 8z" />
<glyph unicode="u" horiz-adv-x="1024" d="M98 257.5q0 59.5 8 125.5l74 518q3 17 17.5 31t29.5 14h123q17 0 28 -13.5t9 -31.5l-76 -516q-5 -34 -5 -63q0 -152 134 -152q69 0 130.5 57t74.5 92l82 582q3 28 14.5 36.5t38.5 8.5h111q15 0 27 -14q9 -11 9 -24q0 -3 -1 -7l-121 -856q-1 -19 -15.5 -32t-31.5 -13h-60 q-25 0 -32 39l-15 67q-51 -56 -99 -83q-81 -46 -179 -46q-72 0 -126 21.5t-84 59t-47.5 89t-17.5 111z" />
<glyph unicode="v" horiz-adv-x="925" d="M90 891q-2 6 -2 13q0 14 10 25q14 17 35 17h111q28 0 35 -26l143 -570h4l309 572q13 24 43 24h119q23 0 31 -16q3 -6 3 -13q0 -12 -9 -26l-498 -889q-21 -25 -41 -25h-8q-11 0 -22.5 8t-12.5 17z" />
<glyph unicode="w" horiz-adv-x="1345" d="M113 893q-1 4 -1 8q0 17 11 29q13 16 33 16h108q13 0 22.5 -7.5t10.5 -20.5l70 -515h4l313 543q17 25 37 25h16q11 0 20.5 -7.5t12.5 -17.5l143 -545h5l208 517q10 28 52 28h112q21 0 28 -16q3 -6 3 -13q0 -12 -8 -26l-373 -889q-14 -25 -43 -25h-10q-23 0 -31 23 l-170 623h-4l-356 -623q-12 -23 -37 -23h-10q-29 0 -33 25z" />
<glyph unicode="x" horiz-adv-x="940" d="M-12 20q-1 4 -1 9q0 16 15 34l332 424l-217 398q-13 23 -1.5 42t38.5 19h122q44 0 54 -26l137 -299h4l215 299q16 26 57 26h144q27 0 31 -20q1 -3 1 -7q0 -17 -18 -38l-334 -404l236 -416q12 -23 -1 -42t-38 -19h-119q-35 0 -49 29l-158 311h-4l-227 -322 q-11 -18 -37 -18h-150q-26 0 -32 20z" />
<glyph unicode="y" horiz-adv-x="970" d="M42 -470q-2 7 -2 14q0 13 7 28l256 475l-209 844q-5 23 6 39t35 16h123q26 0 33 -26l141 -662h4l324 662q14 26 51 26h121q25 0 32 -18q2 -6 2 -13q0 -14 -8 -30l-712 -1344q-14 -28 -41 -28h-131q-24 0 -32 17z" />
<glyph unicode="z" horiz-adv-x="790" d="M0 37q0 29 18 57l443 664v4h-307q-15 0 -23.5 14t-5.5 31l14 94q3 19 16 32t27 13h553q17 0 27 -10.5t10 -26.5q0 -15 -8 -28l-463 -693v-4h293q34 0 31 -45l-13 -94q-3 -19 -16 -32t-31 -13h-532q-33 0 -33 37z" />
<glyph unicode="{" horiz-adv-x="755" d="M37 428l12 82q3 24 29 33q36 4 89.5 47t61.5 102l37 275q15 112 55 199t92 139t119 86t129 47t130 14q36 0 30 -35l-8 -84q-1 -12 -10.5 -23.5t-18.5 -13.5q-66 -12 -119.5 -34.5t-101 -60.5t-78 -97t-41.5 -137l-30 -224q-9 -66 -34 -119t-57 -83.5t-54.5 -45.5 t-43.5 -24v-6q24 -13 42 -27.5t40.5 -44.5t31 -80.5t-0.5 -115.5l-33 -226q-11 -78 3 -136.5t51 -95t83.5 -58t110.5 -33.5q10 -2 15 -12.5t1 -24.5l-12 -84q-3 -15 -16 -26t-27 -9q-58 1 -117 19.5t-114 57.5t-94.5 93.5t-57.5 134.5t-4 174l39 271q8 62 -28.5 101.5 t-78.5 47.5q-10 1 -17 13t-5 24z" />
<glyph unicode="|" horiz-adv-x="378" d="M0 -451l276 1969q3 17 15 27.5t26 10.5h21q14 0 22 -10.5t5 -27.5l-275 -1969q-1 -15 -14 -25.5t-27 -10.5h-18q-14 0 -23 10.5t-8 25.5z" />
<glyph unicode="}" horiz-adv-x="751" d="M-96 -473l8 84q1 14 10 24.5t19 12.5q292 30 335 327l33 226q8 53 25.5 97t36 70.5t45 49t43 32t37.5 19.5l2 6q-18 9 -36.5 24t-42.5 46t-34 84t0 119l33 223q11 78 -3 136.5t-51 95.5t-84 59t-110 34q-9 1 -13.5 12.5t-2.5 24.5l12 84q3 18 15 27.5t28 7.5 q59 -1 117 -17.5t114 -54t95.5 -91t57 -136t3.5 -182.5l-39 -275q-8 -59 33.5 -102t75.5 -47q9 -3 15 -12.5t3 -20.5l-10 -82q-1 -12 -11.5 -23.5t-21.5 -13.5q-44 -8 -91.5 -47.5t-55.5 -101.5l-39 -271q-68 -473 -521 -483q-13 -1 -22.5 9.5t-7.5 25.5z" />
<glyph unicode="~" horiz-adv-x="1050" d="M76.5 526q0.5 15 9.5 25q6 8 16.5 20.5t43 44.5t66 56.5t80.5 44.5t91 20q94 0 182 -84q74 -69 125 -69q70 0 162 118q12 17 27.5 18.5t25.5 -11.5l60 -70q9 -9 8 -23.5t-10 -25.5q-6 -7 -16 -19.5t-42 -44.5t-64.5 -56t-79 -44t-89.5 -20q-108 0 -195 83 q-22 22 -33.5 32t-35 23t-46.5 13q-77 0 -161 -119q-10 -15 -25.5 -16.5t-25.5 10.5l-66 70q-8 9 -7.5 24z" />
<glyph unicode="&#xa1;" horiz-adv-x="485" d="M-23 -449l33 230l144 575q3 12 15 22.5t24 10.5h49q12 0 21 -10.5t9 -22.5l-20 -571l-33 -234q-1 -15 -13 -26.5t-26 -11.5h-172q-14 0 -23 11.5t-8 26.5zM139 807q0 65 49 112.5t113 47.5q50 0 84.5 -36.5t34.5 -88.5q0 -65 -49.5 -112.5t-110.5 -47.5q-52 0 -86.5 36 t-34.5 89z" />
<glyph unicode="&#xa2;" horiz-adv-x="1021" d="M113 403q0 116 41.5 221.5t111.5 180t165 118.5t198 44q21 0 57 -4l39 100q6 18 22 27t31 2l25 -7q14 -3 19.5 -18t-1.5 -35l-39 -102q84 -43 133 -127q8 -17 3.5 -36.5t-19.5 -31.5l-70 -51q-14 -11 -26 -10t-17.5 6t-13.5 16q-28 35 -59 54l-221 -580h16q47 0 91 23.5 t66 46t50 57.5q32 32 65 2l64 -57q32 -29 4 -68q-146 -197 -361 -197q-32 0 -67 7l-88 -230q-6 -17 -22 -26.5t-31 -3.5l-23 8q-14 5 -20.5 18.5t0.5 32.5l88 231q-97 48 -154 150t-57 239zM317 418q0 -149 80 -211l217 569h-2q-121 0 -208 -107t-87 -251z" />
<glyph unicode="&#xa3;" d="M219 39l6 37q151 245 144 522h-82q-17 0 -24.5 11.5t-4.5 27.5l4 25q3 15 14 24.5t25 9.5h59q-18 153 -18 240q0 244 125.5 381t318.5 137q159 0 304 -145q10 -11 8.5 -26.5t-13.5 -27.5l-77 -77q-28 -28 -52 -4q-88 96 -184 96q-98 0 -162.5 -82t-64.5 -225 q0 -57 12.5 -156.5t13.5 -110.5h240q15 0 24.5 -11t6.5 -26l-4 -26q-3 -15 -14.5 -25t-26.5 -10h-222q0 -85 -23.5 -206t-64.5 -214h390q14 0 21.5 -11t6.5 -28l-14 -100q-3 -15 -14.5 -27t-24.5 -12h-602q-13 0 -23 12t-8 27z" />
<glyph unicode="&#xa4;" horiz-adv-x="935" d="M124.5 435q2.5 18 14.5 28l99 90q-11 34 -11 74q0 94 52 184l-70 92q-8 10 -6 28t14 27l68 56q12 9 26.5 9.5t22.5 -9.5l72 -90q55 34 116 34t101 -32l96 92q11 10 25.5 9.5t23.5 -11.5l57 -66q9 -10 7.5 -26.5t-13.5 -26.5l-96 -90q12 -37 12 -80q0 -91 -49 -178l70 -90 q8 -10 6 -26.5t-14 -26.5l-68 -58q-11 -11 -25 -11.5t-22 9.5l-74 92q-59 -35 -123 -35q-52 0 -100 31l-96 -92q-11 -10 -26 -9.5t-24 9.5l-59 66q-9 9 -6.5 27zM373 659q0 -47 23.5 -77.5t62.5 -30.5q46 0 81 44t35 101q0 48 -23.5 80.5t-62.5 32.5q-52 0 -84 -47t-32 -103 z" />
<glyph unicode="&#xa5;" d="M186 1380q-8 20 3 37t32 17h146q16 0 22.5 -5.5t11.5 -17.5l240 -520h4l393 520q19 23 41 23h162q23 0 28 -17t-9 -37l-529 -688l-14 -100h211q15 0 23.5 -11.5t6.5 -27.5l-4 -23q-1 -15 -13 -25.5t-26 -10.5h-213l-20 -148h211q15 0 24 -12t7 -27l-4 -22q-2 -15 -13 -26 t-26 -11h-213l-29 -209q-1 -15 -14 -27t-27 -12h-141q-15 0 -24 12t-7 27l29 209h-211q-13 0 -22 12t-7 27l2 20q3 15 14.5 27t24.5 12h213l20 148h-213q-13 0 -20.5 11t-5.5 27l2 21q3 15 14.5 27t24.5 12h213l14 98z" />
<glyph unicode="&#xa6;" horiz-adv-x="395" d="M8 -451l96 678q1 17 13 28t26 11h23q14 0 22 -11t5 -28l-95 -678q-3 -15 -15 -25.5t-26 -10.5h-18q-14 0 -23 10.5t-8 25.5zM188 840l97 678q1 16 14 27t27 11h20q14 0 22 -10.5t5 -27.5l-94 -678q-3 -15 -15 -26t-26 -11h-19q-14 0 -23 11t-8 26z" />
<glyph unicode="&#xa7;" horiz-adv-x="1079" d="M29 -283l53 72q28 40 65 10l9 -7q9 -8 18.5 -16.5t26.5 -21t34 -23.5t39.5 -22.5t44 -19.5t46.5 -13.5t49 -5.5q68 0 126 42.5t76 117.5q21 90 -30 159t-176 136q-277 143 -277 364q0 63 20.5 119.5t52.5 95.5t57 61.5t48 37.5q-32 27 -65 92t-33 154q0 55 15 110.5 t49 109t83 94.5t123.5 66t163.5 25q35 0 70 -4.5t62 -11.5t55 -17.5t47 -19.5t40 -21.5t30.5 -19t22.5 -16.5l13 -9q26 -26 4 -65l-57 -76q-26 -36 -64 -10q-135 90 -241 90q-96 0 -153.5 -60.5t-57.5 -130.5q0 -126 188 -219q58 -29 100.5 -54.5t88 -61.5t74 -72.5t47 -86 t18.5 -104.5q0 -62 -22 -120.5t-55 -100t-59 -66.5t-48 -40q31 -23 65.5 -92.5t34.5 -163.5q0 -178 -129 -296t-330 -118q-69 0 -134.5 20t-113 50.5t-73 51t-41.5 38.5q-30 30 0 69zM334 518q0 -30 10.5 -56.5t22.5 -44.5t44 -43t50 -37t67.5 -42.5t71.5 -44.5q5 3 12.5 8 t27.5 23.5t35 40.5t27.5 58t12.5 75q0 68 -55.5 118.5t-180.5 118.5q-23 15 -41 23q-10 -6 -21.5 -16t-33 -33.5t-35.5 -62.5t-14 -85z" />
<glyph unicode="&#xa8;" horiz-adv-x="763" d="M145 1262q0 58 43.5 100.5t98.5 42.5q47 0 77.5 -32.5t30.5 -82.5q0 -56 -43 -98.5t-98 -42.5q-47 0 -78 32.5t-31 80.5zM512 1262q0 58 43 100.5t96 42.5q49 0 80 -32.5t31 -82.5q0 -56 -43 -98.5t-98 -42.5q-49 0 -79 32.5t-30 80.5z" />
<glyph unicode="&#xa9;" horiz-adv-x="1583" d="M139 621q0 167 62.5 321.5t166.5 266.5t247 178.5t298 66.5t286 -86.5t206.5 -234t75.5 -320.5q0 -168 -62 -322t-166 -265.5t-247.5 -177.5t-298.5 -66q-156 0 -286.5 86t-206 233t-75.5 320zM276 637q0 -215 128 -364.5t323 -149.5q118 0 230.5 54t197.5 144 t136.5 215.5t51.5 260.5q0 217 -127.5 365.5t-322.5 148.5q-118 0 -230.5 -53.5t-197.5 -143t-137 -215.5t-52 -262zM477 662q0 182 116.5 309t287.5 127q122 0 200 -78q11 -12 9 -29t-15 -30l-55 -58q-22 -25 -47 -4q-40 35 -115 35q-88 0 -151.5 -73.5t-63.5 -176.5 q0 -80 42.5 -135t111.5 -55q54 0 118 47q30 20 48 -4l47 -64q9 -12 6 -28.5t-17 -28.5q-94 -86 -227 -86q-121 0 -208 97.5t-87 234.5z" />
<glyph unicode="&#xaa;" horiz-adv-x="643" d="M147 1024q11 85 76.5 140t165.5 55q25 0 48 -4.5t33 -9.5l11 -5q14 70 6 102.5t-57 32.5q-28 0 -56 -5t-64 -15l-36 -10q-10 -3 -16 4t-8 22l-4 51q-3 25 20 35q7 4 31.5 12t71 16.5t90.5 8.5q61 0 97.5 -20t48.5 -56t13.5 -85t-8.5 -107l-45 -320q-1 -12 -10 -20t-20 -8 h-46q-10 0 -14.5 4.5t-7.5 15.5q-6 42 -6 43l-12 -11q-12 -11 -14.5 -12.5t-14 -11.5t-17 -12.5t-17 -9.5t-20.5 -9.5t-21 -6.5t-25 -5.5t-27 -1.5q-76 0 -117.5 56t-28.5 147zM274 1026q-6 -38 12 -65t50 -27q67 0 117 76l12 90q-10 8 -35.5 16t-48.5 8q-42 0 -71.5 -27.5 t-35.5 -70.5z" />
<glyph unicode="&#xab;" horiz-adv-x="899" d="M78 459q-12 24 6 49l238 303q20 25 40 25h91q23 0 27.5 -19.5t-9.5 -44.5l-174 -301l74 -285q6 -26 -3.5 -43.5t-33.5 -17.5h-84q-17 0 -25 16zM426 459q-12 24 6 49l238 303q20 25 41 25h90q23 0 27.5 -19.5t-9.5 -44.5l-174 -301l74 -285q6 -26 -3.5 -43.5t-33.5 -17.5 h-84q-17 0 -25 16z" />
<glyph unicode="&#xac;" horiz-adv-x="1095" d="M147 668l13 86q2 15 14 27t25 12h716q14 0 23.5 -12.5t7.5 -26.5l-63 -441q-1 -15 -13 -26t-26 -11h-88q-14 0 -23 11t-8 26l45 316h-594q-13 0 -22 12t-7 27z" />
<glyph unicode="&#xad;" horiz-adv-x="731" d="M111 459l12 88q3 17 14.5 28t26.5 11h403q15 0 24.5 -11t6.5 -28l-12 -88q-1 -15 -13.5 -26t-27.5 -11h-404q-15 0 -23.5 11t-6.5 26z" />
<glyph unicode="&#xae;" horiz-adv-x="1583" d="M139 621q0 167 62.5 321.5t166.5 266.5t247 178.5t298 66.5t286 -86.5t206.5 -234t75.5 -320.5q0 -168 -62 -322t-166 -265.5t-247.5 -177.5t-298.5 -66q-156 0 -286.5 86t-206 233t-75.5 320zM276 637q0 -215 128 -364.5t323 -149.5q118 0 230.5 54t197.5 144 t136.5 215.5t51.5 260.5q0 217 -127.5 365.5t-322.5 148.5q-118 0 -230.5 -53.5t-197.5 -143t-137 -215.5t-52 -262zM522 383l94 672q2 15 14 27t27 12h277q80 0 138 -59t58 -148q0 -187 -174 -254q8 -29 31 -110.5t33 -123.5q6 -20 -7 -37.5t-32 -17.5h-82q-10 0 -18.5 9 t-10.5 20l-55 241h-115l-32 -231q-2 -15 -13 -27t-26 -12h-78q-15 0 -23.5 12t-5.5 27zM715 750h157q41 0 71 34.5t30 81.5q0 37 -20 60.5t-52 23.5h-158z" />
<glyph unicode="&#xaf;" horiz-adv-x="763" d="M78 1217l8 57q3 17 14.5 28t26.5 11h473q14 0 23 -11t6 -28l-8 -57q-1 -15 -13.5 -26t-27.5 -11h-471q-15 0 -24 11t-7 26z" />
<glyph unicode="&#xb0;" horiz-adv-x="663" d="M162 1141q0 130 84 221.5t205 91.5q89 0 152 -70t63 -170q0 -130 -84.5 -221.5t-204.5 -91.5q-89 0 -152 70t-63 170zM311 1157q0 -47 23.5 -78.5t60.5 -31.5q48 0 84.5 44t36.5 105q0 44 -23.5 76.5t-60.5 32.5q-48 0 -84.5 -44t-36.5 -104z" />
<glyph unicode="&#xb1;" d="M164 145l10 86q1 15 14 27t27 12h719q13 0 21 -12t6 -27l-13 -86q-2 -15 -13 -27t-24 -12h-718q-13 0 -22 12t-7 27zM254 803l12 86q1 15 14 27t27 12h271l43 303q1 15 12.5 26t25.5 11h105q13 0 22 -11t7 -26l-43 -303h274q13 0 22 -12t7 -27l-13 -86q-2 -15 -14 -27 t-25 -12h-274l-31 -225q-1 -15 -14 -26t-27 -11h-102q-14 0 -23 11t-8 26l33 225h-270q-13 0 -23 12t-8 27z" />
<glyph unicode="&#xb2;" horiz-adv-x="538" d="M129 1051l4 30l248 267q68 68 68 118q0 30 -19.5 52t-54.5 22q-49 0 -96 -51q-15 -15 -27 2l-37 61q-9 18 10 37q9 9 27 22.5t61.5 30.5t87.5 17q80 0 132.5 -47t52.5 -113q0 -55 -25.5 -103t-77.5 -104l-133 -149h168q18 0 14 -21l-10 -71q-4 -19 -18 -19h-359 q-19 0 -16 19z" />
<glyph unicode="&#xb3;" horiz-adv-x="538" d="M141 1087q-12 15 2 29l39 49q14 15 29 0q41 -41 100 -41q41 0 70 24.5t29 63.5q0 31 -23.5 52.5t-67.5 21.5h-53q-25 0 -22 23l6 57q3 25 31 25h55q45 0 73.5 24.5t28.5 61.5q0 30 -20.5 48.5t-50.5 18.5q-37 0 -88 -41q-16 -12 -27 2l-39 58q-13 17 6 30q2 1 13.5 10 t20 14.5t24.5 14t30.5 14t35.5 9.5t42 4q83 0 136.5 -44t53.5 -112q0 -58 -35.5 -98t-80.5 -59v-5q33 -15 61.5 -51t28.5 -84q0 -87 -66 -140.5t-174 -53.5q-101 0 -168 75z" />
<glyph unicode="&#xb4;" horiz-adv-x="557" d="M137 1188q-9 24 17 39l319 186q8 8 26 6t25 -20l35 -90q14 -35 -18 -49l-336 -148q-37 -16 -45 12z" />
<glyph unicode="&#xb5;" horiz-adv-x="1054" d="M29 -442l190 1343q3 17 17.5 31t29.5 14h123q17 0 28 -13.5t9 -31.5l-72 -491q-18 -121 11 -180.5t114 -59.5q69 0 130.5 57t74.5 92l82 582q3 28 14.5 36.5t38.5 8.5h111q15 0 26.5 -14t8.5 -31l-121 -856q-1 -19 -15.5 -32t-31.5 -13h-60q-25 0 -32 39l-15 67 q-51 -56 -99 -83q-81 -46 -179 -46q-69 0 -121 19l-62 -438q-1 -18 -15 -31.5t-30 -13.5h-125q-15 0 -24 13t-6 32z" />
<glyph unicode="&#xb6;" horiz-adv-x="1413" d="M139 948q0 127 59.5 240t157.5 179.5t207 66.5h834q13 0 21.5 -12t6.5 -27l-10 -68q-1 -17 -13 -28t-26 -11h-159l-244 -1737q-3 -15 -14.5 -26.5t-26.5 -11.5h-84q-14 0 -23 11.5t-6 26.5l244 1735h-262l-244 -1735q-1 -15 -14 -26.5t-27 -11.5h-82q-13 0 -21.5 11.5 t-6.5 26.5l143 1024h-80q-140 0 -235 108t-95 265z" />
<glyph unicode="&#xb7;" horiz-adv-x="497" d="M92 512q0 69 51.5 119.5t118.5 50.5q56 0 92.5 -38.5t36.5 -96.5q0 -67 -52 -117.5t-120 -50.5q-55 0 -91 39t-36 94z" />
<glyph unicode="&#xb8;" horiz-adv-x="505" d="M47 -446q-17 20 6 53l25 37q24 38 51 14q35 -35 90 -35q46 0 80.5 27t34.5 74q0 63 -90 63q-17 0 -31.5 -3.5t-30.5 -9t-22 -7.5q-14 -6 -25 8.5t-2 27.5l127 203h137l-108 -137q14 4 41 4q64 0 103.5 -38t39.5 -109q0 -101 -68.5 -163.5t-181.5 -62.5q-57 0 -104.5 15 t-71.5 39z" />
<glyph unicode="&#xb9;" horiz-adv-x="393" d="M182 1460v56q0 13 15 22l149 100h84q6 0 10.5 -5.5t3.5 -12.5l-82 -569q0 -8 -5.5 -13.5t-12.5 -5.5h-100q-9 0 -14 5.5t-3 13.5l58 411l-88 -14q-15 -3 -15 12z" />
<glyph unicode="&#xba;" horiz-adv-x="655" d="M164 1057q0 181 75.5 288t209.5 107q89 0 141.5 -67.5t52.5 -182.5q0 -182 -75.5 -288.5t-209.5 -106.5q-93 0 -143.5 66.5t-50.5 183.5zM307 1063q0 -61 18 -96t50 -35q57 0 92 70.5t35 187.5q0 64 -18.5 100.5t-53.5 36.5q-56 0 -89.5 -73.5t-33.5 -190.5z" />
<glyph unicode="&#xbb;" horiz-adv-x="899" d="M42 144q-5 19 9 44l174 301l-73 285q-6 26 3 44t33 18h84q16 0 25 -17l147 -317q12 -24 -6 -49l-237 -303q-20 -25 -41 -25h-90q-23 0 -28 19zM390 144q-5 19 9 44l174 301l-73 285q-6 26 3.5 44t33.5 18h84q15 0 24 -17l148 -317q12 -23 -7 -49l-237 -303 q-20 -25 -41 -25h-90q-23 0 -28 19z" />
<glyph unicode="&#xbc;" horiz-adv-x="1300" d="M128.5 17.5q-7.5 17.5 4.5 37.5l823 1358q14 21 33 21h84q20 0 27.5 -18t-4.5 -38l-828 -1358q-3 -7 -12.5 -13.5t-19.5 -6.5h-80q-20 0 -27.5 17.5zM193 1255v56q0 14 14 22l149 101h84q6 0 11 -6t4 -13l-82 -569q0 -8 -5.5 -13.5t-13.5 -5.5h-100q-9 0 -13.5 5.5 t-2.5 13.5l57 411l-88 -14q-14 -3 -14 12zM655 135l13 82l358 383q6 6 14 6h66q6 0 11 -5.5t5 -12.5l-51 -365h72q7 0 11.5 -5t2.5 -11l-10 -70q-4 -18 -19 -18h-73l-13 -101q-4 -18 -22 -18h-90q-6 0 -11.5 5.5t-5.5 12.5l15 101h-258q-6 0 -11 5t-4 11zM809 223h137 l29 191z" />
<glyph unicode="&#xbd;" horiz-adv-x="1249" d="M128.5 17.5q-7.5 17.5 4.5 37.5l823 1358q14 21 33 21h84q20 0 27.5 -18t-4.5 -38l-828 -1358q-3 -7 -12.5 -13.5t-19.5 -6.5h-80q-20 0 -27.5 17.5zM193 1255v56q0 14 14 22l149 101h84q6 0 11 -6t4 -13l-82 -569q0 -8 -5.5 -13.5t-13.5 -5.5h-100q-9 0 -13.5 5.5 t-2.5 13.5l57 411l-88 -14q-14 -3 -14 12zM670 18l4 31l248 266q67 67 67 119q0 30 -19.5 52t-54.5 22q-49 0 -96 -51q-14 -14 -26 2l-37 61q-9 18 10 37q9 9 27 22.5t61.5 30.5t87.5 17q80 0 132 -47t52 -113q0 -55 -25.5 -103.5t-76.5 -103.5l-133 -149h168q17 0 14 -21 l-10 -72q-4 -18 -19 -18h-358q-19 0 -16 18z" />
<glyph unicode="&#xbe;" horiz-adv-x="1400" d="M147 883q-11 14 3 28l38 50q14 15 29 0q41 -41 100 -41q41 0 70 24.5t29 63.5q0 31 -23 52t-67 21h-54q-25 0 -22 23l6 57q3 25 31 25h55q45 0 73.5 24.5t28.5 61.5q0 30 -20.5 48.5t-50.5 18.5q-37 0 -88 -41q-16 -12 -27 2l-39 58q-13 18 6 31q2 1 14 10t19.5 14t24 14 t31 14t35.5 9t42 4q83 0 137 -44t54 -112q0 -58 -35.5 -98t-81.5 -59v-4q33 -15 61.5 -51t28.5 -85q0 -87 -66 -140.5t-174 -53.5q-100 0 -168 76zM228.5 17.5q-7.5 17.5 4.5 37.5l824 1358q14 21 33 21h84q20 0 27 -18t-5 -38l-827 -1358q-3 -7 -13 -13.5t-20 -6.5h-80 q-20 0 -27.5 17.5zM756 135l12 82l358 383q6 6 15 6h65q6 0 11.5 -5.5t5.5 -12.5l-52 -365h72q7 0 11.5 -5t2.5 -11l-10 -70q-4 -18 -18 -18h-74l-12 -101q-4 -18 -23 -18h-90q-6 0 -11 5.5t-5 12.5l14 101h-258q-6 0 -10.5 5t-3.5 11zM909 223h138l28 191z" />
<glyph unicode="&#xbf;" horiz-adv-x="866" d="M-35 -215q0 52 15 99t34 78.5t55 66t59.5 52t64.5 46.5q58 39 87 71.5t35 73.5l11 76q6 41 43 41h123q14 0 21.5 -11t6.5 -28l-10 -86q-6 -48 -25.5 -88t-53 -75t-61.5 -57.5t-75 -55.5q-66 -46 -98.5 -87t-32.5 -100q0 -55 38 -91t91 -36q69 0 134 44.5t110 95.5 q11 13 24.5 12t24.5 -12l69 -66q29 -26 2 -57q-138 -166 -323 -194q-33 -5 -66 -5q-129 0 -216 86.5t-87 206.5zM352 807q0 65 48 112.5t112 47.5q52 0 85.5 -36t33.5 -89q0 -65 -48 -112.5t-110 -47.5q-53 0 -87 36t-34 89z" />
<glyph unicode="&#xc0;" horiz-adv-x="1263" d="M-51 16.5q-7 16.5 4 36.5l762 1379q11 22 35 22h18q22 0 29 -22l370 -1379q5 -20 -7 -36.5t-32 -16.5h-122q-36 0 -43 31l-74 284h-563l-158 -284q-18 -31 -51 -31h-140q-21 0 -28 16.5zM412 487h430l-133 564h-9zM614 1788l54 84q18 27 49 6l268 -186q8 -5 10.5 -16 t-4.5 -23l-30 -54q-15 -24 -48 -8l-286 144q-35 17 -13 53z" />
<glyph unicode="&#xc1;" horiz-adv-x="1263" d="M-51 16.5q-7 16.5 4 36.5l762 1379q11 22 35 22h18q22 0 29 -22l370 -1379q5 -20 -7 -36.5t-32 -16.5h-122q-36 0 -43 31l-74 284h-563l-158 -284q-18 -31 -51 -31h-140q-21 0 -28 16.5zM412 487h430l-133 564h-9zM590 1659q-9 25 16 39l320 186q8 8 26 6t25 -20l35 -90 q14 -35 -19 -49l-336 -148q-37 -16 -45 12z" />
<glyph unicode="&#xc2;" horiz-adv-x="1263" d="M-51 16.5q-7 16.5 4 36.5l762 1379q11 22 35 22h18q22 0 29 -22l370 -1379q5 -20 -7 -36.5t-32 -16.5h-122q-36 0 -43 31l-74 284h-563l-158 -284q-18 -31 -51 -31h-140q-21 0 -28 16.5zM412 487h430l-133 564h-9zM520 1632q-18 30 10 49l258 201q10 8 23.5 8t22.5 -8 l200 -201q21 -21 4 -43l-37 -45q-12 -13 -20.5 -14.5t-26.5 10.5l-157 123l-203 -131q-20 -11 -27 -8.5t-18 18.5z" />
<glyph unicode="&#xc3;" horiz-adv-x="1263" d="M-51 16.5q-7 16.5 4 36.5l762 1379q11 22 35 22h18q22 0 29 -22l370 -1379q5 -20 -7 -36.5t-32 -16.5h-122q-36 0 -43 31l-74 284h-563l-158 -284q-18 -31 -51 -31h-140q-21 0 -28 16.5zM412 487h430l-133 564h-9zM514 1698q8 19 23.5 43.5t40.5 55.5t61.5 52t75.5 21 q36 0 64.5 -20.5t43.5 -45t33.5 -45t36.5 -20.5q20 0 38.5 16t26 28t21.5 38q9 17 23.5 22t27.5 -4l39 -29q30 -22 4 -65q-86 -154 -190 -154q-31 0 -60 21t-46 45.5t-37 45.5t-35 21q-20 0 -39 -18t-25.5 -30l-19.5 -36q-10 -19 -19 -24t-27 4l-53 31q-21 16 -8 47z" />
<glyph unicode="&#xc4;" horiz-adv-x="1263" d="M-51 16.5q-7 16.5 4 36.5l762 1379q11 22 35 22h18q22 0 29 -22l370 -1379q5 -20 -7 -36.5t-32 -16.5h-122q-36 0 -43 31l-74 284h-563l-158 -284q-18 -31 -51 -31h-140q-21 0 -28 16.5zM412 487h430l-133 564h-9zM455 1704q0 56 43 98.5t96 42.5q47 0 79 -32.5t32 -79.5 q0 -56 -45 -100t-99 -44q-46 0 -76 33.5t-30 81.5zM891 1704q0 56 43 98.5t96 42.5q47 0 79 -32.5t32 -79.5q0 -56 -45 -100t-99 -44q-46 0 -76 33.5t-30 81.5z" />
<glyph unicode="&#xc5;" horiz-adv-x="1263" d="M-51 16.5q-7 16.5 4 36.5l762 1379q11 22 35 22h18q22 0 29 -22l370 -1379q5 -20 -7 -36.5t-32 -16.5h-122q-36 0 -43 31l-74 284h-563l-158 -284q-18 -31 -51 -31h-140q-21 0 -28 16.5zM412 487h430l-133 564h-9zM598 1745q0 108 69.5 183t170.5 75q72 0 125 -58 t53 -139q0 -107 -70.5 -182.5t-171.5 -75.5q-73 0 -124.5 57.5t-51.5 139.5zM709 1761q0 -39 24 -69.5t58 -30.5q41 0 74.5 40t33.5 89q0 39 -22 66.5t-56 27.5q-42 0 -77 -36.5t-35 -86.5z" />
<glyph unicode="&#xc6;" horiz-adv-x="1675" d="M-83 16.5q-5 16.5 9 36.5l926 1317q24 34 43.5 49t46.5 15h721q13 0 22 -12t7 -27l-17 -115q-2 -15 -14 -27t-27 -12h-571l-59 -418h483q13 0 22 -12t7 -27l-17 -114q-3 -17 -15 -28t-26 -11h-481l-62 -441h572q15 0 24 -11.5t7 -26.5l-17 -113q-2 -15 -14 -27t-27 -12 h-743q-15 0 -24 12t-7 27l39 272h-387l-193 -284q-19 -27 -45 -27h-157q-21 0 -26 16.5zM465 487h285l81 564z" />
<glyph unicode="&#xc7;" horiz-adv-x="1308" d="M119 635q0 170 61.5 322.5t166 261t248 172t300.5 63.5q134 0 234 -47.5t186 -142.5q10 -12 8 -29t-14 -29l-84 -76q-31 -30 -64 3q-48 52 -123 85t-155 33q-102 0 -200.5 -51t-171 -135t-117 -197.5t-44.5 -232.5q0 -189 100 -313.5t265 -124.5q93 0 166 34.5t153 98.5 q34 28 58 -2l82 -95q8 -11 5 -27.5t-14 -27.5q-100 -94 -213.5 -143.5t-224.5 -54.5l-88 -111q14 4 41 4q65 0 109.5 -38.5t44.5 -108.5q0 -100 -73.5 -163t-187.5 -63q-57 0 -104.5 15t-71.5 39q-17 20 6 53l25 37q24 38 51 14q35 -35 90 -35q115 0 115 84q0 60 -80 60 q-21 0 -39.5 -3.5t-41 -10.5t-23.5 -7q-14 -6 -25 9t-2 28l125 205q-144 24 -253.5 114.5t-167.5 228.5t-58 304z" />
<glyph unicode="&#xc8;" horiz-adv-x="1093" d="M109 39l190 1356q1 15 13 27t26 12h743q14 0 22.5 -11.5t6.5 -27.5l-16 -115q-2 -15 -13 -27t-26 -12h-568l-59 -418h477q13 0 22 -12t7 -27l-16 -114q-3 -17 -14 -28t-25 -11h-478l-61 -441h567q13 0 22 -11.5t7 -26.5l-16 -113q-2 -15 -14 -27t-27 -12h-742 q-15 0 -23 12t-5 27zM578 1788l53 84q18 27 49 6l268 -186q8 -5 10.5 -16t-4.5 -23l-30 -54q-15 -24 -47 -8l-287 144q-34 16 -12 53z" />
<glyph unicode="&#xc9;" horiz-adv-x="1093" d="M109 39l190 1356q1 15 13 27t26 12h743q14 0 22.5 -11.5t6.5 -27.5l-16 -115q-2 -15 -13 -27t-26 -12h-568l-59 -418h477q13 0 22 -12t7 -27l-16 -114q-3 -17 -14 -28t-25 -11h-478l-61 -441h567q13 0 22 -11.5t7 -26.5l-16 -113q-2 -15 -14 -27t-27 -12h-742 q-15 0 -23 12t-5 27zM553 1659q-9 25 16 39l320 186q8 8 26 6t25 -20l35 -90q14 -35 -19 -49l-335 -148q-38 -16 -46 12z" />
<glyph unicode="&#xca;" horiz-adv-x="1093" d="M109 39l190 1356q1 15 13 27t26 12h743q14 0 22.5 -11.5t6.5 -27.5l-16 -115q-2 -15 -13 -27t-26 -12h-568l-59 -418h477q13 0 22 -12t7 -27l-16 -114q-3 -17 -14 -28t-25 -11h-478l-61 -441h567q13 0 22 -11.5t7 -26.5l-16 -113q-2 -15 -14 -27t-27 -12h-742 q-15 0 -23 12t-5 27zM487 1632q-18 30 11 49l258 201q24 17 45 0l200 -201q22 -22 5 -43l-37 -45q-12 -13 -20.5 -14.5t-26.5 10.5l-158 123l-203 -131q-20 -11 -27 -8.5t-18 18.5z" />
<glyph unicode="&#xcb;" horiz-adv-x="1093" d="M109 39l190 1356q1 15 13 27t26 12h743q14 0 22.5 -11.5t6.5 -27.5l-16 -115q-2 -15 -13 -27t-26 -12h-568l-59 -418h477q13 0 22 -12t7 -27l-16 -114q-3 -17 -14 -28t-25 -11h-478l-61 -441h567q13 0 22 -11.5t7 -26.5l-16 -113q-2 -15 -14 -27t-27 -12h-742 q-15 0 -23 12t-5 27zM412 1704q0 56 43 98.5t96 42.5q47 0 79 -32.5t32 -79.5q0 -56 -45 -100t-99 -44q-46 0 -76 33.5t-30 81.5zM848 1704q0 56 43 98.5t96 42.5q47 0 79 -32.5t32 -79.5q0 -56 -45 -100t-99 -44q-46 0 -76 33.5t-30 81.5z" />
<glyph unicode="&#xcc;" horiz-adv-x="579" d="M109 39l190 1356q1 15 13 27t26 12h143q14 0 23 -12t6 -27l-191 -1356q-2 -15 -13.5 -27t-24.5 -12h-144q-14 0 -22.5 12t-5.5 27zM262 1788l53 84q18 27 50 6l268 -186q8 -5 10.5 -16t-4.5 -23l-31 -54q-15 -24 -47 -8l-287 144q-34 16 -12 53z" />
<glyph unicode="&#xcd;" horiz-adv-x="579" d="M109 39l190 1356q1 15 13 27t26 12h143q14 0 23 -12t6 -27l-191 -1356q-2 -15 -13.5 -27t-24.5 -12h-144q-14 0 -22.5 12t-5.5 27zM238 1659q-9 25 16 39l319 186q8 8 26.5 6t25.5 -20l34 -90q14 -35 -18 -49l-336 -148q-37 -16 -45 12z" />
<glyph unicode="&#xce;" horiz-adv-x="579" d="M109 39l190 1356q1 15 13 27t26 12h143q14 0 23 -12t6 -27l-191 -1356q-2 -15 -13.5 -27t-24.5 -12h-144q-14 0 -22.5 12t-5.5 27zM172 1632q-18 30 10 49l258 201q24 17 45 0l201 -201q21 -21 4 -43l-37 -45q-12 -13 -20.5 -14.5t-26.5 10.5l-157 123l-203 -131 q-20 -11 -27 -8.5t-18 18.5z" />
<glyph unicode="&#xcf;" horiz-adv-x="579" d="M102 1704q0 56 43.5 98.5t96.5 42.5q47 0 78.5 -32.5t31.5 -79.5q0 -56 -45 -100t-98 -44q-46 0 -76.5 33.5t-30.5 81.5zM109 39l190 1356q1 15 13 27t26 12h143q14 0 23 -12t6 -27l-191 -1356q-2 -15 -13.5 -27t-24.5 -12h-144q-14 0 -22.5 12t-5.5 27zM539 1704 q0 56 43 98.5t96 42.5q47 0 78.5 -32.5t31.5 -79.5q0 -56 -45 -100t-98 -44q-46 0 -76 33.5t-30 81.5z" />
<glyph unicode="&#xd0;" horiz-adv-x="1404" d="M111 39l86 620h-54q-13 0 -21 12t-5 27l4 21q3 16 13.5 27.5t23.5 11.5h53l90 637q1 15 13 27t26 12h428q157 0 285.5 -87t199 -229.5t70.5 -306.5t-59.5 -313.5t-160 -259t-241 -174t-295.5 -64.5h-430q-13 0 -21 12t-5 27zM340 195h229q106 0 203 46.5t168.5 126.5 t113.5 193t42 240q0 190 -104.5 314t-274.5 124h-230l-67 -481h328q15 0 24 -12t6 -27l-4 -23q-3 -15 -14.5 -26t-26.5 -11h-327z" />
<glyph unicode="&#xd1;" horiz-adv-x="1449" d="M109 39l194 1378q1 15 14 26t27 11h18q21 0 30.5 -5.5t25.5 -31.5l618 -985h4l129 963q2 15 13 27t26 12h142q13 0 22.5 -12t7.5 -27l-194 -1379q-1 -15 -14 -25.5t-27 -10.5h-21q-16 0 -22.5 1t-15.5 8t-19 23l-621 1006h-2l-127 -979q-2 -15 -14 -27t-27 -12h-137 q-13 0 -22.5 12t-7.5 27zM588 1698q8 19 23 43t40.5 55.5t61.5 52.5t75 21q36 0 65 -20.5t44 -45t33.5 -45t36.5 -20.5q20 0 38.5 16t26 28t21.5 38q9 17 23.5 22t27.5 -4l39 -29q30 -22 4 -65q-86 -154 -191 -154q-31 0 -60 21t-46 45.5t-37 45.5t-35 21q-20 0 -39 -18 t-25.5 -30l-19.5 -36q-10 -19 -18.5 -24t-26.5 4l-53 31q-21 16 -8 47z" />
<glyph unicode="&#xd2;" horiz-adv-x="1538" d="M117 614q0 174 60.5 330t164 267.5t246 177t301.5 65.5q162 0 293.5 -88.5t203.5 -235t72 -317.5q0 -173 -61 -328t-164.5 -265.5t-246 -175t-300.5 -64.5q-122 0 -229 51.5t-181 138t-116.5 202.5t-42.5 242zM332 641q0 -199 107 -328t274 -129q147 0 269 81.5 t191.5 219.5t69.5 301q0 211 -105.5 337t-275.5 126q-144 0 -266 -82.5t-193 -222.5t-71 -303zM739 1788l54 84q18 27 49 6l268 -186q8 -5 10.5 -16t-4.5 -23l-31 -54q-15 -24 -47 -8l-286 144q-35 17 -13 53z" />
<glyph unicode="&#xd3;" horiz-adv-x="1538" d="M117 614q0 174 60.5 330t164 267.5t246 177t301.5 65.5q162 0 293.5 -88.5t203.5 -235t72 -317.5q0 -173 -61 -328t-164.5 -265.5t-246 -175t-300.5 -64.5q-122 0 -229 51.5t-181 138t-116.5 202.5t-42.5 242zM332 641q0 -199 107 -328t274 -129q147 0 269 81.5 t191.5 219.5t69.5 301q0 211 -105.5 337t-275.5 126q-144 0 -266 -82.5t-193 -222.5t-71 -303zM715 1659q-9 25 16 39l320 186q8 8 26 6t25 -20l35 -90q14 -35 -19 -49l-336 -148q-37 -16 -45 12z" />
<glyph unicode="&#xd4;" horiz-adv-x="1538" d="M117 614q0 174 60.5 330t164 267.5t246 177t301.5 65.5q162 0 293.5 -88.5t203.5 -235t72 -317.5q0 -173 -61 -328t-164.5 -265.5t-246 -175t-300.5 -64.5q-122 0 -229 51.5t-181 138t-116.5 202.5t-42.5 242zM332 641q0 -199 107 -328t274 -129q147 0 269 81.5 t191.5 219.5t69.5 301q0 211 -105.5 337t-275.5 126q-144 0 -266 -82.5t-193 -222.5t-71 -303zM647 1632q-18 30 10 49l258 201q11 8 24 8t22 -8l200 -201q21 -21 4 -43l-37 -45q-12 -13 -20.5 -14.5t-26.5 10.5l-157 123l-203 -131q-20 -11 -27 -8.5t-18 18.5z" />
<glyph unicode="&#xd5;" horiz-adv-x="1538" d="M117 614q0 174 60.5 330t164 267.5t246 177t301.5 65.5q162 0 293.5 -88.5t203.5 -235t72 -317.5q0 -173 -61 -328t-164.5 -265.5t-246 -175t-300.5 -64.5q-122 0 -229 51.5t-181 138t-116.5 202.5t-42.5 242zM332 641q0 -199 107 -328t274 -129q147 0 269 81.5 t191.5 219.5t69.5 301q0 211 -105.5 337t-275.5 126q-144 0 -266 -82.5t-193 -222.5t-71 -303zM641 1698q8 19 23.5 43.5t40.5 55.5t61.5 52t75.5 21q36 0 64.5 -20.5t43.5 -45t33.5 -45t36.5 -20.5q20 0 38.5 16t26 28t21.5 38q9 17 23.5 22t27.5 -4l39 -29q30 -22 4 -65 q-86 -154 -190 -154q-31 0 -60 21t-46.5 45.5t-37.5 45.5t-35 21q-6 0 -12.5 -2t-11.5 -4t-10.5 -7t-9 -8.5t-9 -10.5t-7.5 -10.5t-7 -12t-6 -10.5t-6 -11l-4 -8q-10 -19 -19 -24t-27 4l-53 31q-21 16 -8 47z" />
<glyph unicode="&#xd6;" horiz-adv-x="1538" d="M117 614q0 174 60.5 330t164 267.5t246 177t301.5 65.5q162 0 293.5 -88.5t203.5 -235t72 -317.5q0 -173 -61 -328t-164.5 -265.5t-246 -175t-300.5 -64.5q-122 0 -229 51.5t-181 138t-116.5 202.5t-42.5 242zM332 641q0 -199 107 -328t274 -129q147 0 269 81.5 t191.5 219.5t69.5 301q0 211 -105.5 337t-275.5 126q-144 0 -266 -82.5t-193 -222.5t-71 -303zM584 1704q0 56 43 98.5t96 42.5q47 0 79 -32.5t32 -79.5q0 -56 -45 -100t-99 -44q-46 0 -76 33.5t-30 81.5zM1020 1704q0 56 43 98.5t96 42.5q47 0 79 -32.5t32 -79.5 q0 -56 -45 -100t-99 -44q-46 0 -76 33.5t-30 81.5z" />
<glyph unicode="&#xd7;" d="M270.5 464q3.5 17 14.5 28l233 225l-164 219q-7 11 -5 27.5t13 27.5l62 53q12 10 27 10t24 -10l164 -219l231 230q11 10 24.5 9t23.5 -11l61 -70q9 -9 7 -25.5t-13 -27.5l-236 -232l166 -215q9 -10 6.5 -28t-14.5 -27l-64 -51q-12 -11 -26.5 -11.5t-22.5 9.5l-166 217 l-231 -223q-11 -10 -24.5 -9.5t-22.5 9.5l-62 69q-9 9 -5.5 26z" />
<glyph unicode="&#xd8;" horiz-adv-x="1538" d="M69.5 71.5q1.5 16.5 12.5 26.5l143 138q-108 164 -108 378q0 174 60.5 330t164 267.5t246 177t301.5 65.5q121 0 225.5 -50t181.5 -140l148 139q12 11 26 11t23 -11l12 -14q7 -11 5 -27t-13 -27l-147 -141q108 -168 108 -381q0 -173 -61 -328t-164.5 -265.5t-246 -175 t-300.5 -64.5q-122 0 -226 49t-181 137l-142 -137q-12 -10 -26 -9.5t-23 11.5l-12 14q-8 10 -6.5 26.5zM332 641q0 -137 57 -248l750 717q-110 139 -277 139q-100 0 -197 -49t-170 -130.5t-118 -194.5t-45 -234zM438 317q110 -133 275 -133q101 0 198 48t170 128.5 t117.5 192.5t44.5 233q0 136 -57 250z" />
<glyph unicode="&#xd9;" horiz-adv-x="1355" d="M154 414q0 39 6 82l125 899q3 15 15.5 27t25.5 12h147q15 0 23.5 -12t5.5 -27l-123 -885q-4 -25 -4 -70q0 -121 64.5 -187.5t181.5 -66.5q135 0 225 84.5t112 235.5l125 889q1 15 13 27t26 12h148q14 0 22.5 -12t5.5 -27l-124 -899q-32 -235 -189 -375.5t-393 -140.5 q-189 0 -313.5 119t-124.5 315zM653 1788l54 84q18 27 49 6l268 -186q8 -5 10.5 -16t-4.5 -23l-31 -54q-15 -24 -47 -8l-286 144q-35 17 -13 53z" />
<glyph unicode="&#xda;" horiz-adv-x="1355" d="M154 414q0 39 6 82l125 899q3 15 15.5 27t25.5 12h147q15 0 23.5 -12t5.5 -27l-123 -885q-4 -25 -4 -70q0 -121 64.5 -187.5t181.5 -66.5q135 0 225 84.5t112 235.5l125 889q1 15 13 27t26 12h148q14 0 22.5 -12t5.5 -27l-124 -899q-32 -235 -189 -375.5t-393 -140.5 q-189 0 -313.5 119t-124.5 315zM629 1659q-9 25 16 39l320 186q8 8 26 6t25 -20l35 -90q14 -35 -19 -49l-336 -148q-37 -16 -45 12z" />
<glyph unicode="&#xdb;" horiz-adv-x="1355" d="M154 414q0 39 6 82l125 899q3 15 15.5 27t25.5 12h147q15 0 23.5 -12t5.5 -27l-123 -885q-4 -25 -4 -70q0 -121 64.5 -187.5t181.5 -66.5q135 0 225 84.5t112 235.5l125 889q1 15 13 27t26 12h148q14 0 22.5 -12t5.5 -27l-124 -899q-32 -235 -189 -375.5t-393 -140.5 q-189 0 -313.5 119t-124.5 315zM559 1632q-18 30 10 49l258 201q24 17 45 0l201 -201q21 -21 4 -43l-37 -45q-12 -13 -20.5 -14.5t-26.5 10.5l-157 123l-203 -131q-20 -11 -27 -8.5t-18 18.5z" />
<glyph unicode="&#xdc;" horiz-adv-x="1355" d="M154 414q0 39 6 82l125 899q3 15 15.5 27t25.5 12h147q15 0 23.5 -12t5.5 -27l-123 -885q-4 -25 -4 -70q0 -121 64.5 -187.5t181.5 -66.5q135 0 225 84.5t112 235.5l125 889q1 15 13 27t26 12h148q14 0 22.5 -12t5.5 -27l-124 -899q-32 -235 -189 -375.5t-393 -140.5 q-189 0 -313.5 119t-124.5 315zM498 1704q0 56 43 98.5t96 42.5q47 0 79 -32.5t32 -79.5q0 -56 -45 -100t-99 -44q-46 0 -76 33.5t-30 81.5zM934 1704q0 56 43 98.5t96 42.5q47 0 79 -32.5t32 -79.5q0 -56 -45 -100t-99 -44q-46 0 -76 33.5t-30 81.5z" />
<glyph unicode="&#xdd;" horiz-adv-x="1116" d="M131 1380q-8 20 2.5 37t32.5 17h145q25 0 35 -23l240 -520h4l393 520q19 23 41 23h162q23 0 27.5 -17t-9.5 -37l-528 -688l-92 -653q-1 -15 -14 -27t-27 -12h-142q-15 0 -23.5 11.5t-6.5 27.5l92 651zM494 1659q-9 25 16 39l319 186q8 8 26.5 6t25.5 -20l34 -90 q14 -35 -18 -49l-336 -148q-37 -16 -45 12z" />
<glyph unicode="&#xde;" horiz-adv-x="1132" d="M109 39l190 1356q3 16 15 27.5t26 11.5h141q13 0 23 -12t8 -27l-33 -221h250q146 1 250 -116t104 -280q0 -140 -62.5 -259t-173.5 -189t-245 -70h-250l-30 -221q-3 -15 -15.5 -27t-25.5 -12h-142q-15 0 -23.5 11.5t-6.5 27.5zM381 461h237q99 0 176.5 88.5t77.5 210.5 q0 90 -52 150.5t-130 60.5h-237z" />
<glyph unicode="&#xdf;" horiz-adv-x="1116" d="M2 -440l182 1310q19 138 54 240t92.5 182t147 121t208.5 41q163 0 257.5 -91t94.5 -249q0 -57 -25 -112t-61 -95.5t-71.5 -76t-60.5 -69t-25 -59.5q0 -23 31 -59.5t68 -74t68 -100.5t31 -132q0 -159 -107.5 -259t-316.5 -100q-35 0 -47.5 0.5t-34.5 4t-30 12.5t-8 24 q0 11 2 17l14 102q9 41 41 39q40 -6 88 -6q78 0 132 42.5t54 121.5q0 35 -20.5 72.5t-49.5 70t-58 65.5t-49.5 72.5t-20.5 77.5q0 46 25 94t61 88.5t71.5 79.5t60.5 81.5t25 80.5q0 64 -38.5 106t-118.5 42q-109 0 -178.5 -106.5t-96.5 -295.5l-184 -1302q-1 -19 -15.5 -33 t-31.5 -14h-127q-18 0 -27 14t-6 33z" />
<glyph unicode="&#xe0;" horiz-adv-x="1064" d="M72 408q0 148 59 276t166.5 205.5t237.5 77.5q49 0 94.5 -14t77 -34.5t49.5 -36.5t28 -28l31 59q8 14 20.5 23.5t24.5 9.5h68q15 0 25 -14t8 -31l-111 -856q-1 -18 -16 -31.5t-31 -13.5h-74q-30 0 -33 33l-6 69q-1 -1 -10 -9.5t-17.5 -16t-24.5 -20t-31.5 -22.5t-38 -21 t-44.5 -18.5t-50 -12.5t-56 -5q-152 0 -249 117.5t-97 313.5zM266 438q0 -126 52.5 -197t142.5 -71q53 0 106 32t80 61.5t35 45.5l45 373q-3 4 -9.5 10t-26.5 22.5t-42.5 29t-56.5 22.5t-68 10q-75 0 -135 -49.5t-91.5 -126t-31.5 -162.5zM375 1315l53 84q18 27 49 6 l268 -186q8 -5 11 -16t-4 -23l-31 -54q-15 -24 -47 -8l-287 144q-34 16 -12 53z" />
<glyph unicode="&#xe1;" horiz-adv-x="1064" d="M72 408q0 148 59 276t166.5 205.5t237.5 77.5q49 0 94.5 -14t77 -34.5t49.5 -36.5t28 -28l31 59q8 14 20.5 23.5t24.5 9.5h68q15 0 25 -14t8 -31l-111 -856q-1 -18 -16 -31.5t-31 -13.5h-74q-30 0 -33 33l-6 69q-1 -1 -10 -9.5t-17.5 -16t-24.5 -20t-31.5 -22.5t-38 -21 t-44.5 -18.5t-50 -12.5t-56 -5q-152 0 -249 117.5t-97 313.5zM266 438q0 -126 52.5 -197t142.5 -71q53 0 106 32t80 61.5t35 45.5l45 373q-3 4 -9.5 10t-26.5 22.5t-42.5 29t-56.5 22.5t-68 10q-75 0 -135 -49.5t-91.5 -126t-31.5 -162.5zM434 1188q-9 24 17 39l319 186 q8 8 26 6t25 -20l35 -90q14 -35 -18 -49l-336 -148q-37 -16 -45 12z" />
<glyph unicode="&#xe2;" horiz-adv-x="1064" d="M72 408q0 148 59 276t166.5 205.5t237.5 77.5q49 0 94.5 -14t77 -34.5t49.5 -36.5t28 -28l31 59q8 14 20.5 23.5t24.5 9.5h68q15 0 25 -14t8 -31l-111 -856q-1 -18 -16 -31.5t-31 -13.5h-74q-30 0 -33 33l-6 69q-1 -1 -10 -9.5t-17.5 -16t-24.5 -20t-31.5 -22.5t-38 -21 t-44.5 -18.5t-50 -12.5t-56 -5q-152 0 -249 117.5t-97 313.5zM266 438q0 -126 52.5 -197t142.5 -71q53 0 106 32t80 61.5t35 45.5l45 373q-3 4 -9.5 10t-26.5 22.5t-42.5 29t-56.5 22.5t-68 10q-75 0 -135 -49.5t-91.5 -126t-31.5 -162.5zM344 1155q-18 30 10 49l258 201 q24 17 45 0l201 -201q21 -21 4 -43l-37 -45q-12 -13 -20.5 -14.5t-26.5 10.5l-157 123l-203 -131q-20 -11 -27 -8.5t-18 18.5z" />
<glyph unicode="&#xe3;" horiz-adv-x="1064" d="M72 408q0 148 59 276t166.5 205.5t237.5 77.5q49 0 94.5 -14t77 -34.5t49.5 -36.5t28 -28l31 59q8 14 20.5 23.5t24.5 9.5h68q15 0 25 -14t8 -31l-111 -856q-1 -18 -16 -31.5t-31 -13.5h-74q-30 0 -33 33l-6 69q-1 -1 -10 -9.5t-17.5 -16t-24.5 -20t-31.5 -22.5t-38 -21 t-44.5 -18.5t-50 -12.5t-56 -5q-152 0 -249 117.5t-97 313.5zM266 438q0 -126 52.5 -197t142.5 -71q53 0 106 32t80 61.5t35 45.5l45 373q-3 4 -9.5 10t-26.5 22.5t-42.5 29t-56.5 22.5t-68 10q-75 0 -135 -49.5t-91.5 -126t-31.5 -162.5zM319 1241q8 19 23.5 43.5 t40.5 55.5t61.5 52t75.5 21q36 0 64.5 -20.5t43.5 -45t33.5 -45t36.5 -20.5q20 0 38.5 16t26 28t21.5 38q9 17 24 22t28 -4l38 -28q31 -23 5 -66q-85 -153 -191 -153q-31 0 -60 21t-46 45.5t-37 45.5t-35 21q-20 0 -39 -18t-25.5 -30l-19.5 -36q-10 -19 -18.5 -24t-26.5 3 l-53 31q-22 17 -9 47z" />
<glyph unicode="&#xe4;" horiz-adv-x="1064" d="M72 408q0 148 59 276t166.5 205.5t237.5 77.5q49 0 94.5 -14t77 -34.5t49.5 -36.5t28 -28l31 59q8 14 20.5 23.5t24.5 9.5h68q15 0 25 -14t8 -31l-111 -856q-1 -18 -16 -31.5t-31 -13.5h-74q-30 0 -33 33l-6 69q-1 -1 -10 -9.5t-17.5 -16t-24.5 -20t-31.5 -22.5t-38 -21 t-44.5 -18.5t-50 -12.5t-56 -5q-152 0 -249 117.5t-97 313.5zM266 438q0 -126 52.5 -197t142.5 -71q53 0 106 32t80 61.5t35 45.5l45 373q-3 4 -9.5 10t-26.5 22.5t-42.5 29t-56.5 22.5t-68 10q-75 0 -135 -49.5t-91.5 -126t-31.5 -162.5zM303 1262q0 58 43 100.5t98 42.5 q47 0 78 -32.5t31 -82.5q0 -56 -43 -98.5t-98 -42.5q-47 0 -78 32.5t-31 80.5zM670 1262q0 58 43 100.5t96 42.5q49 0 80 -32.5t31 -82.5q0 -56 -43.5 -98.5t-98.5 -42.5q-48 0 -78 32.5t-30 80.5z" />
<glyph unicode="&#xe5;" horiz-adv-x="1064" d="M72 408q0 148 59 276t166.5 205.5t237.5 77.5q49 0 94.5 -14t77 -34.5t49.5 -36.5t28 -28l31 59q8 14 20.5 23.5t24.5 9.5h68q15 0 25 -14t8 -31l-111 -856q-1 -18 -16 -31.5t-31 -13.5h-74q-30 0 -33 33l-6 69q-1 -1 -10 -9.5t-17.5 -16t-24.5 -20t-31.5 -22.5t-38 -21 t-44.5 -18.5t-50 -12.5t-56 -5q-152 0 -249 117.5t-97 313.5zM266 438q0 -126 52.5 -197t142.5 -71q53 0 106 32t80 61.5t35 45.5l45 373q-3 4 -9.5 10t-26.5 22.5t-42.5 29t-56.5 22.5t-68 10q-75 0 -135 -49.5t-91.5 -126t-31.5 -162.5zM403 1241q0 108 69.5 183t170.5 75 q73 0 125.5 -57.5t52.5 -138.5q0 -108 -70 -183.5t-171 -75.5q-73 0 -125 57.5t-52 139.5zM514 1257q0 -39 24 -69.5t58 -30.5q41 0 75 40t34 89q0 39 -22 66.5t-56 27.5q-43 0 -78 -36.5t-35 -86.5z" />
<glyph unicode="&#xe6;" horiz-adv-x="1447" d="M33 244q0 156 103.5 255t271.5 99q42 0 84.5 -3t63.5 -6l22 -3q11 117 -5.5 162t-85.5 45q-33 0 -73 -6.5t-62 -11.5t-62.5 -17t-43.5 -13q-14 -3 -26 7.5t-15 29.5l-15 86q-3 17 10 29.5t31 17.5q160 52 299 52q65 0 111.5 -21t69 -48t41.5 -67q147 136 319 136 q137 0 226 -70.5t89 -196.5q0 -65 -28 -117t-76.5 -84.5t-110.5 -54t-134.5 -30t-142.5 -8.5t-140 8q-8 -102 44 -176t146 -74q49 0 106 20.5t93 46.5q23 13 33 14.5t24 -12.5l55 -81q24 -35 -10 -64q-61 -48 -148 -79.5t-186 -31.5q-176 0 -284 158q-52 -62 -137.5 -110 t-192.5 -48q-115 0 -189.5 73.5t-74.5 193.5zM229 281q0 -58 35.5 -87.5t79.5 -29.5q58 0 111 31.5t77 62.5l25 176q-55 17 -143 17q-79 0 -132 -45t-53 -125zM791 569q399 -30 399 125q0 45 -39 72t-104 27q-94 0 -163.5 -65t-92.5 -159z" />
<glyph unicode="&#xe7;" horiz-adv-x="935" d="M72 403q0 116 41.5 221.5t111.5 180t165 118.5t198 44q94 0 169.5 -45t116.5 -119q8 -17 3.5 -36.5t-19.5 -31.5l-70 -51q-14 -11 -26 -10t-17.5 6t-13.5 16q-60 80 -160 80q-121 0 -208 -107t-87 -251q0 -111 50 -179.5t141 -68.5q47 0 91 23.5t66 46t50 57.5 q32 32 65 2l64 -57q32 -29 4 -68q-113 -154 -281 -188l-92 -117q14 4 41 4q65 0 109.5 -38.5t44.5 -108.5q0 -100 -73 -163t-187 -63q-57 0 -104.5 15t-71.5 39q-17 20 6 53l24 37q24 38 51 14q35 -35 91 -35q114 0 114 84q0 60 -80 60q-21 0 -39.5 -3.5t-41 -10.5t-23.5 -7 q-14 -6 -25 9t-2 28l121 199q-140 21 -228.5 135t-88.5 286z" />
<glyph unicode="&#xe8;" horiz-adv-x="962" d="M70 399q0 152 62.5 280.5t183 208t274.5 79.5q137 0 223 -70t86 -197q0 -65 -28 -117t-77 -84.5t-111 -54t-134.5 -30t-142 -8.5t-138.5 8q-9 -101 45.5 -175.5t149.5 -74.5q102 0 199 69q21 14 32.5 14.5t24.5 -14.5l57 -75q21 -36 -12 -64q-63 -50 -149.5 -83.5 t-184.5 -33.5q-166 0 -263 121t-97 301zM303 569q60 -9 130 -6.5t129.5 11.5t99.5 40t40 80q0 45 -38 72t-99 27q-95 0 -167 -65.5t-95 -158.5zM401 1315l54 84q18 27 49 6l268 -186q8 -5 10.5 -16t-4.5 -23l-30 -54q-15 -24 -48 -8l-286 144q-35 17 -13 53z" />
<glyph unicode="&#xe9;" horiz-adv-x="962" d="M70 399q0 152 62.5 280.5t183 208t274.5 79.5q137 0 223 -70t86 -197q0 -65 -28 -117t-77 -84.5t-111 -54t-134.5 -30t-142 -8.5t-138.5 8q-9 -101 45.5 -175.5t149.5 -74.5q102 0 199 69q21 14 32.5 14.5t24.5 -14.5l57 -75q21 -36 -12 -64q-63 -50 -149.5 -83.5 t-184.5 -33.5q-166 0 -263 121t-97 301zM303 569q60 -9 130 -6.5t129.5 11.5t99.5 40t40 80q0 45 -38 72t-99 27q-95 0 -167 -65.5t-95 -158.5zM459 1188q-9 25 16 39l320 186q8 8 26 6t25 -20l35 -90q14 -35 -19 -49l-336 -148q-37 -16 -45 12z" />
<glyph unicode="&#xea;" horiz-adv-x="962" d="M70 399q0 152 62.5 280.5t183 208t274.5 79.5q137 0 223 -70t86 -197q0 -65 -28 -117t-77 -84.5t-111 -54t-134.5 -30t-142 -8.5t-138.5 8q-9 -101 45.5 -175.5t149.5 -74.5q102 0 199 69q21 14 32.5 14.5t24.5 -14.5l57 -75q21 -36 -12 -64q-63 -50 -149.5 -83.5 t-184.5 -33.5q-166 0 -263 121t-97 301zM303 569q60 -9 130 -6.5t129.5 11.5t99.5 40t40 80q0 45 -38 72t-99 27q-95 0 -167 -65.5t-95 -158.5zM350 1155q-18 30 10 49l258 201q10 7 23.5 7t22.5 -7l200 -201q21 -21 4 -43l-37 -45q-12 -13 -20.5 -14.5t-26.5 10.5l-157 123 l-203 -131q-20 -11 -27 -8.5t-18 18.5z" />
<glyph unicode="&#xeb;" horiz-adv-x="962" d="M70 399q0 152 62.5 280.5t183 208t274.5 79.5q137 0 223 -70t86 -197q0 -65 -28 -117t-77 -84.5t-111 -54t-134.5 -30t-142 -8.5t-138.5 8q-9 -101 45.5 -175.5t149.5 -74.5q102 0 199 69q21 14 32.5 14.5t24.5 -14.5l57 -75q21 -36 -12 -64q-63 -50 -149.5 -83.5 t-184.5 -33.5q-166 0 -263 121t-97 301zM303 569q60 -9 130 -6.5t129.5 11.5t99.5 40t40 80q0 45 -38 72t-99 27q-95 0 -167 -65.5t-95 -158.5zM322 1262q0 58 43 100.5t98 42.5q47 0 77.5 -32.5t30.5 -82.5q0 -56 -43 -98.5t-98 -42.5q-47 0 -77.5 32.5t-30.5 80.5z M688 1262q0 58 43 100.5t96 42.5q49 0 80 -32.5t31 -82.5q0 -56 -43 -98.5t-98 -42.5q-49 0 -79 32.5t-30 80.5z" />
<glyph unicode="&#xec;" horiz-adv-x="499" d="M70 45l116 856q1 17 16.5 31t30.5 14h134q15 0 25 -14t7 -31l-118 -856q-1 -18 -16.5 -31.5t-31.5 -13.5h-133q-15 0 -24 13t-6 32zM117 1315l53 84q18 27 49 6l268 -186q8 -5 11 -16t-4 -23l-31 -54q-15 -24 -47 -8l-287 144q-34 16 -12 53z" />
<glyph unicode="&#xed;" horiz-adv-x="499" d="M70 45l116 856q1 17 16.5 31t30.5 14h134q15 0 25 -14t7 -31l-118 -856q-1 -18 -16.5 -31.5t-31.5 -13.5h-133q-15 0 -24 13t-6 32zM174 1188q-9 25 16 39l320 186q8 8 26 6t25 -20l35 -90q14 -35 -18 -49l-336 -148q-37 -16 -45 12z" />
<glyph unicode="&#xee;" horiz-adv-x="499" d="M70 45l116 856q1 17 16.5 31t30.5 14h134q15 0 25 -14t7 -31l-118 -856q-1 -18 -16.5 -31.5t-31.5 -13.5h-133q-15 0 -24 13t-6 32zM72 1155q-18 30 10 49l258 201q24 17 45 0l201 -201q21 -21 4 -43l-37 -45q-12 -13 -20.5 -14.5t-26.5 10.5l-158 123l-203 -131 q-20 -11 -27 -8.5t-18 18.5z" />
<glyph unicode="&#xef;" horiz-adv-x="499" d="M49 1262q0 58 43 100.5t98 42.5q47 0 78 -32.5t31 -82.5q0 -56 -43 -98.5t-98 -42.5q-47 0 -78 32.5t-31 80.5zM70 45l116 856q1 17 16.5 31t30.5 14h134q15 0 25 -14t7 -31l-118 -856q-1 -18 -16.5 -31.5t-31.5 -13.5h-133q-15 0 -24 13t-6 32zM416 1262q0 58 43 100.5 t96 42.5q49 0 80 -32.5t31 -82.5q0 -56 -43.5 -98.5t-98.5 -42.5q-48 0 -78 32.5t-30 80.5z" />
<glyph unicode="&#xf0;" horiz-adv-x="1075" d="M70 399q0 118 41 218.5t108 165t148.5 101t164.5 36.5q49 0 102 -17t79.5 -32t46.5 -29q-18 169 -170 321l-176 -108q-33 -16 -47 12l-9 18q-12 37 21 56l133 84q-66 56 -131 88q-40 16 -21 55l52 92q17 34 49 21q119 -50 244 -152l141 84q27 13 45 -16l12 -19 q17 -33 -22 -53l-107 -65q89 -99 146 -244.5t57 -317.5q0 -147 -36.5 -276.5t-104 -228t-171.5 -156t-231 -57.5q-152 0 -258 122.5t-106 296.5zM262 418q0 -103 56 -176.5t141 -73.5q66 0 123 40t94 103.5t59.5 134.5t28.5 140q-4 17 -18.5 42t-40.5 53t-68.5 47.5 t-91.5 19.5q-112 0 -197.5 -97.5t-85.5 -232.5z" />
<glyph unicode="&#xf1;" horiz-adv-x="1052" d="M70 45l116 856q2 18 15.5 31.5t31.5 13.5h60q11 0 20.5 -7.5t10.5 -20.5l16 -82q60 55 108 82q89 49 187 49q97 0 160 -33.5t89.5 -92t34 -138t-7.5 -171.5l-67 -487q-1 -18 -16 -31.5t-31 -13.5h-127q-18 0 -27 13t-6 32l68 494q31 237 -123 237q-43 0 -84 -16.5 t-70 -41.5t-47 -44.5t-27 -34.5l-86 -594q-3 -24 -15.5 -34.5t-43.5 -10.5h-109q-15 0 -24.5 13.5t-5.5 31.5zM348 1241q8 19 23.5 43.5t40.5 55.5t61.5 52t75.5 21q36 0 64.5 -20.5t43.5 -45t33.5 -45t36.5 -20.5q20 0 38.5 16t26 28t21.5 38q9 17 23.5 22t27.5 -4l39 -28 q30 -23 4 -66q-85 -153 -190 -153q-31 0 -60 21t-46 45.5t-37 45.5t-35 21q-20 0 -39 -18t-25.5 -30l-19.5 -36q-10 -19 -18.5 -24t-26.5 3l-54 31q-21 16 -8 47z" />
<glyph unicode="&#xf2;" horiz-adv-x="1050" d="M70 408q0 151 67 279t184.5 204t258.5 76q157 0 263.5 -125t106.5 -299q0 -152 -66.5 -282t-184.5 -207t-259 -77q-154 0 -262 126.5t-108 304.5zM274 426q0 -120 52 -188t141 -68q110 0 193 100.5t83 249.5q0 117 -52 186.5t-138 69.5q-111 0 -195 -100.5t-84 -249.5z M377 1315l53 84q18 27 49 6l269 -186q8 -5 10.5 -16t-4.5 -23l-31 -54q-15 -24 -47 -8l-287 144q-34 16 -12 53z" />
<glyph unicode="&#xf3;" horiz-adv-x="1050" d="M70 408q0 151 67 279t184.5 204t258.5 76q157 0 263.5 -125t106.5 -299q0 -152 -66.5 -282t-184.5 -207t-259 -77q-154 0 -262 126.5t-108 304.5zM274 426q0 -120 52 -188t141 -68q110 0 193 100.5t83 249.5q0 117 -52 186.5t-138 69.5q-111 0 -195 -100.5t-84 -249.5z M449 1188q-9 25 16 39l319 186q8 8 26.5 6t25.5 -20l34 -90q14 -35 -18 -49l-336 -148q-37 -16 -45 12z" />
<glyph unicode="&#xf4;" horiz-adv-x="1050" d="M70 408q0 151 67 279t184.5 204t258.5 76q157 0 263.5 -125t106.5 -299q0 -152 -66.5 -282t-184.5 -207t-259 -77q-154 0 -262 126.5t-108 304.5zM274 426q0 -120 52 -188t141 -68q110 0 193 100.5t83 249.5q0 117 -52 186.5t-138 69.5q-111 0 -195 -100.5t-84 -249.5z M340 1155q-18 30 10 49l258 201q24 17 45 0l201 -201q21 -21 4 -43l-37 -45q-12 -13 -20.5 -14.5t-26.5 10.5l-158 123l-202 -131q-20 -11 -27 -8.5t-18 18.5z" />
<glyph unicode="&#xf5;" horiz-adv-x="1050" d="M70 408q0 151 67 279t184.5 204t258.5 76q157 0 263.5 -125t106.5 -299q0 -152 -66.5 -282t-184.5 -207t-259 -77q-154 0 -262 126.5t-108 304.5zM274 426q0 -120 52 -188t141 -68q110 0 193 100.5t83 249.5q0 117 -52 186.5t-138 69.5q-111 0 -195 -100.5t-84 -249.5z M336 1241q8 19 23.5 43.5t40.5 55.5t61.5 52t75.5 21q36 0 64.5 -20.5t43.5 -45t33.5 -45t36.5 -20.5q20 0 38.5 16t26 28t21.5 38q9 17 23.5 22t27.5 -4l39 -28q30 -23 4 -66q-85 -153 -190 -153q-31 0 -60 21t-46.5 45.5t-37.5 45.5t-35 21q-20 0 -39 -18t-25.5 -30 l-19.5 -36q-10 -19 -18.5 -24t-26.5 3l-53 31q-21 16 -8 47z" />
<glyph unicode="&#xf6;" horiz-adv-x="1050" d="M70 408q0 151 67 279t184.5 204t258.5 76q157 0 263.5 -125t106.5 -299q0 -152 -66.5 -282t-184.5 -207t-259 -77q-154 0 -262 126.5t-108 304.5zM274 426q0 -120 52 -188t141 -68q110 0 193 100.5t83 249.5q0 117 -52 186.5t-138 69.5q-111 0 -195 -100.5t-84 -249.5z M313 1262q0 58 43.5 100.5t98.5 42.5q47 0 77.5 -32.5t30.5 -82.5q0 -56 -43 -98.5t-98 -42.5q-47 0 -78 32.5t-31 80.5zM680 1262q0 58 43 100.5t96 42.5q49 0 80 -32.5t31 -82.5q0 -56 -43.5 -98.5t-98.5 -42.5q-48 0 -78 32.5t-30 80.5z" />
<glyph unicode="&#xf7;" d="M233 666l13 86q2 15 14 27t25 12h719q13 0 21.5 -12t6.5 -27l-12 -86q-2 -15 -14 -27t-25 -12h-719q-13 0 -22 12t-7 27zM453 322q0 60 41.5 102.5t97.5 42.5q45 0 74.5 -33t29.5 -80q0 -58 -42.5 -101.5t-96.5 -43.5q-45 0 -74.5 33t-29.5 80zM559 1077q0 59 42.5 102.5 t96.5 43.5q45 0 75 -33t30 -80q0 -58 -42.5 -101.5t-98.5 -43.5q-43 0 -73 33.5t-30 78.5z" />
<glyph unicode="&#xf8;" horiz-adv-x="1050" d="M60 92q2 19 14 31l53 51q-57 105 -57 234q0 151 67 279t184.5 204t258.5 76q144 0 251 -113l62 57q13 13 30 13t27 -13l15 -16q12 -14 9.5 -32t-16.5 -32l-65 -63q57 -102 57 -225q0 -152 -66.5 -282t-184.5 -207t-259 -77q-147 0 -252 115l-51 -49q-12 -12 -29 -11 t-26 13l-14 16q-10 12 -8 31zM274 426q0 -48 13 -98l397 383q-52 65 -131 65q-109 0 -194 -104t-85 -246zM336 233q51 -63 131 -63q109 0 192.5 103.5t83.5 246.5q0 48 -12 92z" />
<glyph unicode="&#xf9;" horiz-adv-x="1024" d="M98 257.5q0 59.5 8 125.5l74 518q3 17 17.5 31t29.5 14h123q17 0 28 -13.5t9 -31.5l-76 -516q-30 -215 129 -215q69 0 130.5 57t74.5 92l82 582q3 28 14.5 36.5t38.5 8.5h111q15 0 26.5 -14t8.5 -31l-121 -856q-1 -19 -15.5 -32t-31.5 -13h-60q-25 0 -32 39l-15 67 q-51 -56 -99 -83q-81 -46 -179 -46q-72 0 -126 21.5t-84 59t-47.5 89t-17.5 111zM354 1315l54 84q18 27 49 6l268 -186q8 -5 10.5 -16t-4.5 -23l-31 -54q-15 -24 -47 -8l-286 144q-35 17 -13 53z" />
<glyph unicode="&#xfa;" horiz-adv-x="1024" d="M98 257.5q0 59.5 8 125.5l74 518q3 17 17.5 31t29.5 14h123q17 0 28 -13.5t9 -31.5l-76 -516q-30 -215 129 -215q69 0 130.5 57t74.5 92l82 582q3 28 14.5 36.5t38.5 8.5h111q15 0 26.5 -14t8.5 -31l-121 -856q-1 -19 -15.5 -32t-31.5 -13h-60q-25 0 -32 39l-15 67 q-51 -56 -99 -83q-81 -46 -179 -46q-72 0 -126 21.5t-84 59t-47.5 89t-17.5 111zM424 1188q-9 25 16 39l320 186q8 8 26 6t25 -20l35 -90q14 -35 -19 -49l-335 -148q-38 -16 -46 12z" />
<glyph unicode="&#xfb;" horiz-adv-x="1024" d="M98 257.5q0 59.5 8 125.5l74 518q3 17 17.5 31t29.5 14h123q17 0 28 -13.5t9 -31.5l-76 -516q-30 -215 129 -215q69 0 130.5 57t74.5 92l82 582q3 28 14.5 36.5t38.5 8.5h111q15 0 26.5 -14t8.5 -31l-121 -856q-1 -19 -15.5 -32t-31.5 -13h-60q-25 0 -32 39l-15 67 q-51 -56 -99 -83q-81 -46 -179 -46q-72 0 -126 21.5t-84 59t-47.5 89t-17.5 111zM315 1155q-18 30 11 49l258 201q24 17 45 0l200 -201q22 -22 5 -43l-37 -45q-12 -13 -20.5 -14.5t-26.5 10.5l-158 123l-203 -131q-20 -11 -27 -8.5t-18 18.5z" />
<glyph unicode="&#xfc;" horiz-adv-x="1024" d="M98 257.5q0 59.5 8 125.5l74 518q3 17 17.5 31t29.5 14h123q17 0 28 -13.5t9 -31.5l-76 -516q-30 -215 129 -215q69 0 130.5 57t74.5 92l82 582q3 28 14.5 36.5t38.5 8.5h111q15 0 26.5 -14t8.5 -31l-121 -856q-1 -19 -15.5 -32t-31.5 -13h-60q-25 0 -32 39l-15 67 q-51 -56 -99 -83q-81 -46 -179 -46q-72 0 -126 21.5t-84 59t-47.5 89t-17.5 111zM287 1262q0 58 43 100.5t98 42.5q47 0 78 -32.5t31 -82.5q0 -56 -43.5 -98.5t-98.5 -42.5q-47 0 -77.5 32.5t-30.5 80.5zM653 1262q0 57 43 100t97 43q49 0 79.5 -32.5t30.5 -82.5 q0 -56 -43 -98.5t-98 -42.5q-49 0 -79 32.5t-30 80.5z" />
<glyph unicode="&#xfd;" horiz-adv-x="970" d="M42.5 -470q-7.5 17 4.5 42l256 475l-209 844q-5 23 6 39t35 16h123q26 0 33 -26l141 -662h4l324 662q14 26 51 26h121q25 0 32 -18t-6 -43l-712 -1344q-14 -28 -41 -28h-131q-24 0 -31.5 17zM428 1188q-9 25 16 39l320 186q8 8 26 6t25 -20l35 -90q14 -35 -19 -49 l-335 -148q-37 -16 -45 12z" />
<glyph unicode="&#xfe;" horiz-adv-x="1067" d="M0 -442l258 1831q2 19 15 32t30 13h127q17 0 27.5 -13t7.5 -32l-68 -498q1 0 9 5.5t12.5 8.5t15.5 9.5t19.5 10.5t22 10t25 10t27 8.5t30.5 7t33 4.5t36 2q97 0 174.5 -57.5t119.5 -153.5t42 -211q0 -159 -60.5 -288t-174 -204.5t-259.5 -75.5q-57 0 -111.5 22t-83.5 42 l-65 -483q-3 -18 -17.5 -31.5t-31.5 -13.5h-125q-15 0 -26.5 14t-8.5 31zM307 250q17 -22 65 -51t105 -29q117 0 200 98.5t83 253.5q0 114 -51.5 184t-139.5 70q-55 0 -103.5 -22t-69 -41t-31.5 -35z" />
<glyph unicode="&#xff;" horiz-adv-x="970" d="M42.5 -470q-7.5 17 4.5 42l256 475l-209 844q-5 23 6 39t35 16h123q26 0 33 -26l141 -662h4l324 662q14 26 51 26h121q25 0 32 -18t-6 -43l-712 -1344q-14 -28 -41 -28h-131q-24 0 -31.5 17zM270 1262q0 58 43.5 100.5t98.5 42.5q47 0 77.5 -32.5t30.5 -82.5 q0 -56 -43 -98.5t-98 -42.5q-47 0 -78 32.5t-31 80.5zM637 1262q0 58 42.5 100.5t96.5 42.5q49 0 80 -32.5t31 -82.5q0 -56 -43.5 -98.5t-98.5 -42.5q-48 0 -78 32.5t-30 80.5z" />
<glyph unicode="&#x152;" horiz-adv-x="1816" d="M117 614q0 171 60 326t163 268t247 179.5t304 66.5q43 0 86 -5t65 -10l21 -5h741q14 0 22.5 -11.5t6.5 -27.5l-14 -115q-2 -15 -14 -27t-27 -12h-568l-59 -418h477q13 0 22 -12t7 -27l-15 -114q-1 -17 -13.5 -28t-26.5 -11h-478l-61 -441h567q15 0 23 -11t6 -27l-17 -113 q-2 -15 -13.5 -27t-24.5 -12h-744q-98 -20 -176 -20q-155 0 -285.5 84.5t-206 230.5t-75.5 319zM328 641q0 -191 110 -325t275 -134q79 0 141 21l143 1024q-68 22 -135 22q-100 0 -197.5 -49t-171.5 -130.5t-119.5 -194.5t-45.5 -234z" />
<glyph unicode="&#x153;" horiz-adv-x="1619" d="M70 412q0 115 41.5 218.5t110.5 177t163 116.5t195 43q180 0 294 -164q68 77 163.5 120.5t209.5 43.5q137 0 223 -70t86 -197q0 -66 -28.5 -118t-78 -85t-112 -54.5t-134.5 -29.5t-141 -7.5t-136 8.5q-9 -101 45 -175.5t153 -74.5q46 0 101.5 21t93.5 48q14 9 22 12.5 t16.5 2t16.5 -11.5l60 -78q25 -32 -13 -64q-63 -50 -149.5 -83.5t-184.5 -33.5q-95 0 -169.5 41.5t-120.5 118.5q-68 -76 -163.5 -118t-193.5 -42q-158 0 -264 127t-106 308zM274 426q0 -108 53.5 -182t139.5 -74q109 0 192.5 103.5t83.5 246.5q0 108 -53 182t-137 74 q-109 0 -194 -104t-85 -246zM961 569q60 -9 130 -6.5t129.5 11.5t99.5 40t40 80q0 45 -38 72t-99 27q-95 0 -167 -65.5t-95 -158.5z" />
<glyph unicode="&#x178;" horiz-adv-x="1116" d="M131 1380q-8 20 2.5 37t32.5 17h145q25 0 35 -23l240 -520h4l393 520q19 23 41 23h162q23 0 27.5 -17t-9.5 -37l-528 -688l-92 -653q-1 -15 -14 -27t-27 -12h-142q-15 0 -23.5 11.5t-6.5 27.5l92 651zM360 1704q0 56 43.5 98.5t96.5 42.5q47 0 78.5 -32.5t31.5 -79.5 q0 -56 -45 -100t-98 -44q-46 0 -76.5 33.5t-30.5 81.5zM797 1704q0 56 43 98.5t96 42.5q47 0 79 -32.5t32 -79.5q0 -56 -45 -100t-99 -44q-46 0 -76 33.5t-30 81.5z" />
<glyph unicode="&#x2c6;" horiz-adv-x="688" d="M121 1155q-18 30 10 49l258 201q24 17 45 0l201 -201q21 -21 4 -43l-37 -45q-12 -13 -20.5 -14.5t-26.5 10.5l-158 123l-202 -131q-20 -11 -27 -8.5t-18 18.5z" />
<glyph unicode="&#x2dc;" horiz-adv-x="700" d="M119 1241q8 19 23 43t40.5 55.5t61.5 52.5t75 21q36 0 65 -20.5t44 -45t33.5 -45t36.5 -20.5q20 0 38.5 16t26 28t21.5 38q9 17 23.5 22t27.5 -4l39 -28q30 -23 4 -66q-85 -153 -191 -153q-31 0 -60 21t-46 45.5t-37 45.5t-35 21q-20 0 -39 -18t-25.5 -30l-19.5 -36 q-10 -19 -18.5 -24t-26.5 3l-53 31q-21 16 -8 47z" />
<glyph unicode="&#x2000;" horiz-adv-x="1001" />
<glyph unicode="&#x2001;" horiz-adv-x="2003" />
<glyph unicode="&#x2002;" horiz-adv-x="1001" />
<glyph unicode="&#x2003;" horiz-adv-x="2003" />
<glyph unicode="&#x2004;" horiz-adv-x="667" />
<glyph unicode="&#x2005;" horiz-adv-x="500" />
<glyph unicode="&#x2006;" horiz-adv-x="333" />
<glyph unicode="&#x2007;" horiz-adv-x="333" />
<glyph unicode="&#x2008;" horiz-adv-x="250" />
<glyph unicode="&#x2009;" horiz-adv-x="400" />
<glyph unicode="&#x200a;" horiz-adv-x="111" />
<glyph unicode="&#x2010;" horiz-adv-x="731" d="M111 459l12 88q3 17 14.5 28t26.5 11h403q15 0 24.5 -11t6.5 -28l-12 -88q-1 -15 -13.5 -26t-27.5 -11h-404q-15 0 -23.5 11t-6.5 26z" />
<glyph unicode="&#x2011;" horiz-adv-x="731" d="M111 459l12 88q3 17 14.5 28t26.5 11h403q15 0 24.5 -11t6.5 -28l-12 -88q-1 -15 -13.5 -26t-27.5 -11h-404q-15 0 -23.5 11t-6.5 26z" />
<glyph unicode="&#x2012;" horiz-adv-x="731" d="M111 459l12 88q3 17 14.5 28t26.5 11h403q15 0 24.5 -11t6.5 -28l-12 -88q-1 -15 -13.5 -26t-27.5 -11h-404q-15 0 -23.5 11t-6.5 26z" />
<glyph unicode="&#x2013;" horiz-adv-x="1046" d="M115 479l8 49q3 17 14 28t25 11h715q15 0 24 -11t6 -28l-8 -49q-3 -16 -14 -26.5t-25 -10.5h-715q-15 0 -24 11t-6 26z" />
<glyph unicode="&#x2014;" horiz-adv-x="1452" d="M115 479l8 49q3 17 14 28t25 11h1120q15 0 24.5 -11t6.5 -28l-8 -49q-3 -16 -14 -26.5t-25 -10.5h-1121q-15 0 -24 11t-6 26z" />
<glyph unicode="&#x2018;" horiz-adv-x="489" d="M154 999q0 119 54.5 235t147.5 204q25 22 43 4l41 -37q20 -17 -6 -43q-141 -150 -141 -277q0 -12 4 -24q23 20 68 20q49 0 74.5 -29.5t25.5 -76.5q0 -62 -47 -111t-117 -49q-67 0 -107 49.5t-40 134.5z" />
<glyph unicode="&#x2019;" horiz-adv-x="483" d="M174 1294q0 62 47 111t117 49q67 0 107 -49.5t40 -134.5q0 -119 -54.5 -235t-147.5 -204q-25 -22 -43 -4l-41 37q-20 17 6 43q141 150 141 277q0 12 -4 24q-23 -20 -68 -20q-49 0 -74.5 29.5t-25.5 76.5z" />
<glyph unicode="&#x201a;" horiz-adv-x="503" d="M31 113q0 62 47 110.5t117 48.5q67 0 107 -49.5t40 -134.5q0 -119 -55 -234t-148 -204q-25 -22 -43 -4l-41 37q-20 17 6 43q142 151 142 276q0 13 -4 25q-24 -21 -68 -21q-49 0 -74.5 30t-25.5 77z" />
<glyph unicode="&#x201c;" horiz-adv-x="886" d="M154 999q0 119 54.5 235t147.5 204q25 22 43 4l41 -37q20 -17 -6 -43q-141 -150 -141 -277q0 -12 4 -24q23 20 68 20q49 0 74.5 -29.5t25.5 -76.5q0 -62 -47 -111t-117 -49q-67 0 -107 49.5t-40 134.5zM551 999q0 119 55 235t148 204q25 22 43 4l41 -37q19 -17 -7 -43 q-141 -150 -141 -277q0 -12 4 -24q23 20 68 20q49 0 74.5 -29.5t25.5 -76.5q0 -62 -47 -111t-117 -49q-67 0 -107 49.5t-40 134.5z" />
<glyph unicode="&#x201d;" horiz-adv-x="878" d="M174 1294q0 62 47 111t117 49q67 0 107 -49.5t40 -134.5q0 -119 -54.5 -235t-147.5 -204q-25 -22 -43 -4l-41 37q-20 17 6 43q141 150 141 277q0 12 -4 24q-23 -20 -68 -20q-49 0 -74.5 29.5t-25.5 76.5zM569 1294q0 62 47 111t117 49q67 0 107.5 -49.5t40.5 -134.5 q0 -119 -55 -235t-148 -204q-25 -22 -43 -4l-41 37q-20 17 6 43q141 150 141 277q0 12 -4 24q-23 -20 -67 -20q-49 0 -75 29.5t-26 76.5z" />
<glyph unicode="&#x201e;" horiz-adv-x="899" d="M31 113q0 62 47 110.5t117 48.5q67 0 107 -49.5t40 -134.5q0 -119 -55 -234t-148 -204q-25 -22 -43 -4l-41 37q-20 17 6 43q142 151 142 276q0 13 -4 25q-24 -21 -68 -21q-49 0 -74.5 30t-25.5 77zM426 113q0 62 47 110.5t117 48.5q67 0 107 -49.5t40 -134.5 q0 -119 -54.5 -234.5t-147.5 -203.5q-25 -22 -43 -4l-41 37q-20 17 6 43q141 150 141 276q0 13 -4 25q-24 -21 -68 -21q-49 0 -74.5 30t-25.5 77z" />
<glyph unicode="&#x2022;" horiz-adv-x="743" d="M131 492q0 111 80.5 193.5t181.5 82.5q87 0 144 -63t57 -154q0 -109 -81.5 -189.5t-188.5 -80.5q-82 0 -137.5 62t-55.5 149z" />
<glyph unicode="&#x2026;" horiz-adv-x="1212" d="M31 94q0 61 43.5 105.5t99.5 44.5q47 0 78 -33.5t31 -83.5q0 -59 -44 -103t-102 -44q-45 0 -75.5 33.5t-30.5 80.5zM412 94q0 61 43.5 105.5t99.5 44.5q47 0 78 -33.5t31 -83.5q0 -59 -44 -103t-102 -44q-45 0 -75.5 33.5t-30.5 80.5zM803 94q0 61 43.5 105.5t101.5 44.5 q46 0 76.5 -33.5t30.5 -81.5q0 -61 -43 -105t-101 -44q-46 0 -77 33.5t-31 80.5z" />
<glyph unicode="&#x202f;" horiz-adv-x="400" />
<glyph unicode="&#x2039;" horiz-adv-x="550" d="M78 459q-12 24 6 49l238 303q20 25 40 25h91q23 0 27.5 -19.5t-9.5 -44.5l-174 -301l74 -285q6 -26 -3.5 -43.5t-33.5 -17.5h-84q-17 0 -25 16z" />
<glyph unicode="&#x203a;" horiz-adv-x="550" d="M42 144q-5 19 9 44l174 301l-73 285q-6 26 3 44t33 18h84q16 0 25 -17l147 -317q12 -24 -6 -49l-237 -303q-20 -25 -41 -25h-90q-23 0 -28 19z" />
<glyph unicode="&#x205f;" horiz-adv-x="500" />
<glyph unicode="&#x20ac;" d="M47 553l4 27q6 32 39 32h98q4 70 19 148h-94q-15 0 -25.5 12t-7.5 27l4 22q3 15 14.5 26t26.5 11h104q35 125 93.5 230.5t139 188.5t189 130t232.5 47q111 0 210.5 -36.5t159.5 -102.5q22 -25 -4 -58l-75 -98q-12 -15 -29.5 -14.5t-32.5 14.5q-106 92 -240 92t-245 -104 t-166 -289h489q17 0 27.5 -12t7.5 -27l-6 -26q-7 -33 -41 -33h-502q-13 -55 -18 -148h416q17 0 27 -12t7 -27l-6 -26q-7 -33 -41 -33h-399q13 -149 87.5 -238.5t215.5 -89.5q66 0 122 25.5t132 81.5q37 26 57 -12l54 -109q16 -29 -13 -55q-81 -66 -171 -103t-210 -37 q-221 0 -358.5 144t-147.5 393h-112q-15 0 -24.5 12t-6.5 27z" />
<glyph unicode="&#x2122;" horiz-adv-x="1445" d="M244 1346l8 49q3 16 14 27.5t25 11.5h371q15 0 24 -12t6 -27l-8 -49q-3 -17 -14 -28t-25 -11h-123l-65 -467q-1 -15 -13 -27t-26 -12h-60q-15 0 -23 12t-5 27l65 467h-121q-14 0 -23.5 11t-6.5 28zM678 848l174 565q12 31 41 31h6q11 0 19 -7.5t10 -15.5l100 -407 l219 407q14 23 35 23h6q13 0 22 -9.5t9 -21.5l18 -567q0 -19 -12 -32t-29 -13h-59q-14 0 -22.5 10.5t-8.5 24.5l-4 297l-168 -320q-11 -18 -33 -18h-10q-25 0 -28 20l-72 318l-92 -299q-3 -13 -14 -23t-27 -10h-51q-18 0 -26.5 14t-2.5 33z" />
<glyph unicode="&#x25fc;" horiz-adv-x="942" d="M0 0v942h942v-942h-942z" />
<glyph unicode="&#xfb03;" horiz-adv-x="1759" d="M84 -440l166 1202h-133q-17 0 -26 13.5t-7 31.5l8 94q5 20 17.5 32.5t29.5 12.5h140l8 58q63 430 411 430q90 0 169 -33t130 -70q108 123 308 123q94 0 178.5 -33t126.5 -67q12 -10 12.5 -28.5t-8.5 -33.5l-51 -84q-13 -20 -27.5 -22t-30.5 10q-113 68 -219 68 q-81 0 -131.5 -57t-64.5 -163l-15 -98h557q15 0 25 -14t6 -31l-119 -856q-1 -18 -14.5 -31.5t-28.5 -13.5h-125q-15 0 -25.5 13.5t-7.5 31.5l99 717h-393l-166 -1202q-3 -19 -19 -33t-33 -14h-118q-17 0 -26.5 14t-6.5 33l164 1202h-391l-170 -1202q-3 -19 -16.5 -33 t-30.5 -14h-117q-17 0 -27.5 14t-7.5 33zM479 946h391l17 111q9 68 26 114q-33 33 -91.5 56.5t-125.5 23.5q-89 0 -139.5 -59.5t-69.5 -187.5z" />
<glyph unicode="&#xfb04;" horiz-adv-x="1806" d="M84 -440l166 1202h-133q-17 0 -26 13.5t-7 31.5l8 94q5 20 17.5 32.5t29.5 12.5h140l8 58q63 430 411 430q91 0 175 -32.5t131 -66.5q54 57 131 88t163 31q52 0 101.5 -12.5t84 -31t62 -36.5t40.5 -30l13 -13l31 64q20 39 56 39h47q15 0 26 -13.5t8 -31.5l-186 -1344 q-3 -19 -16.5 -32t-30.5 -13h-129q-17 0 -26.5 13t-6.5 32l156 1090q-8 14 -23.5 31.5t-43 41.5t-69.5 40t-89 16q-95 0 -149.5 -55t-68.5 -154l-16 -109h209q19 0 29 -12.5t8 -32.5l-17 -92q-2 -19 -14.5 -33t-30.5 -14h-209l-163 -1202q-3 -19 -18 -33t-32 -14h-118 q-17 0 -26.5 14t-6.5 33l164 1202h-391l-170 -1202q-3 -19 -16.5 -33t-30.5 -14h-117q-17 0 -27.5 14t-7.5 33zM479 946h391l17 111q8 58 26 114q-33 33 -91.5 56.5t-125.5 23.5q-89 0 -139.5 -59.5t-69.5 -187.5z" />
</font>
</defs>
</svg>
