<?xml version="1.0" standalone="no"?>
<!DOCTYPE svg PUBLIC "-//W3C//DTD SVG 1.1//EN" "http://www.w3.org/Graphics/SVG/1.1/DTD/svg11.dtd" >
<svg xmlns="http://www.w3.org/2000/svg">
<metadata></metadata>
<defs>
<font id="brandon_textthin" horiz-adv-x="1228" >
<font-face units-per-em="2048" ascent="1434" descent="-614" />
<missing-glyph horiz-adv-x="491" />
<glyph unicode="&#xfb01;" horiz-adv-x="1089" d="M43 922v10q0 14 16 14h170v115q0 191 91.5 292t248.5 101q177 0 314 -137q11 -11 0 -21l-9 -8q-12 -12 -22 2q-23 27 -53 51.5t-94 50t-136 25.5q-138 0 -220.5 -92.5t-82.5 -263.5v-115h633q14 0 14 -16v-914q0 -16 -12 -16h-10q-14 0 -14 16v893h-611v-893 q0 -16 -18 -16h-6q-13 0 -13 16v893h-172q-14 0 -14 13z" />
<glyph unicode="&#xfb02;" horiz-adv-x="1171" d="M43 922v10q0 14 16 14h170v119q0 199 97.5 294t273.5 95q197 0 338 -131v94q0 17 12 17h13q12 0 12 -17v-1401q0 -16 -12 -16h-13q-12 0 -12 16v1256q-151 145 -338 145q-334 0 -334 -352v-119h410q18 0 18 -14v-10q0 -13 -18 -13h-410v-893q0 -16 -16 -16h-8 q-13 0 -13 16v893h-170q-16 0 -16 13z" />
<glyph horiz-adv-x="0" />
<glyph horiz-adv-x="0" />
<glyph horiz-adv-x="682" />
<glyph unicode="&#xd;" horiz-adv-x="0" />
<glyph unicode=" "  horiz-adv-x="491" />
<glyph unicode="&#x09;" horiz-adv-x="491" />
<glyph unicode="&#xa0;" horiz-adv-x="491" />
<glyph unicode="!" horiz-adv-x="456" d="M178 29q0 20 14.5 33.5t34.5 13.5q22 0 35.5 -13.5t13.5 -33.5q0 -21 -14 -35t-35 -14q-20 0 -34.5 14.5t-14.5 34.5zM209 561v858q0 15 14 15h8q6 0 10.5 -4.5t4.5 -10.5v-858q0 -14 -15 -14h-8q-14 0 -14 14z" />
<glyph unicode="&#x22;" horiz-adv-x="636" d="M150 1040v379q0 15 14 15h6q14 0 14 -15v-379q0 -14 -14 -14h-6q-14 0 -14 14zM453 1040v379q0 15 14 15h6q14 0 14 -15v-379q0 -14 -14 -14h-6q-14 0 -14 14z" />
<glyph unicode="#" horiz-adv-x="1148" d="M104 459v6q0 6 4 10t9 4h202l78 398h-223q-14 0 -14 14v8q0 14 14 14h232l98 508q4 13 14 13h6q18 0 15 -17l-99 -504h359l98 508q4 13 14 13h9q15 0 12 -17l-98 -504h194q12 0 12 -14v-8q0 -14 -12 -14h-201l-75 -398h219q14 0 14 -14v-6q0 -15 -14 -15h-228l-81 -432 q-4 -12 -15 -12h-8q-17 0 -14 16l84 428h-359l-82 -432q-4 -12 -14 -12h-8q-18 0 -15 16l84 428h-198q-5 0 -9 4.5t-4 10.5zM358 479h357l76 398h-357z" />
<glyph unicode="$" d="M178 1096q0 65 24.5 125t74.5 112.5t137 85t200 33.5v88q0 14 15 14h8q14 0 14 -14v-90q84 -4 166 -29.5t122 -48.5l40 -24q6 -6 6 -13l-4 -8q0 -9 -7.5 -13t-15.5 1q-5 4 -15 10t-42.5 22t-66.5 28.5t-84 24t-99 13.5v-674q106 -30 180.5 -63t133.5 -80t87.5 -111 t28.5 -147q0 -93 -59.5 -174t-158.5 -130t-212 -54v-232q0 -12 -14 -12h-8q-6 0 -10.5 3.5t-4.5 8.5v232q-82 2 -160 24.5t-132 54.5t-83.5 53.5t-45.5 37.5q-11 7 0 18l6 6q10 10 20 0q19 -17 43.5 -35t77 -49.5t125 -52t149.5 -21.5v695q-85 23 -142.5 43.5t-117.5 52.5 t-95.5 69.5t-58 93.5t-22.5 126zM215 1096q0 -61 19 -110t51.5 -83.5t85.5 -63.5t108.5 -48.5t134.5 -40.5v665q-104 -1 -184 -30t-125.5 -76t-67.5 -101t-22 -112zM651 16q103 4 193.5 48t145 117t54.5 157q0 76 -27.5 134.5t-83 100.5t-121.5 70.5t-161 56.5v-684z" />
<glyph unicode="%" horiz-adv-x="1396" d="M94 1165q0 120 84.5 204.5t204.5 84.5t204.5 -84.5t84.5 -204.5q0 -121 -84.5 -206t-204.5 -85t-204.5 85t-84.5 206zM131 1165q0 -106 73 -180t179 -74q105 0 179.5 74.5t74.5 179.5q0 104 -75 178t-179 74q-105 0 -178.5 -73.5t-73.5 -178.5zM242 25l854 1405q6 9 16 2 l12 -7q10 -5 4 -16l-854 -1405q-7 -11 -14 -6l-16 10q-9 6 -2 17zM729 268q0 122 84 206.5t205 84.5q119 0 204 -85t85 -206q0 -120 -85 -204t-204 -84q-121 0 -205 84t-84 204zM764 268q0 -104 74 -178t180 -74q104 0 178 74t74 178q0 106 -74 180t-178 74q-106 0 -180 -74 t-74 -180z" />
<glyph unicode="&#x26;" horiz-adv-x="1386" d="M158 354q0 76 24 140.5t69.5 115.5t100 90t125.5 74l-61 64q-160 160 -160 313q0 50 20 101.5t59 97.5t106.5 75t152.5 29q78 0 140.5 -25.5t100 -69t57 -96.5t19.5 -112q0 -112 -100.5 -209t-267.5 -174h-2l495 -489q78 104 121 228t43 243q0 17 -4 63q0 6 4 11t10 5h9 q14 0 14 -12q4 -46 4 -67q0 -125 -45.5 -255.5t-128.5 -238.5l229 -227q10 -9 2 -17l-14 -12q-6 -6 -14 2l-228 223q-94 -115 -221.5 -180t-277.5 -65q-169 0 -275 108.5t-106 265.5zM193 354q0 -142 96 -240t250 -98q278 0 475 234l-510 502q-146 -73 -228.5 -167 t-82.5 -231zM291 1151q0 -128 149 -285q61 -60 74 -73q363 166 363 358q0 109 -73.5 187.5t-209.5 78.5q-77 0 -137.5 -25.5t-95 -65.5t-52.5 -85t-18 -90z" />
<glyph unicode="'" horiz-adv-x="335" d="M150 1040v379q0 15 14 15h8q14 0 14 -15v-379q0 -14 -14 -14h-8q-14 0 -14 14z" />
<glyph unicode="(" horiz-adv-x="681" d="M121 647q0 174 29 313t76 228t112 149.5t133 86.5t143 30q15 0 15 -14v-8q0 -6 -4.5 -10.5t-10.5 -4.5q-70 -4 -132.5 -29t-123 -82.5t-104 -142t-70 -217t-26.5 -299.5t26.5 -300.5t70 -218.5t104 -142t123 -82t132.5 -29q15 0 15 -14v-8q0 -5 -4.5 -9t-10.5 -4 q-75 3 -143 29t-133 86.5t-112 149.5t-76 228.5t-29 313.5z" />
<glyph unicode=")" horiz-adv-x="681" d="M53 -139q0 14 15 14q70 4 132.5 29t123 82t104 142t70 218.5t26.5 300.5t-26.5 299.5t-70 217t-104 142t-123 82.5t-132.5 29q-6 0 -10.5 4.5t-4.5 10.5v8q0 14 15 14q75 -4 143 -30t133 -86.5t112 -149.5t76 -228t29 -313t-29 -313.5t-76 -228.5t-112 -149.5t-133 -86.5 t-143 -29q-6 0 -10.5 4t-4.5 9v8z" />
<glyph unicode="*" horiz-adv-x="856" d="M164 989q-3 10 6 15l219 129l-219 129q-10 5 -4 14l6 12q5 10 16 4l222 -127v254q0 15 14 15h8q14 0 14 -15v-254l222 127q11 6 16 -4l6 -12q6 -9 -4 -14l-219 -129l219 -129q9 -5 6 -15l-8 -14q-5 -7 -16 -2l-222 127v-254q0 -15 -14 -15h-8q-14 0 -14 15v254l-222 -127 q-11 -5 -16 2z" />
<glyph unicode="+" d="M203 709v8q0 14 14 14h381v379q0 14 14 14h9q14 0 14 -14v-379h379q14 0 14 -14v-8q0 -15 -14 -15h-379v-381q0 -14 -14 -14h-9q-14 0 -14 14v381h-381q-14 0 -14 15z" />
<glyph unicode="," horiz-adv-x="380" d="M129 27q0 23 15 37t38 14q47 0 74 -56t27 -122q0 -143 -113 -234q-14 -11 -20 0l-9 12q-9 13 4 23q97 75 97 190q0 71 -23 109q-17 -20 -41 -20q-20 0 -34.5 13.5t-14.5 33.5z" />
<glyph unicode="-" horiz-adv-x="829" d="M154 512v8q0 15 12 15h498q5 0 8.5 -4.5t3.5 -10.5v-8q0 -14 -12 -14h-498q-12 0 -12 14z" />
<glyph unicode="." horiz-adv-x="364" d="M131 31q0 20 14.5 34.5t36.5 14.5q23 0 37 -14t14 -35q0 -22 -14 -38t-37 -16q-21 0 -36 16t-15 38z" />
<glyph unicode="/" horiz-adv-x="755" d="M109 12l501 1411q4 11 15 11h14q12 0 8 -13l-504 -1413q-3 -8 -14 -8h-14q-10 0 -6 12z" />
<glyph unicode="0" horiz-adv-x="1349" d="M154 719q0 349 136.5 542t385.5 193q248 0 384 -192.5t136 -542.5q0 -348 -136 -543.5t-384 -195.5t-385 196t-137 543zM190 719q0 -333 127 -518t359 -185q231 0 358 185t127 518t-126.5 515.5t-358.5 182.5q-233 0 -359.5 -182.5t-126.5 -515.5z" />
<glyph unicode="1" horiz-adv-x="706" d="M59 1141q-4 8 7 14l387 285q9 5 15.5 1t6.5 -14v-1413q0 -14 -14 -14h-8q-15 0 -15 14v1370l-350 -260q-10 -7 -16 2z" />
<glyph unicode="2" horiz-adv-x="1122" d="M88 9.5q-4 9.5 4 15.5l602 561q123 114 188.5 223t65.5 233q0 157 -108.5 266t-290.5 109q-74 0 -139 -19.5t-105 -47.5t-68.5 -56t-40.5 -48l-12 -19q-5 -10 -14 -6l-14 8q-10 10 -4 20q4 8 13.5 22t44 49.5t76 62.5t112.5 49t151 22q135 0 236 -57.5t150.5 -150 t49.5 -204.5q0 -131 -68 -245.5t-198 -235.5l-559 -522h798q7 0 12 -5t5 -11v-9q0 -14 -17 -14h-856q-10 0 -14 9.5z" />
<glyph unicode="3" horiz-adv-x="1191" d="M133 168q-7 12 0 20l10 9q10 7 19 -2q59 -61 98 -89q127 -90 303 -90q203 0 322 106t119 271q0 63 -27 122.5t-74 106.5t-117.5 75t-152.5 28h-285q-14 0 -14 16v9q0 14 14 14h285q135 0 235.5 92t100.5 234q0 143 -102 235t-267 92q-71 0 -137 -18t-109 -43.5t-76 -51 t-48 -43.5l-15 -18q-7 -10 -16 -4l-13 8q-13 7 -6 17q6 8 17.5 20.5t51 45.5t84.5 58t117.5 45.5t149.5 20.5q181 0 293.5 -102t112.5 -262q0 -122 -73 -215.5t-183 -126.5q128 -33 209 -134.5t81 -220.5q0 -181 -130 -297t-347 -116q-74 0 -141.5 16t-109 34.5t-84 50.5 t-57 46.5t-38.5 40.5z" />
<glyph unicode="4" horiz-adv-x="1255" d="M55.5 343q-3.5 7 3.5 15l912 1102q6 8 15 5t9 -13v-1081h150q14 0 14 -13v-8q0 -14 -14 -14h-150v-322q0 -14 -14 -14h-6q-17 0 -17 14v322h-888q-11 0 -14.5 7zM117 371h841v1018z" />
<glyph unicode="5" horiz-adv-x="1181" d="M162 160q-8 10 0 20l10 8q11 6 21 -4q140 -168 382 -168q200 0 331.5 131.5t131.5 321.5q0 194 -117 294.5t-343 100.5h-381q-15 0 -15 17v538q0 6 4.5 10.5t10.5 4.5h688q14 0 14 -15v-6q0 -14 -14 -14h-666v-498h359q244 0 370.5 -110.5t126.5 -321.5 q0 -134 -63.5 -245.5t-179 -177.5t-257.5 -66q-263 0 -413 180z" />
<glyph unicode="6" horiz-adv-x="1204" d="M137 582q0 121 30 231t77.5 193t113 156.5t128.5 123t132.5 91.5t117 63.5t89.5 36.5q13 4 17 -7l4 -14q3 -11 -8 -16q-38 -14 -80 -33t-104.5 -54.5t-119 -77.5t-118 -104t-108 -131t-82.5 -161t-48 -193q31 41 68.5 78t95.5 78.5t137 66.5t166 25q92 0 175.5 -33 t147.5 -92t102 -147.5t38 -192.5q0 -133 -64.5 -246t-174 -178t-236.5 -65q-153 0 -267 80.5t-171.5 215.5t-57.5 306zM172 582q0 -160 53 -287t159 -203t249 -76q179 0 308.5 132.5t129.5 320.5q0 127 -60.5 226t-156.5 150.5t-209 51.5q-56 0 -109 -11.5t-94 -30 t-79.5 -44t-65.5 -50t-51.5 -51.5t-37.5 -45.5t-24 -35.5l-12 -17v-30z" />
<glyph unicode="7" horiz-adv-x="1009" d="M51 1413v6q0 6 4.5 10.5t10.5 4.5h899q7 0 11 -6.5t1 -12.5l-623 -1413q-6 -11 -16 -6l-10 4q-9 5 -4 18l606 1381h-864q-15 0 -15 14z" />
<glyph unicode="8" horiz-adv-x="1239" d="M150 369q0 140 101 236.5t277 125.5q-153 31 -246.5 124t-93.5 222q0 58 14.5 111t47 102t81 85t122 57.5t163.5 21.5q111 0 197.5 -32.5t137.5 -87t76.5 -120t25.5 -137.5q0 -129 -93 -222t-247 -124q178 -30 277.5 -122.5t99.5 -239.5q0 -99 -36.5 -175t-101.5 -122 t-149 -69t-185 -23t-184.5 23t-147.5 69t-100 122t-36 175zM186 369q0 -119 58 -201t153 -119t221 -37q93 0 170.5 21.5t137.5 64t93.5 112t33.5 159.5q0 139 -117.5 233t-314.5 107q-201 -14 -318 -103.5t-117 -236.5zM225 1077q0 -139 111.5 -224.5t284.5 -94.5 q172 9 282.5 94.5t110.5 224.5q0 66 -23.5 125.5t-69.5 109t-125 78.5t-180 29t-179 -29t-122.5 -78.5t-67 -109t-22.5 -125.5z" />
<glyph unicode="9" horiz-adv-x="1204" d="M96 969q0 133 64.5 245t174 176t236.5 64q153 0 267 -80t171.5 -215t57.5 -305q0 -120 -30 -230t-77.5 -193t-112.5 -156.5t-128.5 -123.5t-132.5 -91.5t-117 -63.5t-90 -37q-14 -5 -17 8l-4 15q-3 10 9 16q38 14 80 33t104 54.5t118.5 77.5t117.5 104t108 131t82 161 t47 193q-23 -32 -50 -61t-71 -65t-92 -62t-114.5 -44t-137.5 -18q-91 0 -175 33.5t-148 93t-102 148t-38 192.5zM133 969q0 -128 60.5 -227t156.5 -150t209 -51q56 0 109 11.5t94 30t79.5 44t65.5 49.5t51.5 51.5t37.5 45.5t24 35l12 17v29q0 246 -123.5 403.5t-337.5 157.5 q-180 0 -309 -129.5t-129 -316.5z" />
<glyph unicode=":" horiz-adv-x="419" d="M154 33q0 23 16 39t39 16q26 0 41.5 -15.5t15.5 -39.5t-16 -41t-41 -17q-23 0 -39 17t-16 41zM154 913q0 25 16 41.5t39 16.5q26 0 41.5 -16.5t15.5 -41.5q0 -23 -16 -39t-41 -16q-23 0 -39 16.5t-16 38.5z" />
<glyph unicode=";" horiz-adv-x="501" d="M178 913q0 25 15.5 41.5t37.5 16.5q26 0 42 -16.5t16 -41.5q0 -23 -16.5 -39t-41.5 -16q-22 0 -37.5 16.5t-15.5 38.5zM182 27q0 23 15 37t39 14q47 0 73.5 -55.5t26.5 -122.5q0 -143 -113 -234q-14 -11 -20 0l-8 12q-9 13 4 23q96 74 96 190q0 71 -23 109 q-17 -20 -41 -20q-20 0 -34.5 13.5t-14.5 33.5z" />
<glyph unicode="&#x3c;" d="M202 475q0 7 7 12l747 482q14 7 19 -4l6 -11q8 -12 -4 -18l-717 -461l717 -446q13 -6 4 -19l-6 -10q-5 -11 -19 -4l-747 467q-7 5 -7 12z" />
<glyph unicode="=" d="M260 375v8q0 14 14 14h678q15 0 15 -14v-8q0 -6 -4.5 -10.5t-10.5 -4.5h-678q-14 0 -14 15zM260 797v8q0 14 14 14h678q15 0 15 -14v-8q0 -6 -4.5 -10.5t-10.5 -4.5h-678q-14 0 -14 15z" />
<glyph unicode="&#x3e;" d="M246 10q-8 13 4 19l717 446l-717 461q-12 6 -4 18l6 11q5 10 18 4l748 -482q8 -5 8 -12t-8 -12l-748 -467q-13 -6 -18 4z" />
<glyph unicode="?" horiz-adv-x="956" d="M96 1270q5 7 14.5 19.5t44.5 44.5t75.5 56t107.5 44t141 20q162 0 264.5 -86t102.5 -215q0 -54 -20.5 -104.5t-49 -86.5t-71 -71.5t-72 -55t-66.5 -40.5q-20 -10 -32.5 -18t-30 -24t-26.5 -38.5t-9 -50.5v-123q0 -15 -14 -15h-9q-14 0 -14 15v123q0 28 9.5 53.5t19.5 40 t31 31t29.5 21.5t29.5 17q260 147 260 326q0 114 -92.5 189t-239.5 75q-68 0 -129.5 -17.5t-100.5 -42t-68 -49t-41 -42.5l-13 -17q-8 -12 -16 -4l-11 8q-9 9 -4 17zM412 29q0 20 13.5 33.5t33.5 13.5q22 0 35.5 -13.5t13.5 -33.5q0 -21 -14 -35t-35 -14q-20 0 -33.5 14.5 t-13.5 34.5z" />
<glyph unicode="@" horiz-adv-x="2021" d="M123 461q0 217 67 400.5t188 314.5t298 204.5t389 73.5q201 0 365 -64.5t273 -179t167.5 -272t58.5 -342.5q0 -106 -23.5 -202t-70.5 -176.5t-128 -128.5t-187 -48q-93 0 -150.5 45.5t-73.5 118.5q-99 -164 -311 -164q-175 0 -284 125t-109 313q0 182 113.5 302 t285.5 120q179 0 299 -110v75q0 6 4.5 10.5t10.5 4.5h8q14 0 14 -15v-592q0 -88 50.5 -142t142.5 -54q94 0 167.5 44.5t117.5 119t66.5 165t22.5 189.5q0 178 -56 328.5t-160.5 260t-261.5 171t-351 61.5q-273 0 -480 -122t-317 -338.5t-110 -495.5q0 -309 164.5 -539.5 t439.5 -347.5q10 -5 6 -14l-6 -13q-6 -12 -17 -6q-282 120 -452 359.5t-170 560.5zM629 479q0 -172 98 -286.5t258 -114.5q67 0 123 20.5t88.5 49.5t55 58t30.5 50l8 20v459q-4 6 -16 19t-39 32.5t-59.5 36.5t-82 29t-102.5 12q-158 0 -260 -109.5t-102 -275.5z" />
<glyph unicode="A" horiz-adv-x="1296" d="M8 14l631 1454q5 9 10 9h4q7 0 11 -9l618 -1454q1 -2 1 -4q0 -6 -7 -8l-19 -6h-2q-4 0 -8 6l-182 428h-838l-184 -428q-3 -6 -8 -6h-2l-19 6q-7 2 -7 8q0 2 1 4zM244 465h805l-398 938z" />
<glyph unicode="B" horiz-adv-x="1280" d="M221 14v1405q0 6 4.5 10.5t10.5 4.5h421q196 0 313 -95.5t117 -267.5q0 -124 -69.5 -210t-190.5 -122q142 -27 224 -116t82 -238q0 -171 -127.5 -278t-329.5 -107h-440q-15 0 -15 14zM258 37h418q188 0 304 96t116 252q0 164 -108 247t-288 83h-442v-678zM258 752h404 q174 0 281.5 85.5t107.5 233.5q0 155 -106.5 240.5t-287.5 85.5h-399v-645z" />
<glyph unicode="C" horiz-adv-x="1482" d="M123 715q0 152 58.5 289t158 235.5t237 156.5t289.5 58q149 0 268 -48t230 -142q5 -5 5 -9t-3 -8l-10 -12q-8 -9 -17 0q-105 91 -218 136.5t-255 45.5q-144 0 -275 -55t-225.5 -149t-150 -224t-55.5 -274q0 -192 94.5 -353t256.5 -253.5t355 -92.5q264 0 473 191 q10 10 17 0l10 -12q4 -4 4 -7.5t-4 -7.5q-209 -200 -500 -200q-152 0 -289.5 57.5t-237 155t-158 234t-58.5 288.5z" />
<glyph unicode="D" horiz-adv-x="1490" d="M221 14v1405q0 6 3.5 10.5t8.5 4.5h410q147 0 281 -56.5t230.5 -152.5t154 -228.5t57.5 -277.5q0 -196 -97 -361.5t-263.5 -261.5t-362.5 -96h-410q-12 0 -12 14zM256 37h387q140 0 267 53.5t219.5 144.5t147 217.5t54.5 266.5q0 184 -92.5 340.5t-250.5 247t-345 90.5 h-387v-1360z" />
<glyph unicode="E" horiz-adv-x="1202" d="M221 14v1405q0 6 4.5 10.5t10.5 4.5h833q14 0 14 -15v-8q0 -14 -14 -14h-811v-633h713q14 0 14 -14v-9q0 -14 -14 -14h-713v-690h811q14 0 14 -14v-9q0 -14 -14 -14h-833q-15 0 -15 14z" />
<glyph unicode="F" horiz-adv-x="1148" d="M221 14v1405q0 6 4.5 10.5t10.5 4.5h833q14 0 14 -15v-8q0 -14 -14 -14h-811v-684h713q14 0 14 -15v-8q0 -14 -14 -14h-713v-662q0 -14 -14 -14h-8q-15 0 -15 14z" />
<glyph unicode="G" horiz-adv-x="1540" d="M123 715q0 152 58.5 289t158 235.5t237 156.5t289.5 58q149 0 268 -48t230 -142q8 -8 2 -17l-10 -12q-8 -9 -17 0q-105 91 -218 136.5t-255 45.5q-144 0 -275 -55t-225.5 -149t-150 -224t-55.5 -274q0 -192 94.5 -353t256.5 -253.5t355 -92.5q96 0 183.5 16.5t147 42 t95.5 46t56 37.5v481h-465q-15 0 -15 14v9q0 5 4.5 8.5t10.5 3.5h487q14 0 14 -12v-519q-5 -9 -27.5 -26t-68.5 -41t-103.5 -45t-142.5 -36t-176 -15q-152 0 -289.5 57.5t-237 155t-158 234t-58.5 288.5z" />
<glyph unicode="H" horiz-adv-x="1523" d="M221 14v1405q0 6 4.5 10.5t10.5 4.5h8q14 0 14 -15v-655h1008v655q0 15 14 15h8q6 0 10.5 -4.5t4.5 -10.5v-1405q0 -14 -15 -14h-8q-14 0 -14 14v713h-1008v-713q0 -14 -14 -14h-8q-15 0 -15 14z" />
<glyph unicode="I" horiz-adv-x="479" d="M221 14v1405q0 6 4.5 10.5t10.5 4.5h8q14 0 14 -15v-1405q0 -14 -14 -14h-8q-15 0 -15 14z" />
<glyph unicode="J" horiz-adv-x="948" d="M43 137q-4 5 -4 10t6 9l8 6q10 7 17 -4q114 -142 290 -142q169 0 258 105t89 307v991q0 15 14 15h6q14 0 14 -15v-991q0 -217 -98.5 -332.5t-282.5 -115.5q-195 0 -317 157z" />
<glyph unicode="K" horiz-adv-x="1107" d="M221 14v1405q0 6 4.5 10.5t10.5 4.5h8q14 0 14 -15v-682l762 695q5 5 10 5l10 -5l7 -7q10 -10 0 -20l-756 -686l776 -696q8 -8 8 -14q0 -5 -4 -9l-8 -8q-3 -3 -6 -3q-5 0 -13 7l-786 704v-686q0 -14 -14 -14h-8q-15 0 -15 14z" />
<glyph unicode="L" horiz-adv-x="1015" d="M221 14v1405q0 6 4.5 10.5t10.5 4.5h8q5 0 8.5 -4.5t3.5 -10.5v-1382h715q14 0 14 -14v-9q0 -14 -14 -14h-735q-15 0 -15 14z" />
<glyph unicode="M" horiz-adv-x="1759" d="M106 16l302 1442q2 10 13.5 10t14.5 -10l445 -1384l438 1384q3 10 14.5 10t14.5 -10l309 -1442q1 -4 1 -6q0 -8 -7 -10l-17 -4q-9 -3 -12 12l-295 1356l-432 -1380q-3 -10 -14.5 -10t-14.5 10l-440 1380l-285 -1356q-3 -15 -12 -12l-16 4q-8 2 -8 10q0 3 1 6z" />
<glyph unicode="N" horiz-adv-x="1564" d="M221 14v1440q1 11 11 14q3 1 4 1q7 0 12 -7l1059 -1411v1368q0 15 14 15h8q14 0 14 -15v-1435q0 -10 -10 -14q-3 -1 -5 -1q-6 0 -11 6l-1059 1411v-1372q0 -14 -14 -14h-8q-15 0 -15 14z" />
<glyph unicode="O" horiz-adv-x="1728" d="M125 715q0 152 58 289t156.5 235.5t235.5 156.5t289 58t289.5 -58t236.5 -156.5t157.5 -235.5t58.5 -289t-58.5 -288.5t-157.5 -234t-236.5 -155t-289.5 -57.5t-289 57.5t-235.5 155t-156.5 234t-58 288.5zM162 715q0 -192 93.5 -353t254.5 -253.5t354 -92.5 q144 0 274.5 54.5t225 148t150 223t55.5 273.5t-55.5 274t-150 224t-225 149t-274.5 55q-192 0 -353.5 -93.5t-255 -255t-93.5 -353.5z" />
<glyph unicode="P" horiz-adv-x="1212" d="M221 14v1405q0 6 4.5 10.5t10.5 4.5h426q127 0 235 -62.5t170.5 -169t62.5 -231.5q0 -193 -137 -331t-329 -138h-406v-488q0 -14 -14 -14h-8q-15 0 -15 14zM258 539h406q177 0 303.5 127t126.5 305q0 175 -127 300.5t-305 125.5h-404v-858z" />
<glyph unicode="Q" horiz-adv-x="1728" d="M125 715q0 152 58 289t156.5 235.5t235.5 156.5t289 58t289.5 -58t236.5 -156.5t157.5 -235.5t58.5 -289q0 -238 -134.5 -424t-351.5 -264l240 -394q7 -10 -2 -16l-19 -10q-2 -1 -4 -1q-5 0 -8 7l-242 401q-103 -34 -221 -34q-152 0 -289 57.5t-235.5 155t-156.5 234 t-58 288.5zM162 715q0 -192 93.5 -353t254.5 -253.5t354 -92.5q144 0 274.5 54.5t225 148t150 223t55.5 273.5t-55.5 274t-150 224t-225 149t-274.5 55q-192 0 -353.5 -93.5t-255 -255t-93.5 -353.5z" />
<glyph unicode="R" horiz-adv-x="1312" d="M221 14v1405q0 6 4.5 10.5t10.5 4.5h485q194 0 330.5 -125.5t136.5 -313.5q0 -167 -106 -288.5t-267 -151.5l320 -535q7 -10 -2 -16l-19 -10q-2 -1 -4 -1q-5 0 -8 7l-326 549q-18 -2 -53 -2h-467v-533q0 -14 -12 -14h-8q-15 0 -15 14zM256 582h467q117 0 215.5 53 t156.5 148.5t58 211.5q0 173 -125.5 287.5t-306.5 114.5h-465v-815z" />
<glyph unicode="S" horiz-adv-x="1126" d="M127 1096q0 52 15 101.5t49.5 96.5t85 82t127 56.5t169.5 21.5q57 0 115 -10.5t99 -26t74.5 -31t50.5 -26.5l16 -10q11 -7 4 -17l-8 -12q-6 -9 -17 -4q-6 4 -17 11t-46.5 24t-72 30t-91 24t-107.5 11q-107 0 -188.5 -28.5t-128 -76t-69.5 -102.5t-23 -114 q0 -76 27.5 -132.5t85 -96t123 -65.5t165.5 -52q116 -32 195 -64.5t143.5 -78.5t95.5 -107.5t31 -141.5q0 -161 -129.5 -269.5t-322.5 -108.5q-85 0 -165 21.5t-137.5 55.5t-86.5 54.5t-48 38.5q-9 9 0 18l9 8q8 8 18 -2q185 -158 410 -158q174 0 294.5 98t120.5 244 q0 60 -21.5 109t-57 84t-94 65.5t-119.5 52t-146 44.5q-83 23 -140.5 43.5t-116 52t-93 69.5t-56.5 93t-22 125z" />
<glyph unicode="T" horiz-adv-x="1019" d="M49 1411v8q0 15 14 15h893q6 0 10.5 -4.5t4.5 -10.5v-8q0 -14 -15 -14h-430v-1383q0 -14 -14 -14h-8q-15 0 -15 14v1383h-426q-14 0 -14 14z" />
<glyph unicode="U" horiz-adv-x="1470" d="M205 516v903q0 15 14 15h8q6 0 10.5 -4.5t4.5 -10.5v-903q0 -224 132.5 -362t358.5 -138q228 0 362 138t134 362v903q0 15 14 15h8q6 0 10.5 -4.5t4.5 -10.5v-903q0 -239 -145 -387.5t-388 -148.5q-242 0 -385 148.5t-143 387.5z" />
<glyph unicode="V" horiz-adv-x="1286" d="M10 1419q-1 2 -1 5q0 6 7 8l19 6h2q4 0 8 -6l594 -1399l608 1399q3 6 8 6h2l19 -6q7 -2 7 -8q0 -2 -1 -5l-631 -1452q-5 -9 -12 -9t-12 9z" />
<glyph unicode="W" horiz-adv-x="1777" d="M59 1419q-1 2 -1 4q0 6 8 9l16 6q9 3 12 -6l398 -1369l376 1387q3 10 14.5 10t14.5 -10l395 -1384l383 1366q3 9 13 6l16 -6q7 -2 7 -8q0 -2 -1 -5l-403 -1444q-3 -11 -14.5 -11t-14.5 11l-395 1385l-377 -1385q-3 -11 -14.5 -11t-14.5 11z" />
<glyph unicode="X" horiz-adv-x="1099" d="M68 25l456 706l-436 678q-7 11 2 18l12 9q3 2 6 2q6 0 11 -8l430 -666l430 666q5 7 11 7q2 0 5 -1l13 -9q9 -7 2 -18l-439 -678l461 -706q4 -5 4 -10t-6 -9l-12 -8q-3 -2 -6 -2q-6 0 -11 8l-452 692l-451 -692q-5 -7 -11 -7q-2 0 -5 1l-12 8q-6 4 -6 9t4 10z" />
<glyph unicode="Y" horiz-adv-x="1130" d="M6 1409q-3 5 -3 9q0 5 5 9l12 9q2 1 4 1q6 0 13 -7l528 -695l529 695q5 8 11 8l5 -2l12 -9q5 -4 5 -9q0 -4 -3 -9l-540 -704v-691q0 -14 -15 -14h-8q-14 0 -14 14v688z" />
<glyph unicode="Z" horiz-adv-x="1054" d="M46 8q-2 4 -2 7q0 4 3 8l899 1374h-817q-14 0 -14 14v8q0 15 14 15h858q9 0 13 -8q2 -4 2 -7q0 -4 -3 -8l-899 -1374h842q14 0 14 -14v-9q0 -14 -14 -14h-883q-9 0 -13 8z" />
<glyph unicode="[" horiz-adv-x="671" d="M182 -473v1892q0 6 4.5 10.5t10.5 4.5h415q6 0 10.5 -4.5t4.5 -10.5v-8q0 -14 -15 -14h-393v-1848h393q15 0 15 -14v-8q0 -14 -15 -14h-415q-15 0 -15 14z" />
<glyph unicode="\" horiz-adv-x="755" d="M109 1419q-4 12 6 15h14q11 0 14 -9l502 -1413q4 -12 -6 -12h-14q-12 0 -15 8z" />
<glyph unicode="]" horiz-adv-x="671" d="M45 -465q0 14 14 14h394v1848h-394q-14 0 -14 14v8q0 15 14 15h416q14 0 14 -15v-1892q0 -14 -14 -14h-416q-14 0 -14 14v8z" />
<glyph unicode="^" horiz-adv-x="1073" d="M82 840l448 624q4 6 12 6t13 -6l436 -624q7 -10 -4 -17l-12 -8q-10 -7 -17 4l-415 596l-428 -596q-7 -11 -17 -4l-12 8q-11 7 -4 17z" />
<glyph unicode="_" horiz-adv-x="1091" d="M193 -35q0 15 14 15h678q14 0 14 -15v-8q0 -12 -14 -12h-678q-14 0 -14 12v8z" />
<glyph unicode="`" horiz-adv-x="618" d="M111 1350l4 8q6 10 18 6l373 -186q11 -5 6 -15l-4 -10q-6 -11 -19 -6l-372 184q-12 6 -6 19z" />
<glyph unicode="a" horiz-adv-x="997" d="M90 295q0 141 114.5 232t299.5 91q149 0 284 -53v88q0 145 -60 211t-206 66q-165 0 -291 -70q-16 -8 -22 4l-4 8q-8 15 4 21q133 74 313 74q169 0 236 -74t67 -240v-637q0 -16 -14 -16h-8q-15 0 -15 16v107q-68 -58 -166 -102t-204 -44q-142 0 -235 86t-93 232zM127 295 q0 -127 83 -204t208 -77q116 0 221 53.5t149 108.5v350q-154 56 -284 56q-167 0 -272 -81.5t-105 -205.5z" />
<glyph unicode="b" horiz-adv-x="1140" d="M180 16v1401q0 17 15 17h8q14 0 14 -17v-583q6 5 16.5 14t45.5 32t72 40.5t94 32t114 14.5q208 0 337.5 -138.5t129.5 -353.5q0 -103 -36 -195.5t-97 -158.5t-144 -105t-174 -39q-219 0 -358 154v-115q0 -16 -14 -16h-8q-15 0 -15 16zM217 190q10 -13 18.5 -24.5 t42.5 -42t70.5 -51t98 -38.5t128.5 -18q82 0 158.5 36t132.5 97t89.5 146.5t33.5 179.5q0 197 -120.5 326t-309.5 129q-60 0 -117 -15.5t-96 -38t-69.5 -45t-44.5 -37.5l-15 -16v-588z" />
<glyph unicode="c" horiz-adv-x="1095" d="M113 477q0 140 68.5 253t183.5 175t251 62q220 0 365 -125q11 -10 0 -21l-10 -12q-7 -7 -21 4q-137 117 -334 117q-124 0 -231 -58t-171 -162.5t-64 -232.5q0 -129 65.5 -236.5t172 -167t228.5 -59.5q197 0 351 154q10 10 18 2l10 -10q4 -5 4.5 -9.5t-4.5 -9.5 q-8 -9 -21 -22t-49 -40t-76.5 -48t-103.5 -37.5t-129 -16.5q-134 0 -248.5 63.5t-184.5 179t-70 257.5z" />
<glyph unicode="d" horiz-adv-x="1140" d="M115 475q0 215 129.5 353.5t337.5 138.5q57 0 113 -13.5t95.5 -33.5t71 -39.5t46.5 -32.5l16 -14v583q0 17 14 17h8q15 0 15 -17v-1401q0 -16 -15 -16h-8q-14 0 -14 16v115q-139 -154 -359 -154q-121 0 -224.5 65.5t-164.5 180.5t-61 252zM152 475q0 -125 56.5 -231 t151.5 -167t205 -61q67 0 128.5 17.5t98.5 38.5t71 51.5t43 42t18 24.5v588q-5 6 -15 16.5t-44 36.5t-71 46t-94.5 36.5t-117.5 16.5q-189 0 -309.5 -129t-120.5 -326z" />
<glyph unicode="e" horiz-adv-x="1107" d="M115 477q0 138 55 248.5t162 176t248 65.5q190 0 309 -119.5t119 -310.5q0 -56 -11 -70q-5 -10 -14 -10h-831q5 -190 122 -316.5t306 -126.5q100 0 187 32.5t136 72.5q6 4 11.5 3t7.5 -5l8 -15q4 -6 -4 -14q-58 -43 -149 -77t-197 -34q-141 0 -248 67t-162 180t-55 253z M152 494h817q2 16 2 43q0 173 -111.5 283t-279.5 110q-126 0 -223 -59t-149 -157t-56 -220z" />
<glyph unicode="f" horiz-adv-x="741" d="M59 924v8q0 14 17 14h145v133q0 375 309 375q89 0 158 -30t111 -70q5 -4 5 -9.5t-5 -11.5l-6 -8q-10 -13 -23 0q-97 92 -240 92q-272 0 -272 -338v-133h430q17 0 17 -14v-8q0 -15 -17 -15h-430v-893q0 -16 -14 -16h-8q-15 0 -15 16v893h-145q-17 0 -17 15z" />
<glyph unicode="g" horiz-adv-x="1138" d="M115 477q0 211 131.5 350.5t333.5 139.5q204 0 342 -123v86q0 16 14 16h8q14 0 14 -16v-961q0 -198 -110 -308t-279 -110q-181 0 -321 123q-9 9 -10 11.5t4 11.5l8 10q7 7 18 -2q132 -117 301 -117q71 0 134 24t112 70t78 120t29 167v125q-51 -45 -135 -81t-187 -36 q-221 0 -353 141t-132 359zM152 477q0 -130 53.5 -235t156.5 -166.5t238 -61.5q55 0 107 13t87.5 31t65 39t43.5 35t19 22v630q-8 13 -30.5 33.5t-63.5 47.5t-107 46t-141 19q-184 0 -306 -130t-122 -323z" />
<glyph unicode="h" horiz-adv-x="1105" d="M180 16v1401q0 17 15 17h8q14 0 14 -17v-624q31 33 56.5 55.5t70.5 53.5t102 48t121 17q190 0 280.5 -110t90.5 -329v-512q0 -16 -14 -16h-9q-14 0 -14 16v512q0 196 -83 299t-251 103q-59 0 -115 -18.5t-92 -41t-71.5 -56t-47 -47.5t-24.5 -32v-719q0 -16 -14 -16h-8 q-15 0 -15 16z" />
<glyph unicode="i" horiz-adv-x="397" d="M154 1286q0 21 13 36t34 15q20 0 33.5 -15t13.5 -36q0 -19 -13.5 -33t-33.5 -14q-21 0 -34 14t-13 33zM180 16v914q0 16 15 16h8q14 0 14 -16v-914q0 -16 -14 -16h-8q-15 0 -15 16z" />
<glyph unicode="j" horiz-adv-x="397" d="M-74 -492q-3 13 15 17q125 30 182 107.5t57 234.5v1063q0 16 15 16h8q14 0 14 -16v-1063q0 -169 -64 -258t-202 -119q-4 -1 -7 -1q-14 0 -16 11zM154 1286q0 21 13 36t34 15q20 0 33.5 -15t13.5 -36q0 -19 -13.5 -33t-33.5 -14q-21 0 -34 14t-13 33z" />
<glyph unicode="k" horiz-adv-x="913" d="M180 16v1401q0 17 15 17h8q14 0 14 -17v-870l600 411q13 8 19 -4l6 -10q5 -11 -4 -18l-586 -402l602 -499q6 -4 6 -9.5t-6 -13.5l-6 -8q-4 -5 -9 -5q-4 0 -8 3l-614 514v-490q0 -16 -14 -16h-8q-15 0 -15 16z" />
<glyph unicode="l" horiz-adv-x="430" d="M197 16v1401q0 17 14 17h8q14 0 14 -17v-1401q0 -16 -14 -16h-8q-14 0 -14 16z" />
<glyph unicode="m" horiz-adv-x="1695" d="M180 16v914q0 16 15 16h8q14 0 14 -16v-129q19 25 37 44t48.5 43.5t63.5 40.5t81 27t102 11q109 0 180 -46.5t113 -140.5q17 25 33.5 45t47.5 48.5t64.5 47.5t84 32.5t106.5 13.5q180 0 265 -109.5t85 -329.5v-512q0 -16 -15 -16h-8q-14 0 -14 16v512q0 402 -313 402 q-58 0 -109.5 -17t-82.5 -36.5t-62 -53t-39.5 -46.5t-24.5 -38q31 -88 31 -211v-512q0 -16 -14 -16h-11q-12 0 -12 16v512q0 196 -76.5 299t-228.5 103q-45 0 -86.5 -9t-70.5 -20.5t-58 -33t-44.5 -35t-34.5 -38t-23 -30t-15 -23.5v-725q0 -16 -14 -16h-8q-15 0 -15 16z" />
<glyph unicode="n" horiz-adv-x="1103" d="M180 16v914q0 16 15 16h8q14 0 14 -16v-129q155 166 350 166q190 0 279.5 -109.5t89.5 -329.5v-512q0 -16 -12 -16h-9q-16 0 -16 16v512q0 402 -332 402q-72 0 -137.5 -23t-110.5 -59.5t-66 -58t-36 -41.5v-732q0 -16 -14 -16h-8q-15 0 -15 16z" />
<glyph unicode="o" horiz-adv-x="1181" d="M113 475q0 135 63 248t172.5 178.5t241.5 65.5q202 0 340.5 -143t138.5 -349q0 -210 -138.5 -354t-340.5 -144q-201 0 -339 144.5t-138 353.5zM150 475q0 -192 128 -326.5t312 -134.5q186 0 314 134.5t128 326.5q0 190 -128.5 322.5t-313.5 132.5q-184 0 -312 -133 t-128 -322z" />
<glyph unicode="p" horiz-adv-x="1138" d="M180 -471v1401q0 16 15 16h8q14 0 14 -16v-86q138 123 342 123q202 0 333.5 -139.5t131.5 -350.5q0 -218 -132 -359t-353 -141q-103 0 -187 36t-135 81v-565q0 -16 -14 -16h-8q-15 0 -15 16zM217 154q5 -8 19 -22t43.5 -35t65 -39t87.5 -31t107 -13q135 0 238 61.5 t156.5 166.5t53.5 235q0 193 -122 323t-306 130q-75 0 -141 -19t-107 -46t-63.5 -47.5t-30.5 -33.5v-630z" />
<glyph unicode="q" horiz-adv-x="1138" d="M115 477q0 211 131.5 350.5t333.5 139.5q204 0 342 -123v86q0 16 14 16h8q14 0 14 -16v-1401q0 -16 -14 -16h-8q-14 0 -14 16v565q-51 -45 -135 -81t-187 -36q-221 0 -353 141t-132 359zM152 477q0 -130 53.5 -235t156.5 -166.5t238 -61.5q55 0 107 13t87.5 31t65 39 t43.5 35t19 22v630q-8 13 -30.5 33.5t-63.5 47.5t-107 46t-141 19q-184 0 -306 -130t-122 -323z" />
<glyph unicode="r" horiz-adv-x="749" d="M180 16v914q0 16 15 16h8q14 0 14 -16v-125q45 63 125 112.5t186 49.5q112 0 174 -39q8 -6 8 -13q0 -4 -3 -10l-5 -8q-2 -4 -8 -6t-14 2q-55 37 -152 37q-54 0 -104 -17.5t-82.5 -40t-62 -53.5t-41 -46.5t-21.5 -31.5v-725q0 -16 -14 -16h-8q-15 0 -15 16z" />
<glyph unicode="s" horiz-adv-x="870" d="M111 727q0 42 19.5 83.5t56.5 77t99.5 57.5t139.5 22q156 0 270 -72q14 -9 4 -23l-4 -6q-9 -12 -22 -6q-115 70 -248 70q-134 0 -206.5 -63t-72.5 -140q0 -80 67 -128t214 -89q54 -16 80.5 -24t71 -24t67.5 -29t53 -34t44.5 -43.5t25 -53t10.5 -66.5q0 -109 -98.5 -184 t-241.5 -75q-106 0 -186 32t-127 73q-11 11 -4 20l8 11q8 12 21 2q121 -101 288 -101q127 0 215 65.5t88 156.5q0 40 -18 73t-44.5 55.5t-72.5 43.5t-87 34.5t-103 30.5q-163 44 -235 100.5t-72 153.5z" />
<glyph unicode="t" horiz-adv-x="704" d="M84 922v10q0 14 14 14h101v256q0 6 3.5 10.5t8.5 4.5h10q15 0 15 -15v-256h389q14 0 14 -14v-10q0 -13 -14 -13h-389v-655q0 -48 2 -77t11.5 -64t27.5 -54t51.5 -32t81.5 -13q66 0 142.5 27.5t111.5 50.5q11 7 18 -4l6 -10q3 -4 3 -7q0 -5 -7 -10q-38 -25 -118.5 -54.5 t-155.5 -29.5q-58 0 -98 14.5t-62 36.5t-34 61.5t-14.5 74t-2.5 90.5v655h-101q-14 0 -14 13z" />
<glyph unicode="u" horiz-adv-x="1081" d="M168 412v518q0 16 12 16h13q12 0 12 -16v-518q0 -396 332 -396q60 0 114.5 18t88.5 40.5t64.5 54t40.5 45.5t19 29v727q0 16 15 16h10q12 0 12 -16v-914q0 -16 -12 -16h-10q-15 0 -15 16v125q-137 -164 -327 -164t-279.5 108.5t-89.5 326.5z" />
<glyph unicode="v" horiz-adv-x="958" d="M47 936q-3 6 -3 10q0 6 5 8l12 7q3 2 6 2q7 0 11 -11l401 -923l402 923q4 10 11 10q2 0 5 -1l12 -9q4 -3 4 -8q0 -4 -2 -8l-417 -961q-6 -11 -14.5 -11t-14.5 11z" />
<glyph unicode="w" horiz-adv-x="1392" d="M66 938q-1 3 -1 6q0 8 7 10l10 4q14 7 18 -8l297 -901l283 922q3 11 16.5 11t16.5 -11l280 -922l299 897q4 18 19 12l10 -4q7 -2 7 -10q0 -3 -1 -6l-315 -956q-3 -14 -16.5 -14t-16.5 14l-283 915l-280 -915q-3 -14 -16.5 -14t-16.5 14z" />
<glyph unicode="x" horiz-adv-x="923" d="M74 25l366 464l-354 443q-4 8 4 16l10 8q2 2 5 2h3q6 -2 9 -6l344 -438l348 438q4 7 9 7l5 -3l13 -10q6 -6 2 -14l-355 -443l369 -464q4 -5 4 -10t-6 -9l-10 -8q-6 -3 -10 -3q-6 0 -9 5l-360 463l-359 -461q-5 -5 -10 -5q-4 0 -8 3l-8 6q-5 5 -5 10t3 9z" />
<glyph unicode="y" horiz-adv-x="962" d="M45 936q-2 5 -2 8q0 5 4 8l12 6q4 2 7 2q6 0 10 -10l409 -897l400 897q3 10 10 10q3 0 6 -2l12 -6q4 -3 4 -8q0 -3 -2 -8l-634 -1423q-6 -13 -14 -13q-3 0 -7 2l-8 4q-12 6 -4 21l217 489z" />
<glyph unicode="z" horiz-adv-x="860" d="M58 9q-2 4 -3 8q0 5 4 10l670 882h-590q-14 0 -14 13v10q0 14 14 14h631q12 0 17 -8q2 -4 2 -8q0 -5 -3 -10l-673 -883h632q17 0 17 -14v-9q0 -14 -17 -14h-671q-10 0 -16 9z" />
<glyph unicode="{" horiz-adv-x="679" d="M70 473v8q0 15 14 15q46 0 97.5 50.5t51.5 135.5v297q0 137 29.5 233t85 147.5t122 73t153.5 21.5q14 0 14 -14v-8q0 -15 -14 -15q-62 0 -112.5 -11.5t-96.5 -42t-77 -79t-49 -126t-18 -179.5v-297q0 -73 -36.5 -125.5t-86.5 -79.5q50 -27 86.5 -79.5t36.5 -125.5v-303 q0 -127 26.5 -216t77 -137t110.5 -68.5t139 -20.5q14 0 14 -14v-9q0 -14 -14 -14q-69 0 -124.5 13t-106 46.5t-85 87t-54.5 137.5t-20 195v303q0 84 -50.5 135.5t-98.5 51.5q-14 0 -14 14z" />
<glyph unicode="|" horiz-adv-x="397" d="M180 -473v2013q0 14 15 14h8q14 0 14 -14v-2013q0 -14 -14 -14h-8q-15 0 -15 14z" />
<glyph unicode="}" horiz-adv-x="677" d="M43 -487q0 14 14 14q79 0 139 20.5t110.5 68.5t77 137t26.5 216v303q0 73 36 125.5t86 79.5q-50 27 -86 79.5t-36 125.5v297q0 102 -18 179.5t-49 126t-77 79t-96.5 42t-112.5 11.5q-14 0 -14 15v8q0 14 14 14q87 0 153.5 -21.5t121.5 -73t84.5 -147.5t29.5 -233v-297 q0 -85 52 -135.5t98 -50.5q14 0 14 -15v-8q0 -14 -14 -14q-48 0 -99 -51.5t-51 -135.5v-303q0 -111 -20 -195t-54 -137.5t-84.5 -87t-106 -46.5t-124.5 -13q-14 0 -14 14v9z" />
<glyph unicode="~" horiz-adv-x="1193" d="M139 535q4 8 11 21.5t32.5 48t54.5 61t76 48t97 21.5q46 0 89 -22.5t66.5 -46t52.5 -60.5q40 -52 81 -83t96 -31q44 0 85 18.5t68 45t47 53t29 45.5l10 18q5 9 15 6l10 -4q12 -6 6 -17q-4 -8 -11 -21.5t-32 -48t-54 -61t-76 -48t-97 -21.5q-36 0 -67.5 11t-58.5 33 t-43 39.5t-38 45.5q-38 50 -80 81t-98 31q-44 0 -85 -18.5t-68 -45t-47.5 -53t-29.5 -45.5l-10 -18q-6 -11 -16 -6l-11 6q-9 6 -4 17z" />
<glyph unicode="&#xa1;" horiz-adv-x="405" d="M154 918q0 21 14 35t35 14q20 0 34.5 -14.5t14.5 -34.5t-14.5 -34t-34.5 -14q-21 0 -35 14t-14 34zM184 385q0 14 15 14h8q14 0 14 -14v-858q0 -14 -14 -14h-8q-15 0 -15 14v858z" />
<glyph unicode="&#xa2;" horiz-adv-x="1128" d="M121 477q0 140 69 253t184 175t251 62q45 0 86 -6l24 92q6 15 21 12l8 -2q13 -3 8 -23l-22 -84q26 -5 50.5 -12t43.5 -14.5t38.5 -17t32 -17t26.5 -17t21 -14.5t16.5 -13t10.5 -9q11 -10 0 -21l-10 -12q-7 -7 -21 4q-1 0 -18.5 14t-33 23.5t-41 23.5t-58 25.5t-68.5 18.5 l-235 -887q66 -17 121 -17q196 0 350 154q10 10 18 2l11 -10q10 -10 0 -19q-8 -9 -21 -22t-49 -40t-76.5 -48t-103.5 -37.5t-129 -16.5q-61 0 -131 17l-54 -199q-4 -14 -20 -10l-8 2q-12 3 -9 23l52 196q-147 51 -240.5 178t-93.5 293zM158 477q0 -151 86 -268t221 -166 l235 881q-34 6 -75 6q-124 0 -231 -58t-171.5 -162.5t-64.5 -232.5z" />
<glyph unicode="&#xa3;" d="M211 651v8q0 5 4 9t10 4h82q-3 11 -13 51.5t-13.5 54.5t-11 48.5t-10.5 54.5t-7.5 50.5t-6 58.5t-1.5 57q0 118 57 212.5t148 144.5t196 50q223 0 383 -147q10 -9 0 -19l-8 -8q-9 -9 -16 -2q-152 139 -359 139q-147 0 -256.5 -103.5t-109.5 -266.5q0 -61 11 -133 t20.5 -111.5t33.5 -130.5h492q6 0 10 -4t4 -9v-8q0 -14 -14 -14h-484q15 -99 15 -172q0 -192 -97 -428h717q14 0 14 -14v-9q0 -14 -14 -14h-747q-8 0 -12 6.5t-1 13.5q105 253 105 445q0 67 -19 172h-88q-14 0 -14 14z" />
<glyph unicode="&#xa4;" horiz-adv-x="1011" d="M174 313q-7 11 0 21l123 125q-66 78 -66 176q0 109 68 186l-125 127q-7 10 0 21l4 4q11 7 21 0l127 -127q74 65 180 65q104 0 178 -65l129 127q11 7 21 0l4 -4q7 -11 0 -21l-127 -129q69 -78 69 -180q0 -103 -65 -180l123 -125q7 -11 0 -21l-4 -4q-10 -7 -21 0l-125 123 q-76 -67 -182 -67t-182 67l-125 -123q-11 -7 -21 0zM266 637q0 -97 70 -167.5t168 -70.5q96 0 167.5 71t71.5 169q0 96 -70 167t-167 71q-98 0 -169 -71t-71 -169z" />
<glyph unicode="&#xa5;" d="M96 1409q-7 11 2 18l13 9q7 3 16 -6l487 -695l488 695q8 12 16 6l12 -9q10 -7 3 -18l-500 -704v-111h348q12 0 12 -14v-9q0 -5 -3.5 -8.5t-8.5 -3.5h-348v-207h348q12 0 12 -14v-8q0 -5 -4 -9t-8 -4h-348v-303q0 -14 -15 -14h-8q-14 0 -14 14v303h-346q-4 0 -8 4t-4 9v8 q0 6 4 10.5t8 3.5h346v207h-346q-4 0 -8 3.5t-4 8.5v9q0 6 4 10.5t8 3.5h346v108z" />
<glyph unicode="&#xa6;" horiz-adv-x="409" d="M186 268q0 5 4.5 9t10.5 4h8q6 0 10 -4t4 -9v-739q0 -14 -14 -14h-8q-15 0 -15 14v739zM186 801v739q0 14 15 14h8q14 0 14 -14v-739q0 -15 -14 -15h-8q-6 0 -10.5 4.5t-4.5 10.5z" />
<glyph unicode="&#xa7;" horiz-adv-x="1155" d="M143 629q0 134 101 229q-97 91 -97 236q0 65 25.5 126.5t76.5 115t140 86t203 32.5q57 0 114 -10.5t97.5 -26t72.5 -31t48 -26.5l16 -10q9 -4 2 -15l-8 -14q-7 -13 -16 -6q-6 4 -16 11t-44 24.5t-70 31t-89.5 24.5t-106.5 11q-107 0 -189 -29t-128.5 -77t-69.5 -103 t-23 -114q0 -140 103.5 -222t294.5 -129q86 -21 148.5 -43t121 -53.5t95 -70.5t58 -93t21.5 -121q0 -55 -33 -113.5t-82 -107.5q111 -90 111 -245q0 -89 -59 -165.5t-157 -120.5t-208 -44q-64 0 -127.5 14.5t-108 33.5t-85.5 44t-59.5 39.5t-31.5 26.5q-10 10 -2 18l13 12 q7 7 16 -2q16 -16 42.5 -35.5t76 -48.5t120.5 -48t146 -19q155 0 272 87.5t117 207.5q0 75 -29 132.5t-88 98t-128.5 67.5t-168.5 52q-77 19 -136.5 40.5t-116.5 53.5t-93.5 71.5t-59 95t-22.5 122.5zM182 629q0 -139 104 -221t294 -127q202 -52 299 -117q45 42 75.5 95.5 t30.5 102.5q0 74 -29 130.5t-87.5 97t-128.5 67.5t-169 52q-197 48 -299 127q-90 -84 -90 -207z" />
<glyph unicode="&#xa8;" horiz-adv-x="847" d="M219 1284q0 22 12.5 34.5t34.5 12.5q45 0 45 -47q0 -21 -12 -33t-33 -12q-22 0 -34.5 12.5t-12.5 32.5zM608 1284q0 47 45 47q22 0 34.5 -12.5t12.5 -34.5q0 -20 -12.5 -32.5t-34.5 -12.5q-21 0 -33 12t-12 33z" />
<glyph unicode="&#xa9;" horiz-adv-x="1759" d="M139 717q0 150 58.5 286.5t158 235.5t236.5 157t287 58t287.5 -58t236.5 -157t158 -235.5t59 -286.5t-59 -286.5t-158 -235.5t-236.5 -157t-287.5 -58t-287 58t-236.5 157t-158 235.5t-58.5 286.5zM176 717q0 -190 94.5 -351.5t256.5 -255.5t352 -94t352.5 94t257 255.5 t94.5 351.5q0 142 -56 272t-150.5 223.5t-224.5 149t-273 55.5q-190 0 -352 -93.5t-256.5 -255t-94.5 -351.5zM504 713q0 165 115 280t278 115q134 0 240 -80q10 -7 4 -16l-8 -11q-6 -8 -15 -2q-96 74 -221 74q-148 0 -253 -105t-105 -255q0 -148 105 -252.5t253 -104.5 q128 0 223 80q10 10 19 -4l6 -10q5 -7 -2 -14q-105 -89 -246 -89q-163 0 -278 115.5t-115 278.5z" />
<glyph unicode="&#xaa;" horiz-adv-x="727" d="M109 1028q0 87 72.5 144t189.5 57q87 0 166 -27v53q0 87 -34 124.5t-120 37.5q-50 0 -94.5 -10.5t-64.5 -21.5l-19 -11q-10 -3 -15 2l-6 13q-8 8 4 16q8 5 23.5 13.5t66 22t105.5 13.5q104 0 147 -48.5t43 -150.5v-401q0 -14 -14 -14h-8q-14 0 -14 14v51 q-40 -33 -99.5 -58.5t-120.5 -25.5q-91 0 -149.5 56.5t-58.5 150.5zM145 1028q0 -80 48 -125t124 -45q68 0 130 31.5t90 66.5v209q-97 31 -166 31q-101 0 -163.5 -48t-62.5 -120z" />
<glyph unicode="&#xab;" horiz-adv-x="851" d="M115 479q-6 9 0 17l250 348q7 10 18 4l10 -6q11 -6 4 -17l-239 -338l239 -342q7 -11 -4 -16l-10 -6q-11 -6 -18 4zM442 479q-6 9 0 17l250 348q7 10 19 4l10 -6q11 -6 4 -17l-240 -338l240 -342q7 -11 -4 -16l-10 -6q-12 -6 -19 4z" />
<glyph unicode="&#xac;" horiz-adv-x="1204" d="M199 711v8q0 14 14 14h797q14 0 14 -14v-404q0 -14 -14 -14h-9q-14 0 -14 14v381h-774q-14 0 -14 15z" />
<glyph unicode="&#xad;" horiz-adv-x="829" d="M154 512v8q0 15 12 15h498q5 0 8.5 -4.5t3.5 -10.5v-8q0 -14 -12 -14h-498q-12 0 -12 14z" />
<glyph unicode="&#xae;" horiz-adv-x="1759" d="M139 717q0 150 58.5 286.5t158 235.5t236.5 157t287 58t287.5 -58t236.5 -157t158 -235.5t59 -286.5t-59 -286.5t-158 -235.5t-236.5 -157t-287.5 -58t-287 58t-236.5 157t-158 235.5t-58.5 286.5zM176 717q0 -190 94.5 -351.5t256.5 -255.5t352 -94t352.5 94t257 255.5 t94.5 351.5q0 142 -56 272t-150.5 223.5t-224.5 149t-273 55.5q-190 0 -352 -93.5t-256.5 -255t-94.5 -351.5zM610 354v736q0 6 4 10t9 4h307q111 0 188.5 -59.5t77.5 -174.5q0 -101 -65 -161.5t-158 -73.5l160 -275q5 -7 -5 -14l-12 -6q-8 -6 -16 6l-166 287h-4h-285v-279 q0 -14 -14 -14h-8q-5 0 -9 4t-4 10zM645 668h285q91 0 160 53t69 149q0 98 -67 148.5t-162 50.5h-285v-401z" />
<glyph unicode="&#xaf;" horiz-adv-x="847" d="M115 1257v9q0 14 14 14h590q14 0 14 -14v-9q0 -14 -14 -14h-590q-14 0 -14 14z" />
<glyph unicode="&#xb0;" horiz-adv-x="798" d="M111 1165q0 120 84 204.5t204 84.5q119 0 204 -84.5t85 -204.5q0 -121 -85 -206t-204 -85q-120 0 -204 85t-84 206zM147 1165q0 -106 73 -180t179 -74q104 0 177 74t73 180q0 104 -73 178t-177 74q-105 0 -178.5 -73.5t-73.5 -178.5z" />
<glyph unicode="&#xb1;" d="M199 795v8q0 14 14 14h381v379q0 14 14 14h8q15 0 15 -14v-379h379q14 0 14 -14v-8q0 -15 -14 -15h-379v-319q0 -6 -4.5 -10.5t-10.5 -4.5h-8q-14 0 -14 15v319h-381q-14 0 -14 15zM205 188v9q0 14 14 14h797q14 0 14 -14v-9q0 -14 -14 -14h-797q-14 0 -14 14z" />
<glyph unicode="&#xb2;" horiz-adv-x="585" d="M72 1041.5q-4 9.5 4 15.5l270 225q115 96 115 191q0 61 -47.5 105t-128.5 44q-48 0 -86 -18.5t-52 -37.5l-14 -18q-7 -14 -18 -6l-11 8q-9 9 -4 17q2 4 6.5 10t21.5 22t36.5 28t52 22t68.5 10q98 0 155.5 -55t57.5 -131q0 -108 -127 -213l-230 -191h338q5 0 9 -4t4 -10 v-8q0 -6 -4 -10.5t-9 -4.5h-393q-10 0 -14 9.5z" />
<glyph unicode="&#xb3;" horiz-adv-x="624" d="M82 1098q-10 10 0 20l6 6q10 10 21 0l7 -6q7 -7 9.5 -9t11 -9t14.5 -10.5t17 -9.5t20.5 -9.5t23 -8.5t27 -7t30 -4t34.5 -2q88 0 140.5 39.5t52.5 101.5q0 56 -46.5 94.5t-123.5 38.5h-133q-15 0 -15 14v9q0 14 15 14h133q65 0 108 38.5t43 94.5q0 60 -44.5 94.5 t-121.5 34.5q-34 0 -64.5 -7.5t-50.5 -18.5t-35 -22t-21 -18l-7 -8q-8 -8 -14 -2l-10 8q-12 9 -5 19q3 3 8.5 9t25 21t41.5 26t58 20.5t74 9.5q93 0 149 -44.5t56 -121.5q0 -46 -31.5 -88t-74.5 -62q56 -19 90.5 -61.5t34.5 -91.5q0 -77 -65.5 -127.5t-168.5 -50.5 q-126 0 -219 86z" />
<glyph unicode="&#xb4;" horiz-adv-x="618" d="M106 1163q-5 9 7 15l372 186q13 4 19 -6l4 -8q6 -13 -6 -19l-373 -184q-13 -5 -18 6z" />
<glyph unicode="&#xb5;" horiz-adv-x="1075" d="M197 389v23v518q0 16 12 16h12q12 0 12 -16v-518q0 -396 332 -396q60 0 114.5 18t88.5 40.5t65 53.5t41 46t19 29v727q0 16 14 16h11q12 0 12 -16v-914q0 -16 -12 -16h-11q-14 0 -14 16v125q-137 -164 -328 -164q-256 0 -332 199v-647q0 -16 -14 -16h-8q-14 0 -14 16v860 z" />
<glyph unicode="&#xb6;" horiz-adv-x="1433" d="M78 999q0 181 118 308t289 127h848q6 0 10.5 -4.5t4.5 -10.5v-8q0 -14 -15 -14h-205v-1870q0 -14 -14 -14h-8q-14 0 -14 14v1870h-396v-1870q0 -14 -14 -14h-8q-12 0 -12 14v1870h-177q-156 0 -263 -116.5t-107 -281.5q0 -169 117.5 -286t281.5 -117q14 0 14 -14v-9 q0 -12 -14 -12q-180 0 -308 127.5t-128 310.5z" />
<glyph unicode="&#xb7;" horiz-adv-x="405" d="M154 537q0 20 14.5 33.5t34.5 13.5q22 0 35.5 -13.5t13.5 -33.5q0 -21 -14 -35.5t-35 -14.5q-20 0 -34.5 15t-14.5 35z" />
<glyph unicode="&#xb8;" horiz-adv-x="505" d="M92 -393l12 10q10 7 19 -2q52 -59 129 -59q67 0 107 36.5t40 96.5q0 61 -39 95t-98 34q-52 0 -98 -19q-8 -4 -15 6t-4 17l117 184h45l-110 -164q29 13 67 13q70 0 122 -42.5t52 -123.5q0 -74 -52.5 -122t-133.5 -48q-95 0 -160 69q-10 10 0 19z" />
<glyph unicode="&#xb9;" horiz-adv-x="342" d="M55 1524q-4 8 4 14l150 109q7 6 14.5 1t7.5 -14v-587q0 -15 -14 -15h-8q-14 0 -14 15v544l-113 -84q-10 -7 -16 2z" />
<glyph unicode="&#xba;" horiz-adv-x="737" d="M121 1130q0 151 65.5 237.5t182.5 86.5t183 -86.5t66 -237.5q0 -150 -66 -236.5t-183 -86.5q-116 0 -182 86.5t-66 236.5zM156 1130q0 -134 56.5 -210t156.5 -76q101 0 157 76t56 210q0 136 -56 212.5t-157 76.5q-100 0 -156.5 -77t-56.5 -212z" />
<glyph unicode="&#xbb;" horiz-adv-x="854" d="M129 145l240 342l-240 338q-7 11 4 17l10 6q12 6 19 -4l250 -348q6 -8 0 -17l-250 -352q-7 -10 -19 -4l-10 6q-11 5 -4 16zM457 145l239 342l-239 338q-7 11 4 17l10 6q11 6 18 -4l250 -348q6 -8 0 -17l-250 -352q-7 -10 -18 -4l-10 6q-11 5 -4 16z" />
<glyph unicode="&#xbc;" horiz-adv-x="1277" d="M111 1319q-4 8 4 14l149 109q8 6 15.5 1.5t7.5 -13.5v-588q0 -6 -4.5 -10.5t-10.5 -4.5h-8q-14 0 -14 15v544l-113 -83q-10 -7 -16 2zM133 25l854 1405q6 9 17 2l12 -7q10 -5 4 -16l-854 -1405q-7 -11 -14 -6l-17 10q-9 6 -2 17zM622.5 146.5q-3.5 7.5 2.5 15.5l415 456 q8 6 16.5 3t8.5 -13v-434h102q15 0 15 -14v-8q0 -5 -4.5 -9t-10.5 -4h-102v-125q0 -14 -14 -14h-9q-14 0 -14 14v125h-393q-9 0 -12.5 7.5zM680 174h348v379z" />
<glyph unicode="&#xbd;" horiz-adv-x="1247" d="M111 1319q-4 8 4 14l149 109q8 6 15.5 1.5t7.5 -13.5v-588q0 -6 -4.5 -10.5t-10.5 -4.5h-8q-14 0 -14 15v544l-113 -83q-10 -7 -16 2zM133 25l854 1405q6 9 17 2l12 -7q10 -5 4 -16l-854 -1405q-7 -11 -14 -6l-17 10q-9 6 -2 17zM705 9.5q-4 9.5 4 15.5l270 225 q115 96 115 190q0 61 -47.5 105.5t-128.5 44.5q-48 0 -86 -18.5t-52 -37.5l-14 -18q-7 -14 -18 -6l-11 8q-9 9 -4 17q2 4 6.5 10t21.5 22t36.5 28t52 22t68.5 10q98 0 155 -55t57 -132q0 -109 -126 -213l-230 -190h338q12 0 12 -14v-9q0 -14 -12 -14h-393q-10 0 -14 9.5z " />
<glyph unicode="&#xbe;" horiz-adv-x="1402" d="M117 893q-10 10 0 20l6 7q10 10 20 0l7 -6q7 -7 9.5 -9t11.5 -9t14.5 -10.5t17 -10t20.5 -10t23 -8.5t27.5 -7t30 -4t34.5 -2q88 0 140 39.5t52 101.5q0 56 -46.5 94.5t-123.5 38.5h-133q-14 0 -14 15v8q0 14 14 14h133q65 0 108.5 38.5t43.5 94.5q0 60 -44.5 94.5 t-121.5 34.5q-34 0 -64.5 -7.5t-50.5 -18.5t-35 -22t-22 -19l-6 -7q-8 -8 -14 -2l-11 9q-10 8 -4 18q3 3 8.5 9t25 21t41.5 26t58 20.5t74 9.5q93 0 149 -44.5t56 -121.5q0 -45 -32 -87t-75 -62q55 -19 90 -61.5t35 -92.5q0 -77 -65 -127.5t-168 -50.5q-126 0 -219 86z M258 25l854 1405q6 9 16 2l13 -7q10 -5 4 -16l-854 -1405q-7 -11 -15 -6l-16 10q-9 6 -2 17zM747.5 146.5q-3.5 7.5 2.5 15.5l415 456q7 6 16 3t9 -13v-434h102q15 0 15 -14v-8q0 -5 -4.5 -9t-10.5 -4h-102v-125q0 -14 -14 -14h-9q-14 0 -14 14v125h-393q-9 0 -12.5 7.5z M805 174h348v379z" />
<glyph unicode="&#xbf;" horiz-adv-x="974" d="M147 -209q0 199 279 359q20 10 32.5 18t30 24t26.5 38.5t9 50.5v122q0 6 4.5 10.5t10.5 4.5h8q14 0 14 -15v-122q0 -35 -11.5 -63.5t-34.5 -49t-35.5 -29t-37.5 -22.5q-260 -147 -260 -326q0 -114 92.5 -189t239.5 -75q68 0 129.5 17.5t100.5 42t68 49t42 42.5l12 17 q3 4 8.5 5.5t8.5 -1.5l10 -8q9 -9 4 -17q-5 -7 -14.5 -19.5t-44.5 -44.5t-75.5 -56t-107.5 -44t-141 -20q-162 0 -264.5 86t-102.5 215zM485 918q0 20 14.5 34.5t35.5 14.5q20 0 33.5 -14.5t13.5 -34.5t-13.5 -34t-33.5 -14q-22 0 -36 14t-14 34z" />
<glyph unicode="&#xc0;" horiz-adv-x="1296" d="M8 14l631 1454q5 9 10 9h4q7 0 11 -9l618 -1454q3 -9 -6 -12l-19 -6q-6 -2 -10 6l-182 428h-838l-184 -428q-4 -8 -10 -6l-19 6q-9 3 -6 12zM244 465h805l-398 938zM471 1796l4 8q6 10 19 6l372 -186q10 -5 6 -14l-4 -11q-6 -11 -18 -6l-373 185q-12 6 -6 18z" />
<glyph unicode="&#xc1;" horiz-adv-x="1296" d="M8 14l631 1454q5 9 10 9h4q7 0 11 -9l618 -1454q3 -9 -6 -12l-19 -6q-6 -2 -10 6l-182 428h-838l-184 -428q-4 -8 -10 -6l-19 6q-9 3 -6 12zM244 465h805l-398 938zM463 1610q-4 9 6 14l373 186q12 4 18 -6l4 -8q6 -12 -6 -18l-373 -185q-13 -5 -18 6z" />
<glyph unicode="&#xc2;" horiz-adv-x="1296" d="M8 14l631 1454q5 9 10 9h4q7 0 11 -9l618 -1454q3 -9 -6 -12l-19 -6q-6 -2 -10 6l-182 428h-838l-184 -428q-4 -8 -10 -6l-19 6q-9 3 -6 12zM244 465h805l-398 938zM373 1575q-5 7 4 16l264 217q8 8 16 0l265 -217q9 -9 4 -16l-8 -10q-8 -8 -15 -2l-254 206l-254 -206 q-7 -5 -14 2z" />
<glyph unicode="&#xc3;" horiz-adv-x="1296" d="M8 14l631 1454q5 9 10 9h4q7 0 11 -9l618 -1454q3 -9 -6 -12l-19 -6q-6 -2 -10 6l-182 428h-838l-184 -428q-4 -8 -10 -6l-19 6q-9 3 -6 12zM244 465h805l-398 938zM348 1665q53 172 176 172q32 0 57 -11t42 -34.5t24.5 -38t18.5 -41.5q8 -19 15 -32t19.5 -29t31.5 -24.5 t42 -8.5q32 0 58.5 17t42.5 44.5t24 46.5t14 39q4 15 15 11l16 -4q12 -3 6 -19q-56 -172 -176 -172q-32 0 -58 12t-43 33.5t-26 38t-18 39.5q-8 21 -13.5 31.5t-18 29.5t-31 28t-42.5 9q-26 0 -49 -12.5t-37 -29.5t-26 -40t-17.5 -37.5t-9.5 -29.5q-4 -14 -14 -11l-17 5 q-12 3 -6 18z" />
<glyph unicode="&#xc4;" horiz-adv-x="1296" d="M8 14l631 1454q5 9 10 9h4q7 0 11 -9l618 -1454q3 -9 -6 -12l-19 -6q-6 -2 -10 6l-182 428h-838l-184 -428q-4 -8 -10 -6l-19 6q-9 3 -6 12zM244 465h805l-398 938zM391 1700q0 22 12.5 34.5t34.5 12.5t34.5 -12.5t12.5 -34.5q0 -20 -12.5 -32.5t-34.5 -12.5t-34.5 12.5 t-12.5 32.5zM815 1700q0 22 12.5 34.5t34.5 12.5t34.5 -12.5t12.5 -34.5q0 -20 -12.5 -32.5t-34.5 -12.5t-34.5 12.5t-12.5 32.5z" />
<glyph unicode="&#xc5;" horiz-adv-x="1296" d="M8 14l631 1454q5 9 10 9h4q7 0 11 -9l618 -1454q3 -9 -6 -12l-19 -6q-6 -2 -10 6l-182 428h-838l-184 -428q-4 -8 -10 -6l-19 6q-9 3 -6 12zM244 465h805l-398 938zM438 1749q0 90 61.5 151.5t151.5 61.5q89 0 151 -62t62 -151q0 -90 -61.5 -151.5t-151.5 -61.5 q-91 0 -152 61t-61 152zM475 1749q0 -74 51.5 -126t124.5 -52q72 0 124 52.5t52 125.5q0 72 -52 125t-124 53q-73 0 -124.5 -52.5t-51.5 -125.5z" />
<glyph unicode="&#xc6;" horiz-adv-x="1875" d="M-18 20l911 1397q10 17 35 17h815q14 0 14 -15v-8q0 -14 -14 -14h-811v-633h713q14 0 14 -14v-9q0 -14 -14 -14h-713v-690h811q14 0 14 -14v-9q0 -14 -14 -14h-832q-14 0 -14 14v416h-604l-281 -430q-6 -9 -16 -2l-10 6q-10 6 -4 16zM313 465h584v891z" />
<glyph unicode="&#xc7;" horiz-adv-x="1482" d="M123 715q0 152 58.5 289t158 235.5t237 156.5t289.5 58q149 0 268 -48t230 -142q8 -8 2 -17l-10 -12q-8 -9 -17 0q-105 91 -218 136.5t-255 45.5q-144 0 -275 -55t-225.5 -149t-150 -224t-55.5 -274q0 -192 94.5 -353t256.5 -253.5t355 -92.5q264 0 473 191q10 10 17 0 l10 -12q8 -7 0 -15q-209 -200 -500 -200q-29 0 -43 2l-92 -140q29 13 68 13q70 0 122 -42.5t52 -123.5q0 -74 -52.5 -122t-134.5 -48q-94 0 -159 69q-9 10 0 19l12 10q10 6 18 -2q52 -59 129 -59q67 0 107.5 36.5t40.5 96.5q0 61 -39 95t-98 34q-53 0 -99 -19q-8 -4 -14.5 6 t-3.5 17l102 162q-138 15 -260 78t-209.5 159t-138.5 224.5t-51 269.5z" />
<glyph unicode="&#xc8;" horiz-adv-x="1202" d="M221 14v1405q0 6 4.5 10.5t10.5 4.5h833q14 0 14 -15v-8q0 -14 -14 -14h-811v-633h713q14 0 14 -14v-9q0 -14 -14 -14h-713v-690h811q14 0 14 -14v-9q0 -14 -14 -14h-833q-15 0 -15 14zM475 1796l4 8q6 10 19 6l372 -186q11 -6 7 -14l-5 -11q-6 -11 -18 -6l-373 185 q-12 6 -6 18z" />
<glyph unicode="&#xc9;" horiz-adv-x="1202" d="M221 14v1405q0 6 4.5 10.5t10.5 4.5h833q14 0 14 -15v-8q0 -14 -14 -14h-811v-633h713q14 0 14 -14v-9q0 -14 -14 -14h-713v-690h811q14 0 14 -14v-9q0 -14 -14 -14h-833q-15 0 -15 14zM467 1610q-4 9 6 14l373 186q12 4 18 -6l4 -8q6 -12 -6 -18l-373 -185q-13 -5 -18 6 z" />
<glyph unicode="&#xca;" horiz-adv-x="1202" d="M221 14v1405q0 6 4.5 10.5t10.5 4.5h833q14 0 14 -15v-8q0 -14 -14 -14h-811v-633h713q14 0 14 -14v-9q0 -14 -14 -14h-713v-690h811q14 0 14 -14v-9q0 -14 -14 -14h-833q-15 0 -15 14zM375 1575q-5 7 4 16l264 217q8 8 16 0l265 -217q9 -9 4 -16l-8 -10q-8 -8 -15 -2 l-254 206l-254 -206q-7 -5 -14 2z" />
<glyph unicode="&#xcb;" horiz-adv-x="1202" d="M221 14v1405q0 6 4.5 10.5t10.5 4.5h833q14 0 14 -15v-8q0 -14 -14 -14h-811v-633h713q14 0 14 -14v-9q0 -14 -14 -14h-713v-690h811q14 0 14 -14v-9q0 -14 -14 -14h-833q-15 0 -15 14zM395 1700q0 22 12.5 34.5t34.5 12.5t34.5 -12.5t12.5 -34.5q0 -20 -12.5 -32.5 t-34.5 -12.5t-34.5 12.5t-12.5 32.5zM819 1700q0 22 12.5 34.5t34.5 12.5t34.5 -12.5t12.5 -34.5q0 -20 -12.5 -32.5t-34.5 -12.5t-34.5 12.5t-12.5 32.5z" />
<glyph unicode="&#xcc;" horiz-adv-x="479" d="M61 1796l5 8q6 10 18 6l373 -186q10 -5 6 -14l-4 -11q-6 -11 -19 -6l-372 185q-13 6 -7 18zM221 14v1405q0 6 4.5 10.5t10.5 4.5h8q14 0 14 -15v-1405q0 -14 -14 -14h-8q-15 0 -15 14z" />
<glyph unicode="&#xcd;" horiz-adv-x="479" d="M51 1610q-4 9 6 14l373 186q13 4 19 -6l4 -8q6 -12 -7 -18l-372 -185q-13 -5 -19 6zM221 14v1405q0 6 4.5 10.5t10.5 4.5h8q14 0 14 -15v-1405q0 -14 -14 -14h-8q-15 0 -15 14z" />
<glyph unicode="&#xce;" horiz-adv-x="479" d="M-37 1575q-5 7 4 16l264 217q9 8 17 0l264 -217q9 -9 4 -16l-8 -10q-7 -7 -14 -2l-254 206l-254 -206q-7 -6 -15 2zM221 14v1405q0 6 4.5 10.5t10.5 4.5h8q14 0 14 -15v-1405q0 -14 -14 -14h-8q-15 0 -15 14z" />
<glyph unicode="&#xcf;" horiz-adv-x="479" d="M-18 1700q0 22 12.5 34.5t34.5 12.5t34.5 -12.5t12.5 -34.5q0 -20 -12.5 -32.5t-34.5 -12.5t-34.5 12.5t-12.5 32.5zM221 14v1405q0 6 4.5 10.5t10.5 4.5h8q14 0 14 -15v-1405q0 -14 -14 -14h-8q-15 0 -15 14zM406 1700q0 22 12.5 34.5t34.5 12.5t34.5 -12.5t12.5 -34.5 q0 -20 -12.5 -32.5t-34.5 -12.5t-34.5 12.5t-12.5 32.5z" />
<glyph unicode="&#xd0;" horiz-adv-x="1533" d="M125 711v8q0 14 14 14h82v686q0 6 4.5 10.5t10.5 4.5h450q195 0 361.5 -95.5t264 -260.5t97.5 -359q0 -118 -36.5 -228t-104 -198t-156.5 -154.5t-199 -102.5t-227 -36h-450q-15 0 -15 14v682h-82q-14 0 -14 15zM258 37h428q186 0 343.5 90.5t250 248t92.5 343.5 q0 138 -54.5 263.5t-146.5 216.5t-219 144.5t-266 53.5h-428v-664h592q14 0 14 -14v-8q0 -15 -14 -15h-592v-659z" />
<glyph unicode="&#xd1;" horiz-adv-x="1564" d="M221 14v1440q0 11 10.5 14t16.5 -6l1059 -1411v1368q0 15 14 15h8q14 0 14 -15v-1435q0 -11 -10 -14.5t-16 5.5l-1059 1411v-1372q0 -14 -14 -14h-8q-15 0 -15 14zM526 1665q53 172 176 172q32 0 57 -11t42 -34.5t24.5 -38t18.5 -41.5q8 -19 15 -32t19.5 -29t31.5 -24.5 t42 -8.5q32 0 58.5 17t43 44.5t24.5 47t14 38.5q4 14 14 11l16 -4q12 -3 6 -19q-56 -172 -176 -172q-32 0 -58 12t-43 33.5t-26 38t-18 39.5q-8 21 -13.5 31.5t-18 29.5t-31 28t-42.5 9q-26 0 -49 -12.5t-37 -29.5t-26 -40t-17.5 -37.5t-9.5 -29.5q-4 -14 -14 -11l-17 5 q-12 3 -6 18z" />
<glyph unicode="&#xd2;" horiz-adv-x="1728" d="M125 715q0 152 58 289t156.5 235.5t235.5 156.5t289 58t289.5 -58t236.5 -156.5t157.5 -235.5t58.5 -289t-58.5 -288.5t-157.5 -234t-236.5 -155t-289.5 -57.5t-289 57.5t-235.5 155t-156.5 234t-58 288.5zM162 715q0 -192 93.5 -353t254.5 -253.5t354 -92.5 q144 0 274.5 54.5t225 148t150 223t55.5 273.5t-55.5 274t-150 224t-225 149t-274.5 55q-192 0 -353.5 -93.5t-255 -255t-93.5 -353.5zM686 1796l4 8q6 10 19 6l372 -186q10 -5 6 -14l-4 -11q-5 -11 -18 -6l-373 185q-12 6 -6 18z" />
<glyph unicode="&#xd3;" horiz-adv-x="1728" d="M125 715q0 152 58 289t156.5 235.5t235.5 156.5t289 58t289.5 -58t236.5 -156.5t157.5 -235.5t58.5 -289t-58.5 -288.5t-157.5 -234t-236.5 -155t-289.5 -57.5t-289 57.5t-235.5 155t-156.5 234t-58 288.5zM162 715q0 -192 93.5 -353t254.5 -253.5t354 -92.5 q144 0 274.5 54.5t225 148t150 223t55.5 273.5t-55.5 274t-150 224t-225 149t-274.5 55q-192 0 -353.5 -93.5t-255 -255t-93.5 -353.5zM678 1610q-4 9 6 14l373 186q12 4 18 -6l4 -8q6 -12 -6 -18l-373 -185q-12 -5 -18 6z" />
<glyph unicode="&#xd4;" horiz-adv-x="1728" d="M125 715q0 152 58 289t156.5 235.5t235.5 156.5t289 58t289.5 -58t236.5 -156.5t157.5 -235.5t58.5 -289t-58.5 -288.5t-157.5 -234t-236.5 -155t-289.5 -57.5t-289 57.5t-235.5 155t-156.5 234t-58 288.5zM162 715q0 -192 93.5 -353t254.5 -253.5t354 -92.5 q144 0 274.5 54.5t225 148t150 223t55.5 273.5t-55.5 274t-150 224t-225 149t-274.5 55q-192 0 -353.5 -93.5t-255 -255t-93.5 -353.5zM586 1575q-5 7 4 16l264 217q8 8 16 0l265 -217q9 -9 4 -16l-9 -10q-7 -7 -14 -2l-254 206l-254 -206q-7 -5 -14 2z" />
<glyph unicode="&#xd5;" horiz-adv-x="1728" d="M125 715q0 152 58 289t156.5 235.5t235.5 156.5t289 58t289.5 -58t236.5 -156.5t157.5 -235.5t58.5 -289t-58.5 -288.5t-157.5 -234t-236.5 -155t-289.5 -57.5t-289 57.5t-235.5 155t-156.5 234t-58 288.5zM162 715q0 -192 93.5 -353t254.5 -253.5t354 -92.5 q144 0 274.5 54.5t225 148t150 223t55.5 273.5t-55.5 274t-150 224t-225 149t-274.5 55q-192 0 -353.5 -93.5t-255 -255t-93.5 -353.5zM561 1665q53 172 176 172q32 0 57 -11t42 -34.5t24.5 -38t18.5 -41.5q8 -19 15 -32t19.5 -29t31.5 -24.5t42 -8.5q32 0 58.5 17 t42.5 44.5t24 46.5t14 39q4 15 15 11l16 -4q12 -3 6 -19q-56 -172 -176 -172q-32 0 -58 12t-43 33.5t-26 38t-18 39.5q-8 21 -13.5 31.5t-18 29.5t-31 28t-42.5 9q-26 0 -49 -12.5t-37 -29.5t-26 -40t-17.5 -37.5t-9.5 -29.5q-4 -14 -14 -11l-17 5q-12 3 -6 18z" />
<glyph unicode="&#xd6;" horiz-adv-x="1728" d="M125 715q0 152 58 289t156.5 235.5t235.5 156.5t289 58t289.5 -58t236.5 -156.5t157.5 -235.5t58.5 -289t-58.5 -288.5t-157.5 -234t-236.5 -155t-289.5 -57.5t-289 57.5t-235.5 155t-156.5 234t-58 288.5zM162 715q0 -192 93.5 -353t254.5 -253.5t354 -92.5 q144 0 274.5 54.5t225 148t150 223t55.5 273.5t-55.5 274t-150 224t-225 149t-274.5 55q-192 0 -353.5 -93.5t-255 -255t-93.5 -353.5zM606 1700q0 22 12.5 34.5t34.5 12.5t34.5 -12.5t12.5 -34.5q0 -20 -12.5 -32.5t-34.5 -12.5t-34.5 12.5t-12.5 32.5zM1030 1700 q0 22 12.5 34.5t34.5 12.5t34.5 -12.5t12.5 -34.5q0 -20 -12.5 -32.5t-34.5 -12.5t-34.5 12.5t-12.5 32.5z" />
<glyph unicode="&#xd7;" d="M314 433q0 6 5 9l269 271l-269 268q-7 10 0 20l7 7q10 7 20 0l268 -269l269 269q10 7 20 0l6 -7q7 -10 0 -20l-268 -268l268 -271q5 -3 5 -9t-5 -9l-6 -6q-3 -4 -9 -4t-9 4l-271 268l-270 -268q-3 -4 -9 -4t-9 4l-7 6q-5 3 -5 9z" />
<glyph unicode="&#xd8;" horiz-adv-x="1728" d="M125 715q0 152 58 289t156.5 235.5t235.5 156.5t289 58t286.5 -56t235.5 -157l140 133q7 11 18 0l6 -6q10 -10 0 -20l-139 -134q195 -218 195 -499q0 -152 -58.5 -288.5t-157.5 -234t-236.5 -155t-289.5 -57.5q-155 0 -290.5 55.5t-237.5 157.5l-135 -130q-8 -11 -19 0 l-6 7q-10 10 0 20l135 131q-88 100 -137 227t-49 267zM162 715q0 -274 176 -469l1022 971q-98 95 -225.5 147.5t-270.5 52.5q-192 0 -353.5 -93.5t-255 -255t-93.5 -353.5zM365 219q96 -98 224.5 -150.5t274.5 -52.5q144 0 274.5 54.5t225 148t150 223t55.5 273.5 q0 134 -48.5 256.5t-134.5 218.5z" />
<glyph unicode="&#xd9;" horiz-adv-x="1470" d="M205 516v903q0 15 14 15h8q6 0 10.5 -4.5t4.5 -10.5v-903q0 -224 132.5 -362t358.5 -138q228 0 362 138t134 362v903q0 15 14 15h8q6 0 10.5 -4.5t4.5 -10.5v-903q0 -239 -145 -387.5t-388 -148.5q-242 0 -385 148.5t-143 387.5zM557 1796l4 8q6 10 19 6l372 -186 q10 -5 6 -14l-4 -11q-6 -11 -18 -6l-373 185q-12 6 -6 18z" />
<glyph unicode="&#xda;" horiz-adv-x="1470" d="M205 516v903q0 15 14 15h8q6 0 10.5 -4.5t4.5 -10.5v-903q0 -224 132.5 -362t358.5 -138q228 0 362 138t134 362v903q0 15 14 15h8q6 0 10.5 -4.5t4.5 -10.5v-903q0 -239 -145 -387.5t-388 -148.5q-242 0 -385 148.5t-143 387.5zM549 1610q-4 9 6 14l373 186q12 4 18 -6 l4 -8q6 -12 -6 -18l-373 -185q-13 -5 -18 6z" />
<glyph unicode="&#xdb;" horiz-adv-x="1470" d="M205 516v903q0 15 14 15h8q6 0 10.5 -4.5t4.5 -10.5v-903q0 -224 132.5 -362t358.5 -138q228 0 362 138t134 362v903q0 15 14 15h8q6 0 10.5 -4.5t4.5 -10.5v-903q0 -239 -145 -387.5t-388 -148.5q-242 0 -385 148.5t-143 387.5zM457 1575q-5 7 4 16l264 217q8 8 16 0 l265 -217q9 -9 4 -16l-9 -10q-7 -7 -14 -2l-254 206l-254 -206q-7 -5 -14 2z" />
<glyph unicode="&#xdc;" horiz-adv-x="1470" d="M205 516v903q0 15 14 15h8q6 0 10.5 -4.5t4.5 -10.5v-903q0 -224 132.5 -362t358.5 -138q228 0 362 138t134 362v903q0 15 14 15h8q6 0 10.5 -4.5t4.5 -10.5v-903q0 -239 -145 -387.5t-388 -148.5q-242 0 -385 148.5t-143 387.5zM477 1700q0 22 12.5 34.5t34.5 12.5 t34.5 -12.5t12.5 -34.5q0 -20 -12.5 -32.5t-34.5 -12.5t-34.5 12.5t-12.5 32.5zM901 1700q0 22 12.5 34.5t34.5 12.5t34.5 -12.5t12.5 -34.5q0 -20 -12.5 -32.5t-34.5 -12.5t-34.5 12.5t-12.5 32.5z" />
<glyph unicode="&#xdd;" horiz-adv-x="1130" d="M6 1409q-7 11 2 18l12 9q7 4 17 -6l528 -695l529 695q8 12 16 6l12 -9q9 -7 2 -18l-540 -704v-691q0 -14 -15 -14h-8q-14 0 -14 14v688zM367 1610q-4 9 6 14l372 186q13 4 19 -6l4 -8q6 -12 -6 -18l-373 -185q-13 -5 -18 6z" />
<glyph unicode="&#xde;" horiz-adv-x="1212" d="M221 14v1405q0 6 4.5 10.5t10.5 4.5h8q14 0 14 -15v-235h404q193 0 330.5 -136t137.5 -325q0 -128 -62.5 -236t-170 -170.5t-233.5 -62.5h-406v-240q0 -14 -14 -14h-8q-15 0 -15 14zM258 289h406q177 0 303.5 127t126.5 307q0 175 -127 300.5t-305 125.5h-404v-860z" />
<glyph unicode="&#xdf;" horiz-adv-x="1132" d="M180 16v922q0 120 18 209.5t59.5 161t116 108.5t181.5 37q151 0 244.5 -96.5t93.5 -255.5q0 -66 -28.5 -128.5t-62.5 -101.5t-62.5 -77.5t-28.5 -61.5q0 -34 88 -102q51 -38 80.5 -64t69.5 -70t59.5 -93.5t19.5 -104.5q0 -86 -28.5 -150t-79 -100.5t-113 -54 t-137.5 -17.5q-120 0 -224 46q-13 6 -8 16l6 12q5 13 19 8q22 -13 82.5 -29t124.5 -16q66 0 122 15.5t101.5 48t71.5 89t26 132.5q0 40 -15.5 79.5t-32 65.5t-55 63t-53.5 49.5t-59 47.5q-35 29 -52.5 45t-33.5 39t-16 43q0 25 18.5 54.5t45.5 60.5t54 67t45.5 85.5 t18.5 103.5q0 146 -82.5 230.5t-218.5 84.5q-97 0 -164.5 -33t-104.5 -97.5t-53 -146.5t-16 -194v-930q0 -16 -14 -16h-8q-15 0 -15 16z" />
<glyph unicode="&#xe0;" horiz-adv-x="997" d="M90 295q0 141 114.5 232t299.5 91q149 0 284 -53v88q0 145 -60 211t-206 66q-165 0 -291 -70q-16 -8 -22 4l-4 8q-8 15 4 21q133 74 313 74q169 0 236 -74t67 -240v-637q0 -16 -14 -16h-8q-15 0 -15 16v107q-68 -58 -166 -102t-204 -44q-142 0 -235 86t-93 232zM127 295 q0 -127 83 -204t208 -77q116 0 221 53.5t149 108.5v350q-154 56 -284 56q-167 0 -272 -81.5t-105 -205.5zM297 1350l4 8q6 10 18 6l373 -186q11 -5 6 -15l-4 -10q-6 -11 -18 -6l-373 184q-12 6 -6 19z" />
<glyph unicode="&#xe1;" horiz-adv-x="997" d="M90 295q0 141 114.5 232t299.5 91q149 0 284 -53v88q0 145 -60 211t-206 66q-165 0 -291 -70q-16 -8 -22 4l-4 8q-8 15 4 21q133 74 313 74q169 0 236 -74t67 -240v-637q0 -16 -14 -16h-8q-15 0 -15 16v107q-68 -58 -166 -102t-204 -44q-142 0 -235 86t-93 232zM127 295 q0 -127 83 -204t208 -77q116 0 221 53.5t149 108.5v350q-154 56 -284 56q-167 0 -272 -81.5t-105 -205.5zM319 1163q-5 9 7 15l372 186q13 4 19 -6l4 -8q6 -13 -6 -19l-373 -184q-13 -5 -18 6z" />
<glyph unicode="&#xe2;" horiz-adv-x="997" d="M90 295q0 141 114.5 232t299.5 91q149 0 284 -53v88q0 145 -60 211t-206 66q-165 0 -291 -70q-16 -8 -22 4l-4 8q-8 15 4 21q133 74 313 74q169 0 236 -74t67 -240v-637q0 -16 -14 -16h-8q-15 0 -15 16v107q-68 -58 -166 -102t-204 -44q-142 0 -235 86t-93 232zM127 295 q0 -127 83 -204t208 -77q116 0 221 53.5t149 108.5v350q-154 56 -284 56q-167 0 -272 -81.5t-105 -205.5zM221 1135q-5 7 4 16l264 217q9 8 17 0l264 -217q9 -9 4 -16l-8 -11q-7 -7 -14 -2l-254 207l-254 -207q-7 -6 -15 2z" />
<glyph unicode="&#xe3;" horiz-adv-x="997" d="M90 295q0 141 114.5 232t299.5 91q149 0 284 -53v88q0 145 -60 211t-206 66q-165 0 -291 -70q-16 -8 -22 4l-4 8q-8 15 4 21q133 74 313 74q169 0 236 -74t67 -240v-637q0 -16 -14 -16h-8q-15 0 -15 16v107q-68 -58 -166 -102t-204 -44q-142 0 -235 86t-93 232zM127 295 q0 -127 83 -204t208 -77q116 0 221 53.5t149 108.5v350q-154 56 -284 56q-167 0 -272 -81.5t-105 -205.5zM193 1217q53 172 176 172q26 0 48 -9t35 -20t26.5 -32t18 -31.5t13.5 -32.5q8 -19 15 -32t19.5 -29.5t31.5 -25t42 -8.5q32 0 58.5 17t43 45t24.5 47t14 39 q3 14 14 10l16 -4q13 -3 7 -18q-56 -172 -177 -172q-32 0 -58 12t-43 33.5t-26 37.5t-18 39q-8 19 -10 24.5t-12.5 24t-20 26.5t-26 16t-35.5 8q-32 0 -58.5 -17.5t-43 -45.5t-24.5 -47.5t-14 -39.5q-3 -14 -14 -10l-16 4q-12 3 -6 19z" />
<glyph unicode="&#xe4;" horiz-adv-x="997" d="M90 295q0 141 114.5 232t299.5 91q149 0 284 -53v88q0 145 -60 211t-206 66q-165 0 -291 -70q-16 -8 -22 4l-4 8q-8 15 4 21q133 74 313 74q169 0 236 -74t67 -240v-637q0 -16 -14 -16h-8q-15 0 -15 16v107q-68 -58 -166 -102t-204 -44q-142 0 -235 86t-93 232zM127 295 q0 -127 83 -204t208 -77q116 0 221 53.5t149 108.5v350q-154 56 -284 56q-167 0 -272 -81.5t-105 -205.5zM268 1284q0 22 12.5 34.5t34.5 12.5q45 0 45 -47q0 -21 -12 -33t-33 -12q-22 0 -34.5 12.5t-12.5 32.5zM657 1284q0 47 45 47q22 0 35 -12.5t13 -34.5 q0 -20 -13 -32.5t-35 -12.5q-21 0 -33 12t-12 33z" />
<glyph unicode="&#xe5;" horiz-adv-x="997" d="M90 295q0 141 114.5 232t299.5 91q149 0 284 -53v88q0 145 -60 211t-206 66q-165 0 -291 -70q-16 -8 -22 4l-4 8q-8 15 4 21q133 74 313 74q169 0 236 -74t67 -240v-637q0 -16 -14 -16h-8q-15 0 -15 16v107q-68 -58 -166 -102t-204 -44q-142 0 -235 86t-93 232zM127 295 q0 -127 83 -204t208 -77q116 0 221 53.5t149 108.5v350q-154 56 -284 56q-167 0 -272 -81.5t-105 -205.5zM279 1253q0 90 61.5 151.5t151.5 61.5q89 0 151 -62t62 -151q0 -90 -61.5 -151.5t-151.5 -61.5q-91 0 -152 61t-61 152zM315 1253q0 -74 52 -126t125 -52 q72 0 124 52.5t52 125.5q0 72 -52 125.5t-124 53.5q-73 0 -125 -53t-52 -126z" />
<glyph unicode="&#xe6;" horiz-adv-x="1687" d="M90 299q0 138 114.5 228.5t299.5 90.5q79 0 159.5 -17t129.5 -36v88q0 145 -61 211t-208 66q-39 0 -77.5 -4.5t-65.5 -11t-55 -16t-42.5 -16t-31.5 -15l-19 -9.5q-15 -6 -22 4l-6 12q-2 4 -0.5 11t4.5 8q13 8 38 20.5t107 33t170 20.5q228 0 283 -150q63 71 155.5 110.5 t196.5 39.5q192 0 311 -119.5t119 -310.5q0 -51 -8 -70q-3 -10 -16 -10h-734v-287q124 -156 332 -156q99 0 184.5 32.5t137.5 72.5q12 9 18 -2l8 -15q6 -8 -6 -16q-162 -109 -342 -109q-110 0 -201 41.5t-151 114.5q-54 -59 -164 -107.5t-229 -48.5q-143 0 -235.5 86 t-92.5 236zM127 299q0 -131 83 -208t208 -77q116 0 223.5 51t151.5 105v356q-1 0 -23.5 7.5t-38 12t-46.5 12t-57 12.5t-59.5 8.5t-64.5 3.5q-166 0 -271.5 -81.5t-105.5 -201.5zM823 768q8 -44 8 -115v-159h717q2 16 2 43q0 173 -110 283t-281 110q-105 0 -195 -43.5 t-141 -118.5z" />
<glyph unicode="&#xe7;" horiz-adv-x="1095" d="M113 477q0 140 68.5 253t183.5 175t251 62q220 0 365 -125q11 -10 0 -21l-10 -12q-7 -7 -21 4q-137 117 -334 117q-124 0 -231 -58t-171 -162.5t-64 -232.5q0 -129 65.5 -236.5t172 -167t228.5 -59.5q197 0 351 154q10 10 18 2l10 -10q9 -10 0 -19q-8 -9 -21 -22t-49 -40 t-76.5 -48t-103.5 -37.5t-129 -16.5l-90 -135q29 13 68 13q70 0 122 -42.5t52 -123.5q0 -74 -52.5 -122t-133.5 -48q-95 0 -160 69q-10 10 0 19l12 10q10 7 19 -2q52 -59 129 -59q67 0 107 36.5t40 96.5q0 61 -39 95t-98 34q-52 0 -98 -19q-8 -4 -15 6t-4 17l98 158 q-125 10 -229.5 75t-167.5 176.5t-63 245.5z" />
<glyph unicode="&#xe8;" horiz-adv-x="1107" d="M115 477q0 138 55 248.5t162 176t248 65.5q190 0 309 -119.5t119 -310.5q0 -56 -11 -70q-5 -10 -14 -10h-831q5 -190 122 -316.5t306 -126.5q100 0 187 32.5t136 72.5q6 4 11.5 3t7.5 -5l8 -15q4 -6 -4 -14q-58 -43 -149 -77t-197 -34q-141 0 -248 67t-162 180t-55 253z M152 494h817q2 16 2 43q0 173 -111.5 283t-279.5 110q-126 0 -223 -59t-149 -157t-56 -220zM379 1350l4 8q6 10 18 6l373 -186q11 -5 6 -15l-4 -10q-6 -11 -18 -6l-373 184q-12 6 -6 19z" />
<glyph unicode="&#xe9;" horiz-adv-x="1107" d="M115 477q0 138 55 248.5t162 176t248 65.5q190 0 309 -119.5t119 -310.5q0 -56 -11 -70q-5 -10 -14 -10h-831q5 -190 122 -316.5t306 -126.5q100 0 187 32.5t136 72.5q6 4 11.5 3t7.5 -5l8 -15q4 -6 -4 -14q-58 -43 -149 -77t-197 -34q-141 0 -248 67t-162 180t-55 253z M152 494h817q2 16 2 43q0 173 -111.5 283t-279.5 110q-126 0 -223 -59t-149 -157t-56 -220zM387 1163q-5 10 6 15l373 186q12 4 18 -6l4 -8q6 -13 -6 -19l-372 -184q-13 -5 -19 6z" />
<glyph unicode="&#xea;" horiz-adv-x="1107" d="M115 477q0 138 55 248.5t162 176t248 65.5q190 0 309 -119.5t119 -310.5q0 -56 -11 -70q-5 -10 -14 -10h-831q5 -190 122 -316.5t306 -126.5q100 0 187 32.5t136 72.5q6 4 11.5 3t7.5 -5l8 -15q4 -6 -4 -14q-58 -43 -149 -77t-197 -34q-141 0 -248 67t-162 180t-55 253z M152 494h817q2 16 2 43q0 173 -111.5 283t-279.5 110q-126 0 -223 -59t-149 -157t-56 -220zM303 1135q-5 7 4 16l264 217q9 8 17 0l264 -217q9 -9 4 -16l-8 -11q-7 -7 -14 -2l-254 207l-254 -207q-7 -6 -15 2z" />
<glyph unicode="&#xeb;" horiz-adv-x="1107" d="M115 477q0 138 55 248.5t162 176t248 65.5q190 0 309 -119.5t119 -310.5q0 -56 -11 -70q-5 -10 -14 -10h-831q5 -190 122 -316.5t306 -126.5q100 0 187 32.5t136 72.5q6 4 11.5 3t7.5 -5l8 -15q4 -6 -4 -14q-58 -43 -149 -77t-197 -34q-141 0 -248 67t-162 180t-55 253z M152 494h817q2 16 2 43q0 173 -111.5 283t-279.5 110q-126 0 -223 -59t-149 -157t-56 -220zM354 1284q0 22 12.5 34.5t34.5 12.5q45 0 45 -47q0 -21 -12 -33t-33 -12q-22 0 -34.5 12.5t-12.5 32.5zM743 1284q0 47 45 47q22 0 35 -12.5t13 -34.5q0 -20 -13 -32.5t-35 -12.5 q-21 0 -33 12t-12 33z" />
<glyph unicode="&#xec;" horiz-adv-x="397" d="M6 1350l4 8q6 10 19 6l372 -186q12 -6 7 -15l-5 -10q-6 -11 -18 -6l-373 184q-12 6 -6 19zM182 16v914q0 16 15 16h8q14 0 14 -16v-914q0 -16 -14 -16h-8q-15 0 -15 16z" />
<glyph unicode="&#xed;" horiz-adv-x="397" d="M2 1163q-5 10 6 15l373 186q12 4 18 -6l4 -8q6 -13 -6 -19l-372 -184q-13 -5 -19 6zM180 16v914q0 16 15 16h8q14 0 14 -16v-914q0 -16 -14 -16h-8q-15 0 -15 16z" />
<glyph unicode="&#xee;" horiz-adv-x="397" d="M-74 1135q-5 7 4 16l265 217q8 8 16 0l264 -217q9 -9 4 -16l-8 -11q-7 -7 -14 -2l-254 207l-254 -207q-7 -6 -15 2zM180 16v914q0 16 15 16h8q14 0 14 -16v-914q0 -16 -14 -16h-8q-15 0 -15 16z" />
<glyph unicode="&#xef;" horiz-adv-x="397" d="M-37 1284q0 22 12.5 34.5t34.5 12.5q45 0 45 -47q0 -21 -12 -33t-33 -12q-22 0 -34.5 12.5t-12.5 32.5zM180 16v914q0 16 15 16h8q14 0 14 -16v-914q0 -16 -14 -16h-8q-15 0 -15 16zM352 1284q0 47 45 47q22 0 34.5 -12.5t12.5 -34.5q0 -20 -12.5 -32.5t-34.5 -12.5 q-21 0 -33 12t-12 33z" />
<glyph unicode="&#xf0;" horiz-adv-x="1212" d="M113 469q0 104 38 192.5t102 147.5t147.5 92t174.5 33q88 0 167 -25t137 -67t95 -78t68 -78q-42 335 -329 574l-283 -162q-11 -8 -18 6l-4 6q-8 11 6 18l268 154q-125 97 -299 168q-11 5 -8 16l4 15q3 10 16 6q163 -57 322 -182l143 81q11 8 19 -4l4 -6q6 -16 -6 -22 l-132 -76q338 -282 338 -696q0 -171 -57 -306t-171 -215.5t-267 -80.5q-126 0 -235.5 65t-174.5 178t-65 246zM150 469q0 -188 129.5 -320.5t308.5 -132.5q143 0 249 76t159 203t53 287v30q-41 61 -68 92q-160 182 -381 192q-13 1 -25 1q-112 0 -208.5 -51.5t-156.5 -150.5 t-60 -226z" />
<glyph unicode="&#xf1;" horiz-adv-x="1103" d="M180 16v914q0 16 15 16h8q14 0 14 -16v-129q155 166 350 166q190 0 279.5 -109.5t89.5 -329.5v-512q0 -16 -12 -16h-9q-16 0 -16 16v512q0 402 -332 402q-72 0 -137.5 -23t-110.5 -59.5t-66 -58t-36 -41.5v-732q0 -16 -14 -16h-8q-15 0 -15 16zM258 1219q53 172 176 172 q26 0 48 -9t35 -20t26.5 -32t18 -31.5t13.5 -32.5q8 -19 15 -32t20 -29.5t32 -25t42 -8.5q32 0 58.5 17t42.5 45t24 47t14 39q3 14 15 10l16 -4q12 -3 6 -18q-56 -172 -176 -172q-32 0 -58 12t-43 33.5t-26 37.5t-18 39q-7 18 -10 25t-13 24.5t-20 25.5t-26.5 16t-35.5 8 q-32 0 -58.5 -17.5t-42.5 -45.5t-24 -47.5t-14 -39.5q-3 -14 -14 -10l-17 4q-12 3 -6 19z" />
<glyph unicode="&#xf2;" horiz-adv-x="1181" d="M113 475q0 135 63 248t172.5 178.5t241.5 65.5q202 0 340.5 -143t138.5 -349q0 -210 -138.5 -354t-340.5 -144q-201 0 -339 144.5t-138 353.5zM150 475q0 -192 128 -326.5t312 -134.5q186 0 314 134.5t128 326.5q0 190 -128.5 322.5t-313.5 132.5q-184 0 -312 -133 t-128 -322zM395 1350l4 8q6 10 19 6l373 -186q11 -5 6 -15l-4 -10q-6 -11 -19 -6l-373 184q-12 6 -6 19z" />
<glyph unicode="&#xf3;" horiz-adv-x="1181" d="M113 475q0 135 63 248t172.5 178.5t241.5 65.5q202 0 340.5 -143t138.5 -349q0 -210 -138.5 -354t-340.5 -144q-201 0 -339 144.5t-138 353.5zM150 475q0 -192 128 -326.5t312 -134.5q186 0 314 134.5t128 326.5q0 190 -128.5 322.5t-313.5 132.5q-184 0 -312 -133 t-128 -322zM393 1163q-5 10 6 15l373 186q13 4 19 -6l4 -8q6 -12 -7 -19l-372 -184q-13 -5 -19 6z" />
<glyph unicode="&#xf4;" horiz-adv-x="1181" d="M113 475q0 135 63 248t172.5 178.5t241.5 65.5q202 0 340.5 -143t138.5 -349q0 -210 -138.5 -354t-340.5 -144q-201 0 -339 144.5t-138 353.5zM150 475q0 -192 128 -326.5t312 -134.5q186 0 314 134.5t128 326.5q0 190 -128.5 322.5t-313.5 132.5q-184 0 -312 -133 t-128 -322zM317 1135q-4 7 5 16l264 217q8 8 16 0l264 -217q9 -9 4 -16l-8 -11q-7 -7 -14 -2l-254 207l-254 -207q-7 -5 -14 2z" />
<glyph unicode="&#xf5;" horiz-adv-x="1181" d="M113 475q0 135 63 248t172.5 178.5t241.5 65.5q202 0 340.5 -143t138.5 -349q0 -210 -138.5 -354t-340.5 -144q-201 0 -339 144.5t-138 353.5zM150 475q0 -192 128 -326.5t312 -134.5q186 0 314 134.5t128 326.5q0 190 -128.5 322.5t-313.5 132.5q-184 0 -312 -133 t-128 -322zM293 1217q53 172 176 172q26 0 48 -9t35 -20t26.5 -32t18 -31.5t13.5 -32.5q8 -19 15 -32t20 -29.5t32 -25t42 -8.5q32 0 58.5 17t42.5 45t24 47t14 39q3 14 14 10l17 -4q12 -3 6 -18q-56 -172 -176 -172q-32 0 -58 12t-43.5 33t-26.5 38t-18 39q-8 19 -10 24.5 t-12.5 24t-20 26.5t-26 16t-35.5 8q-32 0 -58.5 -17.5t-42.5 -45.5t-24 -47.5t-14 -39.5q-3 -14 -15 -10l-16 4q-12 3 -6 19z" />
<glyph unicode="&#xf6;" horiz-adv-x="1181" d="M113 475q0 135 63 248t172.5 178.5t241.5 65.5q202 0 340.5 -143t138.5 -349q0 -210 -138.5 -354t-340.5 -144q-201 0 -339 144.5t-138 353.5zM150 475q0 -192 128 -326.5t312 -134.5q186 0 314 134.5t128 326.5q0 190 -128.5 322.5t-313.5 132.5q-184 0 -312 -133 t-128 -322zM354 1284q0 22 12.5 34.5t34.5 12.5q45 0 45 -47q0 -21 -12 -33t-33 -12q-22 0 -34.5 12.5t-12.5 32.5zM743 1284q0 47 45 47q22 0 35 -12.5t13 -34.5q0 -20 -13 -32.5t-35 -12.5q-21 0 -33 12t-12 33z" />
<glyph unicode="&#xf7;" d="M201 711v8q0 14 14 14h797q14 0 14 -14v-8q0 -15 -14 -15h-797q-14 0 -14 15zM557 428q0 20 14.5 33.5t34.5 13.5q22 0 35.5 -13.5t13.5 -33.5q0 -21 -14 -35t-35 -14q-20 0 -34.5 14.5t-14.5 34.5zM557 1001q0 20 14.5 34t34.5 14q22 0 35.5 -13.5t13.5 -34.5t-14 -35 t-35 -14q-20 0 -34.5 14.5t-14.5 34.5z" />
<glyph unicode="&#xf8;" horiz-adv-x="1181" d="M113 475q0 135 63 248t172.5 178.5t241.5 65.5q108 0 202 -45t160 -123l33 28q9 9 21 -2l6 -6q13 -13 0 -22l-35 -31q92 -129 92 -291q0 -210 -138.5 -354t-340.5 -144q-101 0 -189.5 39t-154.5 109l-39 -35q-11 -10 -21 0l-6 6q-12 12 0 23l41 37q-108 133 -108 319z M150 475q0 -168 100 -295l674 594q-62 73 -148.5 114.5t-185.5 41.5q-184 0 -312 -133t-128 -322zM274 150q130 -136 316 -136t314 134.5t128 326.5q0 149 -84 266z" />
<glyph unicode="&#xf9;" horiz-adv-x="1081" d="M168 412v518q0 16 12 16h13q12 0 12 -16v-518q0 -396 332 -396q60 0 114.5 18t88.5 40.5t64.5 54t40.5 45.5t19 29v727q0 16 15 16h10q12 0 12 -16v-914q0 -16 -12 -16h-10q-15 0 -15 16v125q-137 -164 -327 -164t-279.5 108.5t-89.5 326.5zM334 1350l4 8q6 10 18 6 l373 -186q11 -5 6 -15l-4 -10q-6 -11 -18 -6l-373 184q-12 6 -6 19z" />
<glyph unicode="&#xfa;" horiz-adv-x="1081" d="M168 412v518q0 16 12 16h13q12 0 12 -16v-518q0 -396 332 -396q60 0 114.5 18t88.5 40.5t64.5 54t40.5 45.5t19 29v727q0 16 15 16h10q12 0 12 -16v-914q0 -16 -12 -16h-10q-15 0 -15 16v125q-137 -164 -327 -164t-279.5 108.5t-89.5 326.5zM332 1163q-5 10 6 15l373 186 q12 4 18 -6l4 -8q6 -13 -6 -19l-373 -184q-13 -5 -18 6z" />
<glyph unicode="&#xfb;" horiz-adv-x="1081" d="M168 412v518q0 16 12 16h13q12 0 12 -16v-518q0 -396 332 -396q60 0 114.5 18t88.5 40.5t64.5 54t40.5 45.5t19 29v727q0 16 15 16h10q12 0 12 -16v-914q0 -16 -12 -16h-10q-15 0 -15 16v125q-137 -164 -327 -164t-279.5 108.5t-89.5 326.5zM254 1135q-5 7 4 16l264 217 q8 8 17 0l264 -217q9 -9 4 -16l-8 -11q-8 -8 -15 -2l-254 207l-254 -207q-7 -5 -14 2z" />
<glyph unicode="&#xfc;" horiz-adv-x="1081" d="M168 412v518q0 16 12 16h13q12 0 12 -16v-518q0 -396 332 -396q60 0 114.5 18t88.5 40.5t64.5 54t40.5 45.5t19 29v727q0 16 15 16h10q12 0 12 -16v-914q0 -16 -12 -16h-10q-15 0 -15 16v125q-137 -164 -327 -164t-279.5 108.5t-89.5 326.5zM291 1284q0 22 12.5 34.5 t34.5 12.5q45 0 45 -47q0 -21 -12 -33t-33 -12q-22 0 -34.5 12.5t-12.5 32.5zM680 1284q0 47 45 47q22 0 34.5 -12.5t12.5 -34.5q0 -20 -12.5 -32.5t-34.5 -12.5q-21 0 -33 12t-12 33z" />
<glyph unicode="&#xfd;" horiz-adv-x="962" d="M45 936q-5 11 2 16l12 6q12 6 17 -8l409 -897l400 897q5 14 16 8l12 -6q7 -5 2 -16l-634 -1423q-8 -19 -21 -11l-8 4q-12 6 -4 21l217 489zM285 1163q-5 10 6 15l373 186q12 4 18 -6l4 -8q6 -13 -6 -19l-373 -184q-13 -5 -18 6z" />
<glyph unicode="&#xfe;" horiz-adv-x="1138" d="M180 -471v1888q0 17 13 17h10q14 0 14 -17v-583q51 47 141.5 90t200.5 43q108 0 197 -39t147.5 -106.5t90.5 -157t32 -191.5q0 -71 -19.5 -142t-59 -134.5t-93.5 -112.5t-128 -78t-157 -29q-114 0 -203.5 44t-148.5 110v-602q0 -16 -14 -16h-10q-13 0 -13 16zM217 190 q52 -71 141.5 -122.5t210.5 -51.5q95 0 175.5 40.5t132.5 106t81.5 146.5t30.5 164q1 92 -29 174.5t-84.5 145.5t-136.5 100t-180 37q-56 0 -111.5 -14.5t-94.5 -35.5t-70.5 -43.5t-47 -38t-18.5 -20.5v-588z" />
<glyph unicode="&#xff;" horiz-adv-x="962" d="M45 936q-5 11 2 16l12 6q12 6 17 -8l409 -897l400 897q5 14 16 8l12 -6q7 -5 2 -16l-634 -1423q-8 -19 -21 -11l-8 4q-12 6 -4 21l217 489zM246 1284q0 22 12.5 34.5t34.5 12.5q45 0 45 -47q0 -21 -12 -33t-33 -12q-22 0 -34.5 12.5t-12.5 32.5zM635 1284q0 47 45 47 q22 0 34.5 -12.5t12.5 -34.5q0 -20 -12.5 -32.5t-34.5 -12.5q-21 0 -33 12t-12 33z" />
<glyph unicode="&#x152;" horiz-adv-x="1992" d="M125 715q0 152 57.5 289t156 235.5t235 156.5t288.5 58q78 0 170 -20h828q12 0 12 -15v-8q0 -14 -12 -14h-811v-633h712q5 0 9 -4t4 -10v-9q0 -6 -4 -10t-9 -4h-712v-690h811q12 0 12 -14v-9q0 -14 -12 -14h-824q-92 -20 -176 -20q-152 0 -288.5 57.5t-234 155t-155 234 t-57.5 288.5zM160 715q0 -192 93 -353t253.5 -253.5t353.5 -92.5q80 0 152 17v1368q-82 16 -150 16q-192 0 -353.5 -93.5t-255 -255t-93.5 -353.5z" />
<glyph unicode="&#x153;" horiz-adv-x="1865" d="M113 473q0 206 138.5 350t338.5 144q228 0 373 -189q60 89 155.5 139t216.5 50q190 0 311 -120.5t121 -311.5q0 -56 -6 -68q-3 -10 -14 -10h-764v-246q58 -94 149 -145.5t207 -51.5q99 0 184.5 32t139.5 73q9 9 18 -4l7 -9q8 -8 -2 -18q-56 -43 -147.5 -77t-199.5 -34 q-120 0 -215.5 51t-158.5 140q-144 -191 -375 -191q-201 0 -339 143t-138 353zM150 473q0 -192 128 -325.5t312 -133.5q118 0 211.5 56t142.5 141v520q-48 87 -139.5 143t-214.5 56q-121 0 -222.5 -61.5t-159.5 -166.5t-58 -229zM983 494h743q3 21 3 41q0 174 -111 284.5 t-283 110.5q-120 0 -212 -56.5t-140 -142.5v-237z" />
<glyph unicode="&#x178;" horiz-adv-x="1130" d="M6 1409q-7 11 2 18l12 9q7 4 17 -6l528 -695l529 695q8 12 16 6l12 -9q9 -7 2 -18l-540 -704v-691q0 -14 -15 -14h-8q-14 0 -14 14v688zM309 1700q0 22 12.5 34.5t34.5 12.5t34.5 -12.5t12.5 -34.5q0 -20 -12.5 -32.5t-34.5 -12.5t-34.5 12.5t-12.5 32.5zM733 1700 q0 22 12.5 34.5t34.5 12.5t34.5 -12.5t12.5 -34.5q0 -20 -12.5 -32.5t-34.5 -12.5t-34.5 12.5t-12.5 32.5z" />
<glyph unicode="&#x2c6;" horiz-adv-x="763" d="M104 1135q-4 7 5 16l264 217q8 8 16 0l264 -217q9 -9 4 -16l-8 -11q-7 -7 -14 -2l-254 207l-254 -207q-7 -5 -14 2z" />
<glyph unicode="&#x2dc;" horiz-adv-x="778" d="M68 1217q53 172 176 172q26 0 48 -9t35 -20t26.5 -32t18 -31.5t13.5 -32.5q8 -19 15 -32t20 -29.5t32 -25t42 -8.5q32 0 58.5 17t42.5 45t24 47t14 39q3 14 14 10l17 -4q12 -3 6 -18q-56 -172 -176 -172q-32 0 -58 12t-43.5 33t-26.5 38t-18 39q-8 19 -10 24.5t-12.5 24 t-20 26.5t-26 16t-35.5 8q-32 0 -58.5 -17.5t-43 -45.5t-24.5 -47.5t-14 -39.5q-3 -14 -14 -10l-16 4q-12 3 -6 19z" />
<glyph unicode="&#x2000;" horiz-adv-x="981" />
<glyph unicode="&#x2001;" horiz-adv-x="1962" />
<glyph unicode="&#x2002;" horiz-adv-x="981" />
<glyph unicode="&#x2003;" horiz-adv-x="1962" />
<glyph unicode="&#x2004;" horiz-adv-x="654" />
<glyph unicode="&#x2005;" horiz-adv-x="490" />
<glyph unicode="&#x2006;" horiz-adv-x="327" />
<glyph unicode="&#x2007;" horiz-adv-x="327" />
<glyph unicode="&#x2008;" horiz-adv-x="245" />
<glyph unicode="&#x2009;" horiz-adv-x="392" />
<glyph unicode="&#x200a;" horiz-adv-x="109" />
<glyph unicode="&#x2010;" horiz-adv-x="829" d="M154 512v8q0 15 12 15h498q5 0 8.5 -4.5t3.5 -10.5v-8q0 -14 -12 -14h-498q-12 0 -12 14z" />
<glyph unicode="&#x2011;" horiz-adv-x="829" d="M154 512v8q0 15 12 15h498q5 0 8.5 -4.5t3.5 -10.5v-8q0 -14 -12 -14h-498q-12 0 -12 14z" />
<glyph unicode="&#x2012;" horiz-adv-x="829" d="M154 512v8q0 15 12 15h498q5 0 8.5 -4.5t3.5 -10.5v-8q0 -14 -12 -14h-498q-12 0 -12 14z" />
<glyph unicode="&#x2013;" horiz-adv-x="1153" d="M154 512v8q0 15 14 15h817q14 0 14 -15v-8q0 -14 -14 -14h-817q-14 0 -14 14z" />
<glyph unicode="&#x2014;" horiz-adv-x="1595" d="M154 512v8q0 15 14 15h1259q6 0 10.5 -4.5t4.5 -10.5v-8q0 -14 -15 -14h-1259q-14 0 -14 14z" />
<glyph unicode="&#x2018;" horiz-adv-x="401" d="M123 1212q0 143 113 234q14 11 20 0l8 -12q9 -13 -4 -23q-96 -74 -96 -190q0 -73 22 -109q18 21 41 21q20 0 34.5 -14t14.5 -34q0 -23 -15 -37t-38 -14q-47 0 -73.5 55.5t-26.5 122.5z" />
<glyph unicode="&#x2019;" horiz-adv-x="397" d="M127 1403q0 23 15 37t38 14q47 0 74 -56t27 -122q0 -143 -113 -234q-15 -12 -21 0l-8 13q-8 13 4 22q97 75 97 191q0 70 -23 108q-17 -20 -41 -20q-20 0 -34.5 13.5t-14.5 33.5z" />
<glyph unicode="&#x201a;" horiz-adv-x="380" d="M129 27q0 23 15 37t38 14q47 0 74 -56t27 -122q0 -143 -113 -234q-14 -11 -20 0l-9 12q-9 13 4 23q97 75 97 190q0 71 -23 109q-17 -20 -41 -20q-20 0 -34.5 13.5t-14.5 33.5z" />
<glyph unicode="&#x201c;" horiz-adv-x="765" d="M123 1212q0 143 113 234q14 11 20 0l8 -12q9 -13 -4 -23q-96 -74 -96 -190q0 -73 22 -109q18 21 41 21q20 0 34.5 -14t14.5 -34q0 -23 -15 -37t-38 -14q-47 0 -73.5 55.5t-26.5 122.5zM487 1212q0 143 113 234q15 12 21 0l8 -12q9 -13 -4 -23q-97 -75 -97 -190 q0 -71 23 -109q17 21 41 21q20 0 34.5 -14t14.5 -34q0 -23 -15 -37t-38 -14q-47 0 -74 56t-27 122z" />
<glyph unicode="&#x201d;" horiz-adv-x="761" d="M127 1403q0 23 15 37t38 14q47 0 74 -56t27 -122q0 -143 -113 -234q-15 -12 -21 0l-8 13q-8 13 4 22q97 75 97 191q0 70 -23 108q-17 -20 -41 -20q-20 0 -34.5 13.5t-14.5 33.5zM492 1403q0 23 15 37t38 14q47 0 73.5 -55.5t26.5 -122.5q0 -143 -113 -234q-14 -11 -20 0 l-8 13q-8 13 4 22q96 74 96 191q0 72 -22 108q-17 -20 -41 -20q-20 0 -34.5 13.5t-14.5 33.5z" />
<glyph unicode="&#x201e;" horiz-adv-x="745" d="M129 27q0 23 15 37t38 14q47 0 74 -56t27 -122q0 -143 -113 -234q-14 -11 -20 0l-9 12q-9 13 4 23q97 75 97 190q0 71 -23 109q-17 -20 -41 -20q-20 0 -34.5 13.5t-14.5 33.5zM494 27q0 23 15 37t38 14q47 0 73.5 -55.5t26.5 -122.5q0 -144 -112 -234q-15 -12 -21 0 l-8 12q-9 13 4 23q96 74 96 190q0 73 -22 109q-17 -20 -41 -20q-20 0 -34.5 13.5t-14.5 33.5z" />
<glyph unicode="&#x2022;" horiz-adv-x="520" d="M182 524q0 34 22 57t54 23q34 0 57 -23t23 -57q0 -31 -23 -53t-57 -22q-32 0 -54 22t-22 53z" />
<glyph unicode="&#x2026;" horiz-adv-x="1155" d="M137 43q0 20 14.5 33.5t34.5 13.5q21 0 34 -13t13 -34t-13 -35t-34 -14q-20 0 -34.5 14.5t-14.5 34.5zM526 43q0 20 13.5 33.5t33.5 13.5q22 0 36 -13.5t14 -33.5q0 -21 -14.5 -35t-35.5 -14q-20 0 -33.5 14.5t-13.5 34.5zM922 43q0 20 13.5 33.5t33.5 13.5 q22 0 35.5 -13.5t13.5 -33.5q0 -21 -14 -35t-35 -14q-20 0 -33.5 14.5t-13.5 34.5z" />
<glyph unicode="&#x202f;" horiz-adv-x="392" />
<glyph unicode="&#x2039;" horiz-adv-x="524" d="M115 479q-6 9 0 17l250 348q7 10 18 4l10 -6q11 -6 4 -17l-239 -338l239 -342q7 -11 -4 -16l-10 -6q-11 -6 -18 4z" />
<glyph unicode="&#x203a;" horiz-adv-x="526" d="M129 145l240 342l-240 338q-7 11 4 17l10 6q12 6 19 -4l250 -348q6 -8 0 -17l-250 -352q-7 -10 -19 -4l-10 6q-11 5 -4 16z" />
<glyph unicode="&#x205f;" horiz-adv-x="490" />
<glyph unicode="&#x20ac;" d="M59 555v8q0 6 4.5 11t8.5 4h106q-8 60 -8 137q0 44 2 67h-100q-5 0 -9 4.5t-4 10.5v8q0 6 4 10t9 4h102q18 174 87.5 316t192.5 230.5t279 88.5q218 0 395 -170q8 -8 2 -16l-8 -11q-8 -8 -16 0q-90 84 -176.5 122t-196.5 38q-145 0 -259.5 -82t-180 -215.5t-82.5 -300.5 h754q14 0 14 -14v-8q0 -15 -14 -15h-756q-2 -23 -2 -67q0 -77 8 -137h670q5 0 8.5 -4.5t3.5 -10.5v-8q0 -5 -3.5 -8.5t-8.5 -3.5h-664q17 -108 56.5 -201t101 -167.5t152.5 -117.5t202 -43q116 0 201 40.5t170 131.5q8 8 16 0l10 -10q8 -8 0 -16q-87 -94 -179 -138.5 t-218 -44.5q-118 0 -215.5 45t-164.5 123.5t-110 179t-61 218.5h-110q-5 0 -9 4t-4 8z" />
<glyph unicode="&#x2122;" horiz-adv-x="1640" d="M129 1411v8q0 15 14 15h459q14 0 14 -15v-8q0 -14 -14 -14h-209v-586q0 -14 -14 -14h-8q-15 0 -15 14v586h-213q-14 0 -14 14zM715 813l170 633q3 10 14 10t12 -10l189 -576l186 576q3 10 14.5 10t14.5 -10l168 -633q3 -14 -8 -16l-17 -4q-8 -3 -12 8l-148 553l-184 -570 q-3 -10 -14.5 -10t-14.5 10l-184 570l-149 -553q-2 -12 -17 -8l-12 4q-11 4 -8 16z" />
<glyph unicode="&#x25fc;" horiz-adv-x="962" d="M0 0v963h963v-963h-963z" />
<glyph unicode="&#xfb03;" horiz-adv-x="1726" d="M59 922v10q0 14 17 14h145v88q0 194 98.5 297t280.5 103q207 0 338 -103q83 123 268 123q177 0 314 -137q10 -11 0 -21l-9 -8q-12 -12 -22 2q-23 27 -53 51.5t-94 50t-136 25.5q-138 0 -220.5 -92.5t-82.5 -263.5v-115h633q14 0 14 -16v-914q0 -16 -12 -16h-10 q-15 0 -15 16v893h-610v-893q0 -16 -12 -16h-12q-13 0 -13 16v893h-608v-893q0 -16 -14 -16h-8q-15 0 -15 16v893h-145q-17 0 -17 13zM258 946h608v115q0 142 49 235q-44 38 -124.5 68.5t-190.5 30.5q-165 0 -253.5 -90.5t-88.5 -270.5v-88z" />
<glyph unicode="&#xfb04;" horiz-adv-x="1808" d="M59 922v10q0 14 17 14h145v88q0 194 98.5 297t280.5 103q203 0 334 -103q95 123 303 123q197 0 338 -131v94q0 17 12 17h12q13 0 13 -17v-1401q0 -16 -13 -16h-12q-12 0 -12 16v1256q-151 145 -338 145q-164 0 -249 -83.5t-85 -268.5v-119h410q18 0 18 -14v-10 q0 -13 -18 -13h-410v-893q0 -16 -12 -16h-12q-13 0 -13 16v893h-608v-893q0 -16 -14 -16h-8q-15 0 -15 16v893h-145q-17 0 -17 13zM258 946h608v119q0 144 45 229q-45 39 -123.5 70t-187.5 31q-165 0 -253.5 -90.5t-88.5 -270.5v-88z" />
</font>
</defs>
</svg>
