<?xml version="1.0" standalone="no"?>
<!DOCTYPE svg PUBLIC "-//W3C//DTD SVG 1.1//EN" "http://www.w3.org/Graphics/SVG/1.1/DTD/svg11.dtd" >
<svg xmlns="http://www.w3.org/2000/svg">
<metadata></metadata>
<defs>
<font id="brandon_textthin_italic" horiz-adv-x="1228" >
<font-face units-per-em="2048" ascent="1434" descent="-614" />
<missing-glyph horiz-adv-x="491" />
<glyph unicode="&#xfb01;" horiz-adv-x="1064" d="M74 -469l190 1378h-149q-6 0 -11 5.5t-4 11.5l2 8q2 12 17 12h151l17 109q17 107 54 185.5t88.5 124.5t111.5 67.5t131 21.5q58 0 108 -14t84 -37t54.5 -42.5t35.5 -41.5q9 -12 -2 -21l-8 -6q-11 -7 -18 2q-13 18 -31.5 36t-49.5 39.5t-76 34.5t-97 13q-132 0 -225.5 -87 t-122.5 -275l-17 -109h613q14 0 14 -16l-129 -914q-3 -16 -14 -16h-13q-5 0 -9 4.5t-1 11.5l125 893h-592l-192 -1378q-4 -18 -17 -18h-8q-14 0 -10 18z" />
<glyph unicode="&#xfb02;" horiz-adv-x="1120" d="M74 -469l190 1378h-149q-19 0 -15 15l2 10q2 12 17 12h151l19 129q16 107 53.5 183.5t91.5 118t112.5 59.5t127.5 18q109 0 190 -40t125 -89l12 92q3 17 17 17h10q13 0 10 -17l-198 -1401q-3 -16 -15 -16h-10q-13 0 -10 16l176 1264q-118 137 -307 137q-299 0 -348 -342 l-19 -129h402q17 0 14 -14l-2 -8q-4 -15 -19 -15h-401l-190 -1378q-4 -18 -19 -18h-10q-12 0 -8 18z" />
<glyph horiz-adv-x="0" />
<glyph horiz-adv-x="0" />
<glyph horiz-adv-x="682" />
<glyph unicode="&#xd;" horiz-adv-x="0" />
<glyph unicode=" "  horiz-adv-x="491" />
<glyph unicode="&#x09;" horiz-adv-x="491" />
<glyph unicode="&#xa0;" horiz-adv-x="491" />
<glyph unicode="!" horiz-adv-x="462" d="M104 23q0 23 17 38t39 15q17 0 28 -12t11 -29q0 -22 -16 -38.5t-38 -16.5q-17 0 -29 13t-12 30zM209 561l121 858q0 15 18 15h6q13 0 13 -15l-123 -858q0 -6 -5 -10t-10 -4h-8q-12 0 -12 14z" />
<glyph unicode="&#x22;" horiz-adv-x="610" d="M215 1040l51 379q4 15 17 15h8q5 0 8 -4.5t2 -10.5l-53 -379q-4 -14 -17 -14h-6q-5 0 -8 4t-2 10zM487 1040l54 379q0 15 14 15h8q12 0 12 -15l-55 -379q0 -6 -4.5 -10t-9.5 -4h-6q-13 0 -13 14z" />
<glyph unicode="#" horiz-adv-x="1091" d="M104 459l2 6q4 14 13 14h182l125 398h-199q-15 0 -12 14l2 8q3 14 14 14h207l160 508q4 13 14 13h6q16 0 13 -17l-160 -504h322l159 508q4 13 13 13h8q17 0 10 -17l-158 -504h174q5 0 8.5 -4t2.5 -10l-2 -8q-4 -14 -13 -14h-180l-123 -398h195q15 0 12 -14l-2 -6 q-4 -15 -14 -15h-203l-135 -432q-4 -12 -15 -12h-8q-16 0 -10 16l135 428h-321l-136 -432q-4 -12 -14 -12h-8q-16 0 -10 16l135 428h-178q-5 0 -8.5 4.5t-2.5 10.5zM338 479h319l123 398h-319z" />
<glyph unicode="$" d="M172 150q-8 8 2 18l10 8q12 8 19 -2q54 -57 98 -87q103 -68 231 -71l99 695q-65 20 -112 39t-93 47t-74 61t-45.5 79.5t-17.5 104.5q0 73 26.5 143t78.5 130.5t140.5 98t200.5 38.5l13 88q0 6 4.5 10t9.5 4h8q12 0 12 -14l-14 -90q76 -4 146 -29.5t102 -48.5l33 -24 q9 -7 0 -25q-10 -19 -25 -8l-6 4q-5 4 -12 9t-18 12.5t-25 14.5l-30 15t-35.5 15t-40 13t-45 10t-48.5 5q-14 -97 -94 -676q82 -27 139.5 -57t103.5 -71t68.5 -97t22.5 -127q0 -114 -64.5 -207t-165 -144t-213.5 -54l-31 -232q-4 -12 -16 -12q-9 0 -14 2.5t-4 9.5l32 232 q-59 2 -116 18t-95 36.5t-72 47t-48.5 41.5t-24.5 27zM326 1049q0 -63 21.5 -111t65 -83t95.5 -59.5t127 -47.5l94 667q-83 -1 -151.5 -23.5t-114.5 -58.5t-77.5 -83.5t-45.5 -98t-14 -102.5zM567 16q101 4 192.5 52.5t149.5 133t58 183.5q0 63 -21 113t-63.5 87t-94.5 63.5 t-124 51.5z" />
<glyph unicode="%" horiz-adv-x="1316" d="M170 8q-7 7 0 17l963 1405q6 10 14 2l12 -7q11 -5 2 -16l-962 -1405q-7 -11 -15 -6zM195 1126q0 137 91 232.5t212 95.5q95 0 158 -73t63 -177q0 -138 -91 -234t-212 -96q-96 0 -158.5 73t-62.5 179zM231 1130q0 -93 53 -156t138 -63q103 0 182.5 85t79.5 202 q0 92 -54 155.5t-138 63.5q-104 0 -182.5 -85t-78.5 -202zM639 229q0 138 91.5 234t213.5 96q94 0 157.5 -73.5t63.5 -178.5q0 -137 -91.5 -232t-211.5 -95q-97 0 -160 72.5t-63 176.5zM676 236q0 -93 53.5 -156.5t136.5 -63.5q104 0 182 85t78 202q0 93 -52.5 156 t-135.5 63q-104 0 -183 -84.5t-79 -201.5z" />
<glyph unicode="&#x26;" horiz-adv-x="1288" d="M133 307q0 69 18 130.5t48.5 109t76 90.5t94.5 75.5t111 63.5l-43 62q-102 142 -102 274q0 139 102 240.5t246 101.5q83 0 140.5 -38.5t82.5 -96.5t25 -129q0 -127 -108.5 -233.5t-284.5 -188.5l374 -492q103 114 161.5 262.5t58.5 274.5q0 16 12 16h12q12 0 12 -16 q0 -130 -61.5 -288t-169.5 -275l174 -221q8 -9 0 -17l-16 -12q-6 -6 -15 2l-170 219q-99 -112 -225.5 -176.5t-257.5 -64.5q-136 0 -215.5 95t-79.5 232zM168 305q0 -122 71.5 -206.5t192.5 -84.5q123 0 242 63.5t215 172.5l-383 502q-60 -31 -106.5 -61.5t-91.5 -72 t-74.5 -86t-47.5 -103t-18 -124.5zM371 1114q0 -120 90 -250q34 -48 53 -71q84 40 148.5 80.5t119.5 89.5t84 106.5t29 120.5q0 95 -54 162t-161 67q-119 0 -214 -89t-95 -216z" />
<glyph unicode="'" horiz-adv-x="337" d="M215 1040l53 379q0 6 4.5 10.5t10.5 4.5h10q14 0 10 -15l-53 -379q-4 -14 -14 -14h-9q-12 0 -12 14z" />
<glyph unicode="(" horiz-adv-x="655" d="M129 428q0 158 18.5 294.5t50 238.5t76.5 184.5t95 138t108 93.5t114 56t114 21q15 0 12 -14v-8q0 -6 -5.5 -10.5t-11.5 -4.5q-55 -3 -108 -20.5t-106.5 -54.5t-100 -90.5t-87.5 -133t-70 -178t-45.5 -229.5t-16.5 -283q0 -116 17.5 -209t47 -155t70.5 -104t86 -62 t96 -23q13 0 13 -14l-2 -8q0 -4 -5 -8.5t-10 -4.5q-70 3 -130.5 36.5t-111 100.5t-79.5 182.5t-29 268.5z" />
<glyph unicode=")" horiz-adv-x="655" d="M-43 -139q0 6 5 10t11 4q55 6 107.5 24.5t106.5 55.5t100.5 90t87.5 132t70 176.5t46 228t17 282.5q0 145 -26 254t-72 171t-100.5 93t-119.5 35q-6 0 -9.5 4.5t-2.5 10.5l2 10q3 12 15 12q70 -4 130.5 -38t111 -100.5t79.5 -182t29 -267.5q0 -218 -35.5 -395 t-92.5 -290.5t-133.5 -191t-154.5 -111.5t-160 -38q-12 0 -12 13v8z" />
<glyph unicode="*" horiz-adv-x="821" d="M227 989q-4 11 9 15l213 129l-179 129q-8 4 -2 14q4 4 8 12q6 12 17 4l178 -127l37 254q0 6 4.5 10.5t9.5 4.5h8q13 0 13 -15l-37 -254l215 127q11 6 16 -4l4 -12q3 -9 -6 -14l-215 -129l178 -129q8 -4 4 -15l-10 -14q-5 -7 -16 -2l-178 127l-37 -254q0 -6 -4.5 -10.5 t-10.5 -4.5h-8q-12 0 -12 15l37 254l-215 -127q-12 -6 -15 2z" />
<glyph unicode="+" d="M260 709l2 8q4 14 14 14h342l54 379q4 14 16 14h8q13 0 13 -14l-54 -379h338q6 0 10 -4t3 -10l-2 -8q-4 -15 -15 -15h-340l-53 -381q-4 -14 -16 -14h-9q-12 0 -12 14l55 381h-342q-6 0 -9.5 4.5t-2.5 10.5z" />
<glyph unicode="," horiz-adv-x="364" d="M10 -322q-6 12 8 23q58 41 92.5 104t34.5 136q0 36 -10 59q-20 -20 -45 -20q-19 0 -31 12t-12 31q0 23 19 39t43 16q38 0 57.5 -40t19.5 -97q0 -79 -39 -151.5t-108 -123.5q-17 -12 -23 0z" />
<glyph unicode="-" horiz-adv-x="753" d="M131 512l2 8q4 15 14 15h447q5 0 7 -4.5t1 -10.5l-2 -8q-4 -14 -12 -14h-447q-5 0 -8 4t-2 10z" />
<glyph unicode="." horiz-adv-x="368" d="M59 29q0 26 18.5 43.5t43.5 17.5q20 0 32.5 -13.5t12.5 -33.5q0 -26 -18.5 -46t-41.5 -20q-21 0 -34 15.5t-13 36.5z" />
<glyph unicode="/" horiz-adv-x="720" d="M41 14l647 1411q3 9 12 9h13q6 0 7.5 -6t-1.5 -11l-647 -1409q-3 -8 -17 -8h-12q-9 3 -2 14z" />
<glyph unicode="0" horiz-adv-x="1292" d="M180 532q0 276 71.5 484.5t205.5 323t313 114.5q183 0 281 -147.5t98 -405.5q0 -276 -71.5 -485t-205 -324t-311.5 -115q-185 0 -283 148t-98 407zM219 532q0 -243 89 -380.5t257 -137.5q169 0 292.5 110.5t188 309.5t64.5 465q0 242 -89 379t-257 137 q-169 0 -292.5 -110t-188 -309t-64.5 -464z" />
<glyph unicode="1" horiz-adv-x="692" d="M154 1141q-3 7 6 14l385 285q7 7 15.5 1.5t6.5 -14.5l-198 -1413q-3 -14 -17 -14h-10q-12 0 -12 14l192 1364l-346 -254q-11 -7 -14 2z" />
<glyph unicode="2" horiz-adv-x="1064" d="M25.5 9.5q-2.5 9.5 5.5 15.5l618 563q72 67 120.5 119.5t91 115t63 128.5t20.5 139q0 66 -20.5 124t-60.5 104t-105.5 72.5t-147.5 26.5q-43 0 -84 -11t-72.5 -28t-59 -38t-47 -42t-33.5 -38t-22 -28l-7 -11q-6 -12 -15 -7l-14 9q-9 9 -2 20q5 9 15.5 23t45.5 50.5 t73.5 64t100 50.5t125.5 23q120 0 205.5 -51t124.5 -130.5t39 -176.5q0 -79 -21 -150t-64.5 -137t-95.5 -122.5t-128 -125.5l-572 -522h709q12 0 12 -16l-2 -9q0 -6 -4.5 -10t-9.5 -4h-770q-9 0 -11.5 9.5z" />
<glyph unicode="3" horiz-adv-x="1134" d="M90 168q-6 15 2 20l10 9q10 7 17 -4q18 -25 26 -35t41.5 -42.5t64.5 -50t84 -33.5t111 -16q200 0 329.5 119.5t129.5 292.5q0 119 -81.5 208t-213.5 89h-252q-6 0 -9.5 5.5t-2.5 12.5l2 9q3 12 14 12h248q64 0 128 27.5t115.5 74.5t83.5 118t32 151q0 125 -77.5 203.5 t-209.5 78.5q-65 0 -126.5 -18t-99 -38t-76 -52.5t-46 -41t-21.5 -24.5q-7 -10 -16 -4l-10 8q-9 6 -2 17q11 14 25.5 29.5t53 46.5t81 54.5t109 41.5t136.5 18q144 0 231 -89t87 -226q0 -141 -83.5 -247t-201.5 -144v-3q99 -30 159 -119.5t60 -195.5q0 -188 -140 -319 t-356 -131q-73 0 -140 22.5t-110 55t-70 61.5t-36 49z" />
<glyph unicode="4" horiz-adv-x="1185" d="M43 343q-2 7 4 15l977 1106q6 6 12.5 4.5t5.5 -10.5l-151 -1087h135q15 0 12 -13l-2 -10q-3 -12 -18 -12h-131l-47 -322q0 -5 -4.5 -9.5t-10.5 -4.5h-10q-5 0 -8 4t-2 10l47 322h-797q-10 0 -12 7zM106 371h750l143 1013z" />
<glyph unicode="5" horiz-adv-x="1130" d="M119 160q-7 13 2 20l14 8q11 8 17 -4q16 -27 38 -52t59 -53.5t93 -45.5t123 -17q134 0 246 70.5t176.5 192.5t64.5 268q0 155 -88 236t-266 81h-348q-12 0 -12 17l75 538q4 15 17 15h620q6 0 9.5 -4.5t1.5 -10.5l-3 -6q-4 -14 -16 -14h-592l-71 -498h319q192 3 292.5 -90 t100.5 -264q0 -156 -71 -286.5t-191.5 -205.5t-263.5 -75q-75 0 -136.5 17.5t-102 47.5t-65.5 57.5t-42 57.5z" />
<glyph unicode="6" horiz-adv-x="1153" d="M150 467q0 137 33.5 262.5t86.5 219t125 176.5t142 139.5t146 103t128 70.5t96 39q5 2 10 -0.5t5 -6.5l2 -14q3 -12 -11 -16q-36 -13 -79 -32.5t-105.5 -55.5t-122 -78.5t-124 -105t-116.5 -131.5t-94.5 -160.5t-62.5 -190.5q32 40 72.5 78t98.5 79t133 66t153 25 q152 0 254 -109.5t102 -285.5q0 -151 -72 -281t-187.5 -204t-242.5 -74q-89 0 -160.5 38t-116.5 104.5t-69 154.5t-24 190zM186 471q0 -129 37 -230.5t114 -163t183 -61.5q90 0 175 41t148.5 110.5t102.5 167.5t39 204q0 159 -93 258.5t-230 99.5q-57 0 -113 -15.5 t-98.5 -37t-84.5 -54.5t-67.5 -57.5t-51.5 -56.5t-33 -41.5t-15 -22.5q-13 -32 -13 -141z" />
<glyph unicode="7" horiz-adv-x="960" d="M176 1411l2 10q3 13 10 13h816q6 0 8.5 -6.5t-0.5 -12.5l-760 -1413q-6 -11 -16 -6l-11 4q-11 4 -2 18l740 1381h-777q-13 0 -10 12z" />
<glyph unicode="8" horiz-adv-x="1185" d="M135 313q0 174 104.5 282.5t284.5 141.5q-117 28 -185.5 109.5t-68.5 193.5q0 75 26.5 146.5t78 132.5t138 98t196.5 37q89 0 157.5 -28t109 -75t61 -103.5t20.5 -119.5q0 -148 -100 -253t-257 -140q133 -26 212 -115t79 -206q0 -110 -38 -194.5t-105 -136t-153.5 -77.5 t-188.5 -26q-166 0 -268.5 85.5t-102.5 247.5zM172 315q0 -147 93 -225t247 -78q122 0 220.5 43t160 135.5t61.5 221.5q0 122 -93.5 206.5t-250.5 96.5q-200 -15 -319 -119.5t-119 -280.5zM305 1042q0 -123 87 -199.5t226 -84.5q173 11 286.5 109.5t113.5 260.5 q0 57 -18 108t-53.5 93.5t-97.5 67t-142 24.5q-100 0 -179.5 -34t-126.5 -90t-71.5 -121t-24.5 -134z" />
<glyph unicode="9" horiz-adv-x="1155" d="M170 899q0 113 43 216.5t112.5 177t161 117.5t185.5 44q119 0 204.5 -65t126.5 -172.5t41 -245.5q0 -137 -33.5 -263t-86.5 -220t-125.5 -177.5t-142.5 -140t-146 -103t-128 -71t-95 -39.5q-12 -4 -15 8l-4 15q-3 12 13 16q36 13 79 32.5t105.5 55.5t121.5 79 t123.5 105.5t116.5 132t94.5 161t63.5 190.5q-32 -40 -72.5 -78t-99.5 -79.5t-134 -67t-153 -25.5q-152 0 -254 110.5t-102 286.5zM209 899q0 -158 92.5 -258t228.5 -100q57 0 113 15.5t99 37.5t85 54t68 57t51.5 56t33 42t15.5 22q11 55 11 142q0 128 -37 228t-114 160 t-183 60q-119 0 -225.5 -67.5t-172 -187.5t-65.5 -261z" />
<glyph unicode=":" horiz-adv-x="423" d="M82 27q0 26 18 43.5t43 17.5q20 0 32.5 -13.5t12.5 -33.5q0 -27 -17.5 -46.5t-41.5 -19.5q-21 0 -34 15.5t-13 36.5zM207 905q0 29 17.5 47.5t41.5 18.5q22 0 33.5 -13.5t11.5 -35.5q0 -25 -17.5 -44.5t-41.5 -19.5q-20 0 -32.5 14t-12.5 33z" />
<glyph unicode=";" horiz-adv-x="516" d="M76 -322q-6 12 8 23q58 41 92.5 104t34.5 136q0 36 -10 59q-20 -20 -45 -20q-19 0 -31 12t-12 31q0 23 18.5 39t42.5 16q39 0 58.5 -40t19.5 -97q0 -79 -39 -151.5t-109 -123.5q-16 -11 -22 0zM233 905q0 29 17 47.5t41 18.5q22 0 33.5 -13.5t11.5 -35.5q0 -25 -18 -44.5 t-42 -19.5q-18 0 -30.5 14t-12.5 33z" />
<glyph unicode="&#x3c;" d="M235.5 474.5q0.5 7.5 8.5 12.5l737 482q8 5 14 -4l6 -17q7 -10 -4 -16l-708 -463l579 -440q5 -3 5.5 -8.5t-3.5 -10.5l-8 -10q-9 -9 -16 -4l-604 465q-7 6 -6.5 13.5z" />
<glyph unicode="=" d="M264 375l2 8q4 14 17 14h608q15 0 12 -14l-2 -8q-4 -15 -16 -15h-609q-6 0 -9.5 4.5t-2.5 10.5zM324 797l2 8q4 14 16 14h608q6 0 10 -4t3 -10l-2 -8q-4 -15 -17 -15h-608q-6 0 -9.5 4.5t-2.5 10.5z" />
<glyph unicode="&#x3e;" d="M197 8q-8 11 4 19l706 454l-575 457q-8 8 -2 18l6 9q8 11 18 4l604 -482q6 -4 5 -12t-9 -12l-735 -465q-13 -6 -18 2z" />
<glyph unicode="?" horiz-adv-x="919" d="M209 1270q5 7 15.5 19.5t46 44.5t75 56t102.5 44t130 20q132 0 210 -74.5t78 -189.5q0 -60 -22.5 -116.5t-51.5 -94.5t-71.5 -75t-66 -53t-50.5 -32q-39 -23 -57 -34.5t-41.5 -32t-34 -42.5t-14.5 -51l-17 -118q-4 -15 -16 -15h-10q-5 0 -8.5 4.5t-2.5 10.5l19 123 q3 20 10 39t13.5 32t23.5 29t24 23.5t31.5 23t30.5 19t35 20.5q26 15 48.5 30.5t61 49.5t64.5 68.5t46.5 86t20.5 105.5q0 94 -70 161.5t-183 67.5q-60 0 -117 -17.5t-95 -42t-67 -49t-43 -42.5l-14 -17q-10 -14 -23 -6l-8 6q-11 7 -2 19zM311 23q0 23 16 38t38 15 q17 0 27.5 -11.5t10.5 -29.5q0 -22 -15.5 -38.5t-37.5 -16.5q-17 0 -28 12.5t-11 30.5z" />
<glyph unicode="@" horiz-adv-x="1894" d="M121 322q0 318 126.5 576t355 407t515.5 149q325 0 499.5 -189.5t174.5 -533.5q0 -190 -62.5 -348.5t-172.5 -250.5t-244 -91q-75 0 -118 46t-46 118q-113 -164 -305 -164q-136 0 -216.5 104.5t-80.5 262.5q0 209 125.5 351t298.5 142q91 0 154 -33.5t98 -76.5l10 75 q4 15 14 15h8q6 0 10 -4.5t3 -10.5l-82 -592q-12 -86 22 -141t105 -55q127 0 229.5 90.5t158.5 239.5t56 323q0 328 -164 507t-475 179q-207 0 -387 -84t-305.5 -230t-197.5 -348.5t-72 -432.5q0 -253 116.5 -450t311.5 -296q11 -6 4 -20l-4 -9q-6 -13 -17 -6 q-203 102 -324.5 309.5t-121.5 471.5zM582 410q0 -142 73.5 -237t188.5 -95q61 0 115 20.5t87.5 49.5t58 58t34.5 50l10 20l65 459q-4 10 -18.5 27.5t-42.5 42.5t-76.5 43t-105.5 18q-161 0 -275 -131.5t-114 -324.5z" />
<glyph unicode="A" horiz-adv-x="1202" d="M-51 14l772 1454q3 9 12 9h2q7 0 10 -9l353 -1452q1 -2 1 -4q0 -7 -9 -10l-11 -4q-11 -4 -14 6l-102 426h-756l-225 -428q-3 -6 -10 -6h-3l-16 6q-6 2 -6 6q0 3 2 6zM227 465h725l-225 944h-2z" />
<glyph unicode="B" horiz-adv-x="1196" d="M141 14l199 1405q0 6 4.5 10.5t9.5 4.5h381q159 0 249.5 -81.5t90.5 -230.5q0 -140 -79.5 -240.5t-204.5 -144.5q107 -24 168 -99.5t61 -199.5q0 -194 -131.5 -316t-337.5 -122h-397q-13 0 -13 14zM182 37h375q185 0 304.5 110.5t119.5 290.5q0 137 -83 207t-226 70h-396 zM283 752h360q171 0 283 102.5t112 267.5q0 132 -82 203.5t-225 71.5h-358z" />
<glyph unicode="C" horiz-adv-x="1366" d="M141 616q0 169 65.5 325.5t172.5 268t249 178t290 66.5q137 0 237 -48t188 -142q4 -4 4.5 -8t-4.5 -9l-10 -10q-8 -8 -16 0q-80 90 -176 136t-223 46q-142 0 -277.5 -64.5t-237 -171.5t-163.5 -256.5t-62 -310.5q0 -166 70 -303.5t193.5 -217t273.5 -79.5q241 0 456 191 q7 7 15 0l10 -12q6 -7 -2 -15q-218 -200 -479 -200q-166 0 -298 85t-204 230t-72 321z" />
<glyph unicode="D" horiz-adv-x="1386" d="M141 14l197 1405q4 15 14 15h371q160 0 288 -84t198.5 -227t70.5 -316q0 -130 -40 -253t-112 -222.5t-166.5 -174.5t-208 -116t-231.5 -41h-370q-11 0 -11 14zM180 37h346q137 0 268 61.5t230 164t159 246t60 298.5q0 162 -66.5 296.5t-188 214t-271.5 79.5h-346z" />
<glyph unicode="E" horiz-adv-x="1120" d="M141 14l199 1405q0 6 4.5 10.5t9.5 4.5h750q6 0 9.5 -4.5t2.5 -10.5l-2 -8q-4 -14 -14 -14h-727l-88 -633h637q6 0 9.5 -4t2.5 -10l-2 -9q-4 -14 -14 -14h-639l-97 -690h725q10 0 13.5 -3.5t1.5 -10.5l-2 -9q-4 -14 -17 -14h-749q-13 0 -13 14z" />
<glyph unicode="F" horiz-adv-x="1077" d="M141 14l199 1405q0 6 4.5 10.5t9.5 4.5h750q6 0 9.5 -4.5t2.5 -10.5l-2 -8q-4 -14 -14 -14h-727l-97 -684h639q5 0 8.5 -3.5t2.5 -9.5l-4 -14q-3 -10 -19 -10h-631q-19 -126 -94 -662q0 -6 -5 -10t-11 -4h-8q-13 0 -13 14z" />
<glyph unicode="G" horiz-adv-x="1423" d="M141 616q0 169 65.5 325.5t172.5 268t249 178t290 66.5q137 0 237 -48t188 -142q5 -4 5 -8t-5 -9l-10 -10q-8 -8 -16 0q-80 90 -176 136t-223 46q-142 0 -277.5 -64.5t-237 -171.5t-163.5 -256.5t-62 -310.5q0 -167 69 -304t194 -216.5t280 -79.5q86 0 166.5 16.5t137 42 t91 46t53.5 37.5l70 481h-414q-13 0 -10 14l2 9q4 12 14 12h435q12 0 12 -12l-74 -519q-8 -12 -43.5 -36.5t-95 -54t-154 -51t-196.5 -21.5q-164 0 -296 85t-205 230t-73 321z" />
<glyph unicode="H" horiz-adv-x="1417" d="M141 14l199 1405q0 6 4.5 10.5t9.5 4.5h11q14 0 10 -15l-90 -655h901l92 655q4 15 14 15h11q6 0 9.5 -4.5t2.5 -10.5l-199 -1405q-4 -14 -14 -14h-10q-6 0 -10 4t-3 10l101 713h-901l-101 -713q-4 -14 -16 -14h-8q-6 0 -10 4t-3 10z" />
<glyph unicode="I" horiz-adv-x="479" d="M141 14l197 1405q4 15 16 15h8q6 0 10 -4.5t3 -10.5l-197 -1405q-4 -14 -16 -14h-8q-6 0 -10 4t-3 10z" />
<glyph unicode="J" horiz-adv-x="884" d="M-14 137q-2 5 -2 9q0 7 6 10l8 4q12 7 18 -2q80 -144 236 -144q150 0 246 110.5t125 313.5l139 981q0 15 14 15h8q6 0 10 -4q2 -3 2 -7q0 -2 -1 -4l-138 -981q-31 -218 -136.5 -338t-270.5 -120q-57 0 -106 17t-80 44.5t-49 50.5t-29 45z" />
<glyph unicode="K" horiz-adv-x="1032" d="M141 14l199 1405q4 15 14 15h11q6 0 9.5 -4.5t2.5 -10.5l-96 -676l778 689q6 4 10.5 4t9.5 -4l6 -7q5 -5 5 -10t-5 -10l-774 -682l598 -703q8 -10 -2 -20l-10 -8q-4 -3 -7 -3q-6 0 -11 7l-605 711l-96 -693q-4 -14 -16 -14h-8q-6 0 -10 4t-3 10z" />
<glyph unicode="L" horiz-adv-x="933" d="M141 14l199 1405q4 15 14 15h11q5 0 8 -4.5t2 -10.5l-195 -1384h639q13 0 13 -8q0 -2 -1 -4l-2 -9q-3 -14 -14 -14h-661q-13 0 -13 14z" />
<glyph unicode="M" horiz-adv-x="1626" d="M35 16l475 1442q3 10 14 10t11 -10q205 -1384 202 -1384l590 1384q5 10 15 10t12 -10l76 -1442q0 -14 -9 -16l-12 -2q-14 -4 -14 10l-72 1356l-584 -1380q-5 -10 -15 -10t-11 10l-197 1380l-446 -1356q-5 -12 -15 -12l-14 2q-8 2 -8 9q0 4 2 9z" />
<glyph unicode="N" horiz-adv-x="1454" d="M141 14l203 1440q2 11 12 14q2 1 5 1q7 0 10 -7l751 -1409l193 1366q4 15 16 15h8q6 0 10 -4.5t3 -10.5l-203 -1435q-2 -10 -12 -14q-3 -1 -5 -1q-6 0 -10 6l-751 1409l-193 -1370q-4 -14 -16 -14h-8q-6 0 -10 4t-3 10z" />
<glyph unicode="O" horiz-adv-x="1597" d="M143 618q0 170 64.5 326t171.5 267t249.5 177t293.5 66q164 0 295 -86t203.5 -232t72.5 -323q0 -169 -65 -324.5t-171.5 -266t-249 -176.5t-292.5 -66q-164 0 -296 86t-204 231.5t-72 320.5zM180 621q0 -166 68.5 -304.5t192 -219.5t274.5 -81q142 0 277.5 63t237.5 169 t164 254t62 309q0 168 -68.5 306.5t-192 219t-275.5 80.5q-142 0 -277.5 -63t-237 -169t-163.5 -254.5t-62 -309.5z" />
<glyph unicode="P" horiz-adv-x="1138" d="M141 14l199 1405q0 6 4.5 10.5t9.5 4.5h385q156 0 259.5 -118t103.5 -286q0 -106 -41.5 -204t-109.5 -168.5t-158 -113t-183 -42.5h-362l-70 -488q-4 -14 -16 -14h-8q-6 0 -10 4t-3 10zM252 539h362q114 0 217.5 65.5t167.5 178.5t64 243q0 155 -93.5 263t-236.5 108 h-360z" />
<glyph unicode="Q" horiz-adv-x="1597" d="M143 618q0 170 64.5 326t171.5 267t249.5 177t293.5 66q164 0 295 -86t203.5 -232t72.5 -323q0 -270 -153.5 -487t-385.5 -303l158 -390q6 -9 -4 -16l-21 -10q-2 -1 -4 -1q-5 0 -8 7l-157 397q-99 -30 -203 -30q-164 0 -296 86t-204 231.5t-72 320.5zM180 621 q0 -166 68.5 -304.5t192 -219.5t274.5 -81q142 0 277.5 63t237.5 169t164 254t62 309q0 168 -68.5 306.5t-192 219t-275.5 80.5q-142 0 -277.5 -63t-237 -169t-163.5 -254.5t-62 -309.5z" />
<glyph unicode="R" horiz-adv-x="1226" d="M141 14l199 1405q0 15 14 15h439q157 0 259.5 -108.5t102.5 -272.5q0 -187 -116 -326t-283 -172l213 -541q4 -13 -6 -16l-13 -4q-2 -1 -4 -1q-6 0 -8 7l-213 549q-18 -2 -59 -2h-414l-76 -533q0 -6 -4.5 -10t-9.5 -4h-8q-13 0 -13 14zM256 582h410q91 0 174.5 36t145 98 t98 150t36.5 187q0 146 -94 245t-233 99h-422z" />
<glyph unicode="S" horiz-adv-x="1050" d="M84 150q-3 4 -3 8q0 5 5 10l12 10q9 9 17 -2q11 -16 35 -39t65.5 -53t106.5 -50t137 -20q108 0 204 44.5t157 128t61 186.5q0 58 -17.5 105t-45.5 80.5t-75.5 63.5t-93.5 50.5t-114 44.5q-47 17 -79.5 30.5t-70.5 32.5t-63 37.5t-50 44.5t-39 55t-23 67t-9 83 q0 67 27 133.5t79.5 124t141.5 93.5t200 36q53 0 105 -10.5t87.5 -26t64 -31t42.5 -26.5l13 -10q5 -5 5 -9t-3 -8l-11 -12q-7 -10 -16 -4q-5 4 -14 11t-38 24.5t-60.5 31t-79 24.5t-95.5 11q-84 0 -154.5 -22t-117 -58t-79.5 -82.5t-47.5 -94.5t-14.5 -95q0 -69 21.5 -119.5 t68.5 -87.5t96 -60t129 -52q92 -32 152.5 -62t112 -73.5t75.5 -102t24 -137.5q0 -110 -62 -200.5t-166.5 -141.5t-227.5 -51q-78 0 -149.5 22t-117 53t-72.5 55.5t-36 39.5z" />
<glyph unicode="T" horiz-adv-x="948" d="M172 1411l2 10q3 13 14 13h803q6 0 10 -4.5t3 -10.5l-3 -10q-3 -12 -14 -12h-385l-194 -1383q-4 -14 -17 -14h-8q-15 0 -12 14l194 1383h-381q-6 0 -9.5 4t-2.5 10z" />
<glyph unicode="U" horiz-adv-x="1366" d="M188 412q0 25 9 104l127 903q4 15 14 15h10q14 0 10 -15l-125 -903q-8 -47 -8 -102q0 -182 99.5 -290t277.5 -108q201 0 341 138.5t171 361.5l127 903q4 15 16 15h11q5 0 8 -4.5t2 -10.5l-127 -903q-35 -243 -180 -389.5t-375 -146.5q-189 0 -298.5 117.5t-109.5 314.5z " />
<glyph unicode="V" horiz-adv-x="1198" d="M143 1417q-1 3 -1 5q0 7 8 10l16 4q9 3 12 -11l334 -1392l741 1399q4 7 10 7q2 0 5 -1l14 -6q6 -2 6 -7q0 -4 -4 -10l-768 -1448q-2 -7 -12 -9h-3q-7 0 -9 9z" />
<glyph unicode="W" horiz-adv-x="1648" d="M195 1421q0 10 8 13l18 4q4 1 7 -2.5t3 -8.5l164 -1364l533 1387q4 10 14 10t12 -10l160 -1384l535 1366q3 10 14 6l14 -6q7 -2 7 -8q0 -4 -3 -9l-565 -1440q-2 -7 -8 -9q-3 -1 -5.5 -1.5t-4.5 1.5q-4 2 -6 9l-162 1389l-535 -1389q-3 -7 -9 -9q-3 -1 -5 -2q-3 0 -5 2 q-4 2 -5 9z" />
<glyph unicode="X" horiz-adv-x="1019" d="M-2 6q-4 3 -4 7.5t4 11.5l510 706l-297 678q-5 14 4 18l14 9q4 2 7 2q6 0 8 -8l288 -666l482 666q5 7 11 7q2 0 5 -1l12 -9q4 -2 4 -6.5t-4 -11.5l-491 -682l317 -704q5 -15 -6 -19l-14 -6q-3 -2 -6 -2q-6 0 -8 8l-306 690l-499 -690q-5 -8 -11 -8q-3 0 -6 2z" />
<glyph unicode="Y" horiz-adv-x="1042" d="M129 1409q-3 5 -3 9q0 5 7 9l12 7q9 5 17 -7l373 -690l571 693q5 8 11 8l5 -2l15 -9q6 -3 6 -7.5t-6 -10.5l-586 -704l-96 -693q-3 -12 -15 -12h-12q-13 0 -10 14l96 688z" />
<glyph unicode="Z" horiz-adv-x="974" d="M-28 8q-1 3 -1 5q0 5 4 10l996 1374h-729q-14 0 -11 14l2 8q4 15 15 15h770q9 0 12 -8q1 -3 1 -6q0 -5 -3 -9l-997 -1374h753q14 0 11 -14l-2 -9q-3 -14 -17 -14h-792q-9 0 -12 8z" />
<glyph unicode="[" horiz-adv-x="641" d="M39 -473l264 1892q4 15 16 15h373q6 0 10 -4.5t3 -10.5l-3 -8q-4 -14 -14 -14h-352l-258 -1848h350q6 0 9.5 -4t2.5 -10l-2 -8q-4 -14 -14 -14h-375q-5 0 -8 4t-2 10z" />
<glyph unicode="\" horiz-adv-x="708" d="M231 1421q-4 13 9 13h12q9 0 12 -9l250 -1413q4 -12 -6 -12h-12q-13 0 -15 8z" />
<glyph unicode="]" horiz-adv-x="638" d="M-96 -473l2 8q4 14 16 14h350l258 1848h-350q-14 0 -10 14l2 8q4 15 14 15h373q12 0 12 -15l-266 -1892q-3 -14 -16 -14h-373q-6 0 -9.5 4t-2.5 10z" />
<glyph unicode="^" horiz-adv-x="966" d="M113 840l489 624q6 6 13 6t10 -6l305 -624q7 -10 -6 -17l-13 -8q-10 -7 -14 4l-287 598l-469 -598q-7 -10 -16 -4l-10 8q-11 8 -2 17z" />
<glyph unicode="_" horiz-adv-x="1284" d="M236 -41l2 6q4 15 16 15h608q14 0 10 -15l-2 -8q-4 -12 -16 -12h-608q-5 0 -8 4t-2 10z" />
<glyph unicode="`" horiz-adv-x="557" d="M209 1350l4 6q6 10 18 6l308 -186q10 -6 4 -15l-4 -8q-8 -12 -19 -6l-309 184q-11 7 -2 19z" />
<glyph unicode="a" horiz-adv-x="1064" d="M102 399q0 157 65.5 287.5t177.5 205.5t245 75q103 0 175.5 -37t115.5 -86l16 86q3 16 12 16h11q11 0 11 -11q0 -2 -1 -5l-127 -914q-3 -16 -17 -16h-10q-13 0 -10 16l16 121q-43 -57 -135.5 -108.5t-195.5 -51.5q-159 0 -254 120t-95 302zM139 401q0 -165 86 -276 t226 -111q106 0 200.5 59.5t139.5 133.5l81 581q-4 8 -14 21.5t-34.5 35.5t-55 40t-78 31.5t-100.5 13.5q-188 0 -319.5 -153t-131.5 -376z" />
<glyph unicode="b" horiz-adv-x="1067" d="M102 16l201 1401q3 17 14 17h11q6 0 10.5 -5t3.5 -12l-84 -571q6 5 16 13t43 29t67.5 37t86.5 29t102 13q164 0 263.5 -119t99.5 -301q0 -117 -39 -223.5t-104 -182t-151 -120t-177 -44.5q-114 0 -191 47t-114 107l-19 -115q-3 -16 -16 -16h-10q-16 0 -13 16zM168 195 q2 -7 12 -25t35 -45.5t57 -51.5t83.5 -41.5t109.5 -17.5q112 0 212 71.5t161 195t61 266.5q0 165 -91 274t-235 109q-55 0 -108 -15t-90 -36.5t-66 -43t-43 -36.5l-14 -15z" />
<glyph unicode="c" horiz-adv-x="1017" d="M100 408q0 161 75 290.5t195 199t257 69.5q184 0 309 -125q3 -5 3 -10q0 -6 -5 -11l-10 -10q-10 -9 -21 2l-11 11q-11 10 -21 18.5t-28.5 22t-40 24t-48 20.5t-59.5 15.5t-68 5.5q-95 0 -184 -39t-156.5 -106.5t-108.5 -166t-41 -210.5q0 -165 103 -279.5t247 -114.5 q34 0 68.5 6.5t63.5 17t57 24.5t49.5 28t40.5 28.5t31 25t21 18.5l9 8q9 10 17 2l10 -10q10 -10 0 -21q-9 -9 -20 -19.5t-50.5 -39t-79.5 -49.5t-99.5 -38.5t-117.5 -17.5q-162 0 -274.5 124t-112.5 307z" />
<glyph unicode="d" horiz-adv-x="1064" d="M100 399q0 120 40 226t107.5 180.5t160 118t194.5 43.5q50 0 97.5 -12.5t79 -30.5t55.5 -35.5t36 -30.5l11 -12l82 571q0 17 12 17h14q9 0 9 -10q0 -3 -1 -7l-194 -1401q-2 -16 -17 -16h-10q-13 0 -10 16l16 115q-56 -60 -145 -107t-195 -47q-154 0 -248 120.5t-94 301.5 zM137 399q0 -164 85.5 -274.5t219.5 -110.5q59 0 115.5 18t95 41.5t71.5 52.5t47.5 46t19.5 25l83 591q-4 6 -11 15.5t-32.5 34t-54.5 43t-76 34t-98 15.5q-127 0 -234 -70.5t-169 -192.5t-62 -268z" />
<glyph unicode="e" horiz-adv-x="1009" d="M100 387q0 161 63.5 294t177 209.5t253.5 76.5q147 0 237.5 -74t90.5 -184q0 -130 -139 -202.5t-382 -72.5q-122 0 -260 21q-4 -46 -4 -64q0 -167 86 -272t238 -105q89 0 168 32t131 73q12 10 18 -2l6 -13q4 -8 -2 -14q-37 -37 -134 -75t-187 -38q-119 0 -202 57 t-121 147.5t-38 205.5zM145 492q158 -21 254 -21q227 0 356.5 62t129.5 176q0 95 -79.5 158t-211.5 63q-174 0 -298 -125t-151 -313z" />
<glyph unicode="f" horiz-adv-x="710" d="M74 -469l192 1378h-129q-8 0 -11.5 3.5t-2.5 9.5l2 12q2 12 16 12h131l19 135q50 373 327 373q145 0 228 -96q5 -6 5 -12t-7 -13l-4 -4q-12 -11 -23 0q-90 90 -199 90q-244 0 -290 -338l-19 -135h383q7 0 11.5 -3.5t3.5 -10.5l-2 -10q-3 -13 -17 -13h-385l-190 -1378 q-4 -18 -17 -18h-10q-6 0 -9.5 5.5t-2.5 12.5z" />
<glyph unicode="g" horiz-adv-x="1067" d="M94 -291q-5 6 -5 11q0 7 7 12l10 8q8 5 15 -2q126 -150 280 -150q145 0 242 105.5t125 318.5l12 82q-132 -117 -299 -117q-174 0 -277.5 120.5t-103.5 303.5q0 157 66 287t178.5 204.5t245.5 74.5q102 0 176 -39t117 -88l14 90q3 16 12 16h11q11 0 11 -11q0 -2 -1 -5 l-125 -924q-32 -240 -140 -347.5t-266 -107.5q-60 0 -115 19t-94 48.5t-60.5 50.5t-35.5 40zM137 401q0 -165 94 -276t250 -111q61 0 118.5 18t95.5 44t60 46t31 32l86 626q-4 8 -14 22t-34.5 37.5t-55 42.5t-78 33.5t-100.5 14.5q-123 0 -227 -69.5t-165 -191t-61 -268.5z " />
<glyph unicode="h" horiz-adv-x="1034" d="M102 16l201 1401q3 17 16 17h9q15 0 12 -17l-90 -629q162 179 338 179q277 0 277 -307q0 -60 -11 -132l-74 -512q-3 -16 -14 -16h-8q-18 0 -15 16l74 512q10 70 10 127q0 111 -37 177q-56 98 -202 98q-187 0 -340 -198q-3 -4 -4 -5l-103 -711q-3 -16 -16 -16h-8 q-18 0 -15 16z" />
<glyph unicode="i" horiz-adv-x="405" d="M102 16l129 914q3 16 17 16h10q15 0 12 -16l-129 -914q-3 -16 -14 -16h-10q-18 0 -15 16zM252 1282q0 22 16.5 38.5t38.5 16.5q18 0 28.5 -12.5t10.5 -30.5q0 -22 -15 -38.5t-38 -16.5q-19 0 -30 12.5t-11 30.5z" />
<glyph unicode="j" horiz-adv-x="403" d="M-221 -489q-2 12 16 16q129 30 196.5 106.5t90.5 233.5l149 1063q3 16 17 16h8q15 0 12 -16l-149 -1063q-23 -170 -99.5 -258.5t-218.5 -118.5q-3 -1 -6 -1q-12 0 -14 11zM256 1282q0 22 16.5 38.5t38.5 16.5q18 0 28.5 -12.5t10.5 -30.5q0 -22 -15 -38.5t-38 -16.5 q-19 0 -30 12.5t-11 30.5z" />
<glyph unicode="k" horiz-adv-x="854" d="M102 16l201 1401q3 17 16 17h9q7 0 12 -5t4 -12l-127 -872l588 413q10 6 18 -2l8 -12q2 -3 2 -6q0 -6 -8 -12l-573 -406l457 -497q9 -9 -2 -21l-9 -8q-6 -6 -11 -6q-6 0 -11 8l-463 512l-70 -492q-3 -16 -18 -16h-8q-18 0 -15 16z" />
<glyph unicode="l" horiz-adv-x="438" d="M119 16l200 1401q3 17 15 17h10q5 0 9 -5t3 -12l-198 -1401q-3 -16 -17 -16h-8q-17 0 -14 16z" />
<glyph unicode="m" horiz-adv-x="1562" d="M102 16l129 914q3 16 15 16h10q15 0 12 -16l-16 -129q129 166 317 166q184 0 240 -181q134 181 321 181q262 0 262 -306q0 -60 -10 -133l-71 -512q-3 -16 -17 -16h-8q-17 0 -14 16l74 512q10 72 10 131q0 107 -34 171q-53 100 -192 100q-34 0 -66 -7t-57 -17t-49.5 -26.5 t-40.5 -29.5t-34.5 -33.5t-27 -31t-21.5 -28.5t-15 -20q5 -31 5 -71q0 -59 -11 -138l-72 -512q-3 -16 -16 -16h-8q-18 0 -15 16l74 512q10 69 10 127q0 106 -34 172q-52 103 -183 103q-202 0 -327 -195l-101 -719q-3 -16 -16 -16h-8q-18 0 -15 16z" />
<glyph unicode="n" horiz-adv-x="1036" d="M102 16l131 914q3 16 15 16h10q10 0 10 -16l-16 -129q155 166 338 166q277 0 277 -307q0 -60 -11 -132l-72 -512q-3 -16 -16 -16h-10q-16 0 -13 16l74 512q10 68 10 125q0 277 -239 277q-69 0 -132.5 -23.5t-107 -60t-67.5 -62.5t-39 -49l-103 -719q-3 -16 -16 -16h-8 q-18 0 -15 16z" />
<glyph unicode="o" horiz-adv-x="1099" d="M100 403q0 115 41.5 220t110.5 180t161.5 119.5t190.5 44.5q161 0 263 -122t102 -300q0 -115 -41.5 -221t-109.5 -181.5t-160.5 -120.5t-190.5 -45q-163 0 -265 122t-102 304zM137 403q0 -165 93.5 -277t236.5 -112q122 0 229.5 72t171.5 194.5t64 264.5 q0 164 -91.5 274.5t-236.5 110.5q-91 0 -177 -42.5t-149.5 -113t-102 -168.5t-38.5 -203z" />
<glyph unicode="p" horiz-adv-x="1062" d="M35 -471l196 1403q3 14 15 14h10q13 0 10 -14l-10 -88q52 48 135.5 85.5t188.5 37.5q159 0 255.5 -117.5t96.5 -296.5q0 -160 -67 -292t-184.5 -208t-258.5 -76q-171 0 -270 119l-80 -567q-3 -16 -15 -16h-10q-5 0 -9 4.5t-3 11.5zM160 152q4 -8 13 -21.5t31 -34.5 t50 -38.5t72.5 -30.5t95.5 -13q131 0 239.5 71.5t171 195.5t62.5 272q0 164 -87.5 270.5t-227.5 106.5q-68 0 -131 -18.5t-104 -45.5t-64.5 -47t-32.5 -33z" />
<glyph unicode="q" horiz-adv-x="1064" d="M100 401q0 157 66 287t178.5 204.5t245.5 74.5q102 0 174.5 -38.5t116.5 -88.5l16 90q3 16 12 16h11q11 0 11 -11q0 -2 -1 -5l-195 -1399q-4 -18 -14 -18h-8q-19 0 -15 18l80 563q-132 -117 -297 -117q-174 0 -277.5 120.5t-103.5 303.5zM137 401q0 -167 94 -277 t250 -110q61 0 118 17.5t94.5 43.5t59.5 45.5t31 31.5l88 632q-4 8 -14 21.5t-34.5 36.5t-55 41.5t-78 32.5t-100.5 14q-123 0 -227 -69.5t-165 -191t-61 -268.5z" />
<glyph unicode="r" horiz-adv-x="710" d="M102 16l129 914q3 16 15 16h12q11 0 8 -16l-14 -125q46 62 125 112t174 50q83 0 149 -39q7 -5 7 -11q0 -5 -5 -12l-4 -6q-6 -12 -20 -4q-54 35 -127 35q-49 0 -97 -18t-81 -41.5t-63 -53.5t-44 -48t-22 -32l-105 -721q-3 -16 -14 -16h-10q-16 0 -13 16z" />
<glyph unicode="s" horiz-adv-x="823" d="M66 82q-6 6 -6 11t6 11l8 9q11 11 20 2q96 -101 244 -101q124 0 212.5 67.5t88.5 168.5q0 27 -8 50.5t-18 41t-33 35t-39 28t-50.5 25.5t-53 22.5t-60.5 22.5q-125 44 -182.5 100.5t-57.5 145.5q0 41 20.5 83.5t58 79t99 60t136.5 23.5q145 0 237 -72q6 -5 6 -11 q0 -5 -4 -10l-6 -8q-5 -7 -7.5 -8t-12.5 4q-93 68 -213 68q-129 0 -203 -66t-74 -143q0 -79 52 -124t169 -89q37 -14 49.5 -19t44.5 -18.5t45 -21t38 -22t36 -26t27.5 -29.5t23 -35t12 -39.5t5.5 -47.5q0 -117 -100.5 -195t-237.5 -78q-71 0 -130 19.5t-86 38.5t-56 47z" />
<glyph unicode="t" horiz-adv-x="659" d="M141 926l2 4q3 16 15 16h92l35 256q4 15 12 15h10q6 0 9.5 -4.5t2.5 -10.5l-32 -256h344q17 0 14 -16l-2 -4q-4 -17 -18 -17h-344l-93 -655q-6 -46 -8 -76q-1 -11 -1 -23q1 -20 3 -42q4 -34 16.5 -53.5t38.5 -32.5t66 -13q65 0 133.5 26.5t106.5 51.5q12 7 20 -4l6 -12 q6 -9 -6 -17q-41 -25 -117.5 -53.5t-142.5 -28.5q-77 0 -116 36.5t-42 98.5q-1 14 -1 30q0 51 8 112l92 655h-94q-5 0 -7.5 5.5t-1.5 11.5z" />
<glyph unicode="u" horiz-adv-x="1015" d="M145 412l74 520q3 14 17 14h8q15 0 12 -16l-72 -518q-10 -68 -10 -125q0 -273 240 -273q56 0 108.5 18.5t87 42t65 55t42.5 48t20 29.5l103 723q3 16 16 16h10q16 0 13 -16l-129 -914q-3 -16 -17 -16h-10q-13 0 -10 16l16 125q-27 -31 -52.5 -54.5t-65 -51t-90 -43 t-107.5 -15.5q-168 0 -234 109q-44 74 -45 198q0 58 10 128z" />
<glyph unicode="v" horiz-adv-x="903" d="M111 936q-1 4 -1 6q0 8 7 10l14 6h4q10 0 12 -10l224 -911l485 913q5 10 12 10q3 0 6 -2l11 -4q8 -3 8 -9q0 -4 -2 -9l-510 -961q-6 -11 -15.5 -11t-13.5 11z" />
<glyph unicode="w" horiz-adv-x="1304" d="M133 938q-1 4 -1 8q0 10 9 12l11 3q13 2 16 -11l137 -897l383 920q4 14 16 15h1q11 0 16 -17l125 -920l389 901q6 11 14 9l15 -7q7 -2 7 -7q0 -4 -3 -9l-414 -963q-8 -11 -19 -11l-1 -1q-10 0 -13 12l-125 926l-385 -926q-6 -11 -17 -11l-1 -1q-10 0 -12 12z" />
<glyph unicode="x" horiz-adv-x="860" d="M2 4q-4 4 -4 9t4 10l391 471l-252 434q-7 13 4 20l11 6q12 7 18 -6l246 -426l371 434q4 6 8 6t8 -4l10 -10q4 -4 4 -9q0 -3 -2 -7l-379 -443l262 -466q10 -14 -4 -21l-12 -6q-9 -5 -16 4l-256 465l-383 -469q-5 -6 -10 -6q-4 0 -7 4z" />
<glyph unicode="y" horiz-adv-x="901" d="M90 -471l264 491l-243 916q-3 13 6 16l12 4q12 3 16 -8l234 -887l475 891q6 8 12 8q3 0 6 -2l11 -4q8 -4 8 -11q0 -3 -2 -7l-768 -1425q-5 -9 -12 -9q-4 0 -7 2l-8 4q-7 4 -7 11q0 5 3 10z" />
<glyph unicode="z" horiz-adv-x="806" d="M-11 9q-1 2 -1 5q0 7 6 13l719 882h-525q-7 0 -11.5 4.5t-2.5 10.5l2 10q2 12 17 12h569q11 0 14 -8q1 -3 1 -6q0 -6 -5 -12l-721 -883h559q6 0 10 -4t3 -10l-2 -9q-3 -14 -17 -14h-602q-10 0 -13 9z" />
<glyph unicode="{" horiz-adv-x="671" d="M61 473l2 8q4 15 15 15q46 0 105 50.5t71 135.5l41 297q19 139 57 233.5t95.5 146.5t125 73.5t158.5 21.5q15 0 12 -14l-2 -8q-4 -15 -16 -15q-62 0 -112 -12t-97 -42t-81.5 -78.5t-61.5 -125.5t-41 -180l-41 -297q-10 -72 -54 -124.5t-98 -80.5q46 -27 75 -79.5 t19 -125.5l-43 -303q-17 -104 -9.5 -180t27 -126.5t59 -80.5t86 -42.5t108.5 -12.5q15 0 12 -14l-2 -9q-3 -14 -16 -14q-369 0 -301 479l43 303q12 84 -31.5 135.5t-91.5 51.5q-16 0 -13 14z" />
<glyph unicode="|" horiz-adv-x="403" d="M37 -473l282 2013q3 14 17 14h8q5 0 8 -4t2 -10l-282 -2013q-4 -14 -15 -14h-8q-15 0 -12 14z" />
<glyph unicode="}" horiz-adv-x="671" d="M-102 -496l2 9q4 14 16 14q77 0 137 20.5t112.5 69t88 136.5t53.5 216l43 303q10 72 54 124.5t98 80.5q-46 27 -75 79.5t-19 125.5l41 297q17 104 9.5 180t-27 125.5t-59 79t-86 41.5t-108.5 12q-6 0 -9.5 4.5t-2.5 10.5l2 8q4 14 16 14q56 0 101 -9.5t84.5 -32 t65.5 -58.5t43 -89t17.5 -123.5t-10.5 -162.5l-41 -297q-12 -85 32.5 -135.5t90.5 -50.5q6 0 10 -4.5t3 -10.5l-2 -8q-3 -14 -15 -14q-48 0 -106.5 -51.5t-69.5 -135.5l-43 -303q-19 -139 -57 -234t-95 -148t-124.5 -75t-157.5 -22q-6 0 -9.5 4t-2.5 10z" />
<glyph unicode="~" horiz-adv-x="1112" d="M131 520q-6 6 0 17q4 8 12.5 21.5t35.5 47.5t56.5 60t74.5 47.5t91 21.5q33 0 61 -12t50 -35.5t34 -41t29 -46.5q29 -50 61.5 -79t82.5 -29q39 0 77.5 18.5t65.5 45t49 53t33 45.5l10 18q7 9 17 6l12 -6q10 -5 4 -17q-4 -8 -12 -21.5t-35 -47.5t-56 -60t-74 -47.5 t-91 -21.5q-35 0 -63 10.5t-49.5 33t-34 39.5t-29.5 46q-20 33 -34 52.5t-44 39.5t-64 20q-39 0 -78 -18.5t-66.5 -45t-49.5 -53t-33 -45.5l-10 -18q-6 -13 -17 -6z" />
<glyph unicode="&#xa1;" horiz-adv-x="411" d="M39 -473l123 858q0 6 4.5 10t9.5 4h8q13 0 13 -14l-121 -858q0 -14 -19 -14h-6q-12 0 -12 14zM207 911q0 22 16 39t37 17q17 0 29 -13t12 -30q0 -23 -16.5 -38.5t-38.5 -15.5q-17 0 -28 12t-11 29z" />
<glyph unicode="&#xa2;" horiz-adv-x="1075" d="M121 408q0 120 42 224.5t113.5 177t168.5 114t204 41.5q22 0 74 -9l35 91q3 15 20 12l6 -2q16 -4 9 -23l-33 -86q113 -29 196 -112q8 -11 -2 -21l-10 -10q-14 -10 -22 2q-7 8 -20.5 20.5t-60 40t-98.5 41.5l-333 -876q66 -15 108 -15q52 0 105 15.5t92 38t69.5 45 t47.5 37.5l18 16q8 8 18 2l6 -8q3 -3 4.5 -9.5t-1.5 -9.5l-9 -9q-10 -10 -28 -24.5t-42 -32.5t-56 -36t-67 -32.5t-78.5 -24t-86.5 -9.5q-65 0 -117 17l-76 -199q-7 -13 -16 -10l-10 2q-15 3 -8 23l73 198q-106 46 -170.5 154t-64.5 246zM162 416q0 -127 59 -228t156 -141 l330 868q-4 0 -27 3.5t-35 3.5q-93 0 -180 -37.5t-154.5 -103t-108 -161t-40.5 -204.5z" />
<glyph unicode="&#xa3;" d="M190 20q83 163 126.5 312.5t37.5 304.5h-78q-6 0 -9.5 4t-2.5 10l2 8q4 13 15 13h73q-14 187 -14 254q0 124 35.5 225.5t95 166.5t136.5 100.5t161 35.5q65 0 121.5 -15.5t96 -40.5t64 -46.5t42.5 -44.5q6 -8 -5 -19l-8 -8q-10 -10 -16 -2q-113 139 -299 139 q-71 0 -139.5 -32t-124.5 -91t-90.5 -153.5t-34.5 -208.5q0 -69 14 -260h438q16 0 13 -13l-2 -8q-4 -14 -15 -14h-436q6 -284 -147 -600h634q6 0 10 -4t3 -10l-2 -9q-3 -14 -15 -14h-669q-7 0 -10.5 6t-0.5 14z" />
<glyph unicode="&#xa4;" horiz-adv-x="972" d="M152 334l131 127q-37 61 -37 137q0 133 86 225l-92 125q-7 12 5 22.5t21 2.5l96 -125q75 63 168 63q92 0 150 -67l135 129q10 6 16 0q13 -17 5 -25l-134 -131q39 -56 39 -135q0 -132 -84 -225l93 -123q6 -12 -7 -22.5t-22 -2.5l-94 121q-77 -65 -170 -65q-91 0 -154 69 l-129 -125q-13 -9 -21.5 2t-0.5 23zM279 602q0 -80 40 -131q51 -72 140 -72q97 0 173.5 87t76.5 192q0 86 -52 142.5t-129 56.5q-100 0 -174.5 -86.5t-74.5 -188.5z" />
<glyph unicode="&#xa5;" d="M221 1409q-9 13 4 21l13 6q9 4 14 -6l377 -695l569 695q3 5 9.5 7.5t11.5 -1.5l10 -9q10 -8 0 -18l-584 -704l-16 -111h311q5 0 8 -4t2 -10l-2 -9q-3 -12 -12 -12h-311l-31 -207h311q5 0 9.5 -3.5t3.5 -8.5l-3 -10q-3 -13 -14 -13h-311l-43 -303q0 -6 -5 -10t-10 -4h-10 q-12 0 -12 14l43 303h-309q-5 0 -8.5 4.5t-2.5 10.5l3 8q3 12 14 12h309l29 207h-309q-6 0 -9.5 3.5t-1.5 8.5l2 13q2 10 13 10h309l16 108z" />
<glyph unicode="&#xa6;" horiz-adv-x="417" d="M43 -471l104 739q0 4 5 8.5t10 4.5h8q12 0 12 -13l-104 -739q0 -6 -5 -10t-10 -4h-8q-12 0 -12 14zM221 801l103 739q4 14 16 14h8q5 0 8 -4t2 -10l-104 -739q0 -15 -14 -15h-9q-14 0 -10 15z" />
<glyph unicode="&#xa7;" horiz-adv-x="1107" d="M80 -258l12 12q11 7 17 -2q11 -15 32.5 -35t61 -49t100.5 -48t129 -19q98 0 188 43.5t147.5 123t57.5 173.5q0 121 -82.5 191.5t-240.5 115.5q-336 96 -336 332q0 158 129 278q-59 75 -59 186q0 58 14.5 114t48.5 110.5t84.5 95t129.5 65.5t177 25q51 0 100.5 -10.5 t83.5 -26t60.5 -31t39.5 -26.5l13 -10q9 -4 2 -15l-10 -14q-11 -11 -18 -6q-4 4 -12.5 11t-36.5 24.5t-58 31t-76.5 24.5t-93.5 11q-105 0 -187.5 -33.5t-130 -88t-72 -117t-24.5 -127.5q0 -119 80.5 -192t229.5 -116q82 -23 142.5 -51t109 -67t73.5 -92.5t25 -120.5 q0 -133 -142 -271q72 -75 72 -196q0 -161 -126.5 -270t-305.5 -109q-68 0 -133 20.5t-109 50t-69 51t-37 36.5q-10 10 0 18zM203 586q0 -118 81.5 -191t229.5 -114q174 -53 248 -117q129 116 129 242q0 62 -23 111t-68.5 85t-101.5 61.5t-133 47.5q-170 49 -246 125 q-116 -110 -116 -250z" />
<glyph unicode="&#xa8;" horiz-adv-x="763" d="M252 1278q0 24 15.5 38.5t35.5 14.5q37 0 37 -41q0 -23 -13 -37t-36 -14q-18 0 -28.5 10.5t-10.5 28.5zM602 1278q0 20 15 36.5t34 16.5q39 0 39 -41q0 -23 -15 -37t-36 -14q-37 0 -37 39z" />
<glyph unicode="&#xa9;" horiz-adv-x="1648" d="M168 621q0 167 64.5 322t171 266.5t249 178t293.5 66.5q160 0 291.5 -86.5t206 -233.5t74.5 -321q0 -168 -64.5 -323t-171.5 -266t-249.5 -177.5t-293.5 -66.5q-160 0 -291.5 86.5t-205.5 233.5t-74 321zM205 625q0 -167 68.5 -306t192.5 -221t277 -82q141 0 276 63.5 t236.5 169t163.5 253.5t62 307q0 166 -69 305t-193.5 221t-278.5 82q-140 0 -274.5 -63t-235.5 -168.5t-163 -253.5t-62 -307zM500 662q0 184 123 315t290 131q122 0 205 -80q9 -6 2 -16l-10 -11q-5 -8 -14 -2q-74 74 -187 74q-147 0 -260.5 -120.5t-113.5 -286.5 q0 -129 78 -219.5t196 -90.5q114 0 209 80q11 8 18 -4l4 -10q2 -8 -4 -14q-108 -89 -233 -89q-127 0 -215 100.5t-88 242.5z" />
<glyph unicode="&#xaa;" horiz-adv-x="688" d="M174 1028q12 89 83.5 145t182.5 56q79 0 144 -27l8 53q11 87 -14 124.5t-101 37.5q-45 0 -86.5 -10.5t-60.5 -21.5l-19 -11q-8 -6 -12 2l-6 13q-3 10 6 16q8 5 23 13.5t62.5 22t96.5 13.5q91 0 125.5 -49.5t20.5 -149.5l-58 -401q-3 -14 -16 -14h-6q-15 0 -12 14l8 51 q-41 -33 -97 -58.5t-112 -25.5q-78 0 -125.5 57.5t-34.5 149.5zM209 1028q-10 -80 25.5 -125t103.5 -45q61 0 121 31.5t90 66.5l29 209q-70 31 -142 31q-92 0 -155 -48t-72 -120z" />
<glyph unicode="&#xab;" horiz-adv-x="796" d="M102 479q-3 9 2 17l273 348q10 10 18 2l8 -8q9 -8 0 -17l-260 -338l166 -340q4 -11 -6 -16l-10 -4q-11 -5 -17 4zM397 479q-3 9 2 17l273 348q10 10 18 2l8 -8q8 -8 0 -17l-260 -338l166 -340q4 -11 -6 -16l-10 -4q-11 -5 -17 4z" />
<glyph unicode="&#xac;" horiz-adv-x="1146" d="M225 711l2 8q3 14 13 14h718q14 0 11 -14l-56 -404q-3 -14 -14 -14h-10q-13 0 -10 14l53 381h-696q-5 0 -8.5 4.5t-2.5 10.5z" />
<glyph unicode="&#xad;" horiz-adv-x="753" d="M131 512l2 8q4 15 14 15h447q5 0 7 -4.5t1 -10.5l-2 -8q-4 -14 -12 -14h-447q-5 0 -8 4t-2 10z" />
<glyph unicode="&#xae;" horiz-adv-x="1646" d="M168 621q0 167 64.5 322t170.5 266.5t248 178t293 66.5q160 0 291.5 -86.5t206 -233.5t74.5 -321q0 -168 -64.5 -323t-171.5 -266t-249.5 -177.5t-293.5 -66.5q-159 0 -290 86.5t-205 233.5t-74 321zM205 625q0 -167 68.5 -306t192.5 -221t277 -82q140 0 275 63.5 t236.5 169t164 253.5t62.5 307q0 124 -41 236t-112 193.5t-172 130t-216 48.5q-113 0 -222.5 -40t-201 -113.5t-162 -170.5t-110 -218.5t-39.5 -249.5zM549 354l104 736q0 6 4 10t9 4h276q88 0 148.5 -52t60.5 -145q0 -118 -68.5 -187.5t-167.5 -82.5l105 -277q3 -10 -4 -14 l-15 -6q-8 -5 -12 6l-108 289h-258l-39 -281q-4 -14 -17 -14h-8q-5 0 -8 4t-2 10zM627 668h254q90 0 162.5 61t72.5 172q0 82 -52 125t-128 43h-252z" />
<glyph unicode="&#xaf;" horiz-adv-x="763" d="M76 1257l2 9q4 14 16 14h529q15 0 12 -14l-2 -9q-3 -14 -15 -14h-530q-16 0 -12 14z" />
<glyph unicode="&#xb0;" horiz-adv-x="751" d="M190 1118q0 135 91 235.5t213 100.5q94 0 158.5 -71t64.5 -175q0 -134 -93 -234t-210 -100q-94 0 -159 70t-65 174zM227 1122q0 -92 53 -151.5t138 -59.5q102 0 181 87t79 206q0 92 -52.5 152.5t-136.5 60.5q-106 0 -184 -88t-78 -207z" />
<glyph unicode="&#xb1;" d="M199 188v9q3 14 14 14h717q6 0 9.5 -4t2.5 -10v-9q-4 -14 -16 -14h-717q-5 0 -8 4t-2 10zM279 795l2 8q3 14 14 14h340l53 379q4 14 14 14h13q5 0 8 -4t2 -10l-53 -379h340q5 0 9 -4t3 -10l-2 -8q-4 -15 -14 -15h-340l-45 -319q-4 -15 -15 -15h-12q-5 0 -8 4.5t-2 10.5 l45 319h-340q-6 0 -9.5 4.5t-2.5 10.5z" />
<glyph unicode="&#xb2;" horiz-adv-x="546" d="M139.5 1042.5q-2.5 10.5 5.5 16.5l273 227q131 105 131 207q0 54 -36.5 91.5t-100.5 37.5q-27 0 -52.5 -8t-41.5 -19t-28.5 -22t-17.5 -19l-6 -8q-6 -12 -16 -6l-10 8q-8 8 0 19q2 4 6.5 10t20.5 22t35 28t50.5 22t65.5 10q76 0 121 -47t45 -117t-37 -123.5t-107 -111.5 l-231 -191h301q5 0 8 -4t2 -10l-2 -8q-4 -15 -14 -15h-352q-10 0 -12.5 10.5z" />
<glyph unicode="&#xb3;" horiz-adv-x="585" d="M158 1098q-6 10 4 20l6 6q9 9 18 0q1 -1 6.5 -7.5t8.5 -9.5l10.5 -10.5t14 -11.5t16.5 -10.5t21 -10.5t24 -7.5t29 -5.5t34 -2q42 0 85 17t75.5 54t32.5 86q0 50 -35 83.5t-98 33.5h-121q-5 0 -8 4t-2 10l2 9q3 14 12 14h121q61 0 108 45t47 111q0 50 -35 78t-96 28 q-48 0 -91 -18.5t-62 -37.5l-19 -18q-2 -3 -6.5 -4t-7.5 2l-6 6q-10 10 0 21q3 3 8 9t24 21t40 26t55 20.5t71 9.5q72 0 117 -37t45 -102q0 -55 -32 -105.5t-85 -71.5q42 -19 67.5 -55t25.5 -80q0 -86 -72.5 -139.5t-167.5 -56.5q-109 0 -184 86z" />
<glyph unicode="&#xb4;" horiz-adv-x="557" d="M172 1163q-4 9 8 15l361 186q10 3 16 -6l6 -10q6 -12 -8 -19l-360 -184q-12 -5 -17 6z" />
<glyph unicode="&#xb5;" horiz-adv-x="1038" d="M63 -471l199 1403q3 14 17 14h8q15 0 12 -16l-72 -518q-28 -202 28.5 -300t201.5 -98q56 0 108.5 18.5t87 42t65 55t42.5 48t20 29.5l103 723q3 16 16 16h10q16 0 13 -16l-129 -914q-3 -16 -17 -16h-10q-13 0 -10 16l16 125q-27 -31 -52.5 -54.5t-65 -51t-90 -43 t-107.5 -15.5q-220 0 -267 185l-88 -633q-3 -16 -16 -16h-8q-18 0 -15 16z" />
<glyph unicode="&#xb6;" horiz-adv-x="1327" d="M137 940q0 133 55.5 246t155.5 180.5t223 67.5h764q13 0 13 -15l-2 -8q0 -6 -5 -10t-10 -4h-184l-260 -1870q-3 -14 -17 -14q-10 0 -15.5 3t-4.5 11l260 1870h-352l-260 -1870q-4 -14 -17 -14q-20 0 -20 14l262 1870h-158q-157 0 -273 -135t-116 -320q0 -148 84 -248 t215 -100q11 0 4 -21q-3 -12 -14 -12q-140 0 -234 110t-94 269z" />
<glyph unicode="&#xb7;" horiz-adv-x="409" d="M152 530q0 23 16 38.5t37 15.5q18 0 28.5 -11.5t10.5 -29.5q0 -22 -15.5 -39t-38.5 -17q-17 0 -27.5 12.5t-10.5 30.5z" />
<glyph unicode="&#xb8;" horiz-adv-x="505" d="M68 -412q-10 10 2 21l8 8q10 10 18 -2q46 -59 125 -59q67 0 117.5 42.5t50.5 112.5q0 53 -33 80t-88 27q-51 0 -100 -19q-8 -4 -13.5 6.5t-0.5 16.5l137 184h45l-125 -162q33 11 61 11q64 0 110 -36t46 -106q0 -84 -58 -139t-147 -55q-101 0 -155 69z" />
<glyph unicode="&#xb9;" horiz-adv-x="327" d="M188 1524q-4 8 7 14l149 109q7 6 13.5 1t4.5 -14l-81 -587q0 -6 -5.5 -10.5t-11.5 -4.5h-6q-12 0 -12 15l78 544l-111 -80q-8 -6 -16 2z" />
<glyph unicode="&#xba;" horiz-adv-x="702" d="M197 1047q0 185 77 296t197 111q87 0 136.5 -65.5t49.5 -180.5q0 -180 -79.5 -290.5t-198.5 -110.5q-86 0 -134 63.5t-48 176.5zM231 1049q0 -98 40 -151.5t114 -53.5q101 0 168.5 100.5t67.5 265.5q0 100 -40.5 154.5t-115.5 54.5q-101 0 -167.5 -101.5t-66.5 -268.5z " />
<glyph unicode="&#xbb;" horiz-adv-x="796" d="M70 150l262 342l-166 335q-7 11 6 17l10 4q12 4 17 -4l174 -348q3 -9 -2 -17l-273 -352q-10 -10 -18 -2l-8 8q-8 8 -2 17zM365 147l262 345l-166 335q-7 11 6 17l10 4q12 4 17 -4l174 -348q3 -9 -2 -17l-273 -352q-11 -11 -18 -4l-8 8q-8 8 -2 16z" />
<glyph unicode="&#xbc;" horiz-adv-x="1206" d="M72 27l966 1405q6 9 17 2l10 -9q7 -7 0 -16l-965 -1405q-3 -4 -9 -4.5t-9 2.5l-8 6q-10 7 -2 19zM236 1319q-4 8 6 14l149 109q7 6 14 1.5t5 -13.5l-82 -588q0 -6 -5.5 -10.5t-11.5 -4.5h-6q-12 0 -12 15l78 544l-111 -79q-8 -6 -16 2zM531.5 146.5q-2.5 7.5 3.5 15.5 l438 456q9 6 16 3t6 -13l-61 -434h92q5 0 8 -4t2 -10l-2 -10q-4 -11 -12 -11h-92l-19 -125q-3 -14 -14 -14h-8q-13 0 -10 14l18 125h-354q-9 0 -11.5 7.5zM592 174h309l53 375z" />
<glyph unicode="&#xbd;" horiz-adv-x="1181" d="M72 27l966 1405q6 9 17 2l10 -9q7 -7 0 -16l-965 -1405q-3 -4 -9 -4.5t-9 2.5l-8 6q-10 7 -2 19zM236 1319q-4 8 6 14l149 109q7 6 14 1.5t5 -13.5l-82 -588q0 -6 -5.5 -10.5t-11.5 -4.5h-6q-12 0 -12 15l78 544l-111 -79q-8 -6 -16 2zM586 10.5q-2 10.5 6 16.5l272 227 q131 105 131 207q0 54 -36.5 91.5t-100.5 37.5q-44 0 -80 -19t-50 -38l-15 -19q-7 -13 -17 -6l-10 8q-8 8 0 19q2 4 6.5 10t20.5 22t35 28t50.5 22t65.5 10q76 0 121 -47t45 -117t-36.5 -124.5t-106.5 -111.5l-232 -190h301q5 0 8.5 -4t2.5 -10l-2 -9q-3 -14 -15 -14h-352 q-10 0 -12 10.5z" />
<glyph unicode="&#xbe;" horiz-adv-x="1312" d="M176 893q-6 10 4 20l6 7q10 10 19 0l7 -8q7 -8 10 -11.5t13 -12t17.5 -13.5t21 -11.5t26.5 -10t31 -6.5t38 -3q42 0 84.5 17t75 54t32.5 86q0 50 -35 83.5t-98 33.5h-121q-5 0 -8 4.5t-2 10.5l2 8q3 14 12 14h121q61 0 108.5 45.5t47.5 110.5q0 50 -35 78t-96 28 q-48 0 -91 -18.5t-62 -36.5l-19 -19q-2 -3 -7 -4t-8 2l-6 7q-10 10 0 20q3 3 8 9t24 21t40.5 26t55.5 20.5t71 9.5q72 0 117 -37t45 -102q0 -55 -32 -105t-85 -71q42 -19 67 -55t25 -80q0 -86 -72.5 -140t-167.5 -57q-109 0 -184 86zM178 27l967 1405q6 9 16 2l10 -9 q7 -7 0 -16l-964 -1405q-3 -4 -9.5 -4.5t-9.5 2.5l-8 6q-10 7 -2 19zM637.5 146.5q-2.5 7.5 3.5 15.5l438 456q9 6 16.5 3t6.5 -13l-62 -434h93q5 0 8 -4t2 -10l-2 -10q-4 -11 -13 -11h-92l-18 -125q-4 -14 -14 -14h-9q-13 0 -10 14l19 125h-355q-9 0 -11.5 7.5zM698 174 h310l53 375z" />
<glyph unicode="&#xbf;" horiz-adv-x="825" d="M-35 -244q0 60 22.5 116.5t51.5 94.5t71.5 75t66 53t50.5 32q40 23 57.5 34.5t41.5 32t34.5 42.5t14.5 51l16 119q3 14 17 14h10q5 0 8 -4t2 -10l-18 -123q-3 -28 -15.5 -53t-24.5 -41t-39 -36t-40.5 -28.5t-48.5 -28.5q-242 -144 -242 -338q0 -94 70.5 -161.5 t183.5 -67.5q60 0 117 17.5t95 42t67 49t43 42.5l14 17q10 13 22 6l9 -6q11 -7 2 -19q-5 -7 -15.5 -19.5t-46 -44.5t-75 -56t-102.5 -44t-130 -20q-132 0 -210.5 73.5t-78.5 188.5zM428 911q0 22 16 39t37 17q17 0 28 -12.5t11 -30.5q0 -23 -15.5 -38.5t-37.5 -15.5 q-17 0 -28 12t-11 29z" />
<glyph unicode="&#xc0;" horiz-adv-x="1202" d="M-51 14l772 1454q3 9 12 9h2q7 0 10 -9l353 -1452q3 -10 -8 -14l-11 -4q-11 -4 -14 6l-102 426h-756l-225 -428q-4 -8 -13 -6l-16 6q-9 3 -4 12zM227 465h725l-225 944h-2zM608 1798l4 6q6 10 19 6l307 -186q9 -6 4 -14l-4 -8q-8 -12 -18 -7l-310 185q-10 7 -2 18z" />
<glyph unicode="&#xc1;" horiz-adv-x="1202" d="M-51 14l772 1454q3 9 12 9h2q7 0 10 -9l353 -1452q3 -10 -8 -14l-11 -4q-11 -4 -14 6l-102 426h-756l-225 -428q-4 -8 -13 -6l-16 6q-9 3 -4 12zM227 465h725l-225 944h-2zM571 1610q-4 8 9 14l360 186q10 3 16 -6l7 -10q5 -11 -9 -18l-360 -185q-11 -4 -16 6z" />
<glyph unicode="&#xc2;" horiz-adv-x="1202" d="M-51 14l772 1454q3 9 12 9h2q7 0 10 -9l353 -1452q3 -10 -8 -14l-11 -4q-11 -4 -14 6l-102 426h-756l-225 -428q-4 -8 -13 -6l-16 6q-9 3 -4 12zM227 465h725l-225 944h-2zM496.5 1587q0.5 1 13.5 12l260 209q10 6 16 0l207 -217q9 -9 2 -16l-8 -8q-7 -7 -14 -2l-197 207 l-258 -209q-7 -4 -14 2l-6 10q-2 11 -1.5 12z" />
<glyph unicode="&#xc3;" horiz-adv-x="1202" d="M-51 14l772 1454q3 9 12 9h2q7 0 10 -9l353 -1452q3 -10 -8 -14l-11 -4q-11 -4 -14 6l-102 426h-756l-225 -428q-4 -8 -13 -6l-16 6q-9 3 -4 12zM227 465h725l-225 944h-2zM492 1665q9 23 21 44.5t35 54.5t56.5 53t71.5 20q40 0 64 -23t33.5 -55.5t18 -64.5t27 -55 t49.5 -23q87 0 144 147q6 16 14 13l14 -4q16 -4 7 -19q-74 -172 -183 -172q-39 0 -63 23t-34.5 55.5t-19.5 64.5t-27 55t-48 23q-28 0 -54.5 -18t-45 -45.5t-29 -48t-17.5 -37.5q-6 -15 -14 -11l-14 5q-12 3 -6 18z" />
<glyph unicode="&#xc4;" horiz-adv-x="1202" d="M-51 14l772 1454q3 9 12 9h2q7 0 10 -9l353 -1452q3 -10 -8 -14l-11 -4q-11 -4 -14 6l-102 426h-756l-225 -428q-4 -8 -13 -6l-16 6q-9 3 -4 12zM227 465h725l-225 944h-2zM532 1694q0 24 16 38.5t36 14.5q39 0 39 -41q0 -22 -15.5 -36.5t-36.5 -14.5q-18 0 -28.5 10.5 t-10.5 28.5zM915 1694q0 24 15.5 38.5t36.5 14.5q37 0 37 -41q0 -22 -15 -36.5t-35 -14.5q-18 0 -28.5 10.5t-10.5 28.5z" />
<glyph unicode="&#xc5;" horiz-adv-x="1202" d="M-51 14l772 1454q3 9 12 9h2q7 0 10 -9l353 -1452q3 -10 -8 -14l-11 -4q-11 -4 -14 6l-102 426h-756l-225 -428q-4 -8 -13 -6l-16 6q-9 3 -4 12zM227 465h725l-225 944h-2zM582 1718q0 100 67.5 172t157.5 72q71 0 117.5 -53t46.5 -131q0 -100 -67 -171t-156 -71 q-73 0 -119.5 52.5t-46.5 129.5zM618 1726q0 -68 34.5 -111.5t99.5 -43.5q72 0 128 59.5t56 141.5q0 66 -36 110.5t-97 44.5q-73 0 -129 -60t-56 -141z" />
<glyph unicode="&#xc6;" horiz-adv-x="1720" d="M-78 20l1022 1407q4 7 14 7h746q6 0 9.5 -4.5t2.5 -10.5l-2 -8q-4 -14 -14 -14h-727l-90 -633h639q12 0 12 -12q0 -25 -18 -25h-637l-99 -690h727q6 0 10 -4t3 -10l-2 -9q-4 -14 -15 -14h-747q-6 0 -10 4t-3 10l58 416h-539l-311 -430q-6 -9 -17 -2l-10 6q-10 6 -2 16z M287 465h520l125 889z" />
<glyph unicode="&#xc7;" horiz-adv-x="1366" d="M141 616q0 169 65.5 325.5t172.5 268t249 178t290 66.5q137 0 237 -48t188 -142q9 -8 0 -17l-10 -10q-8 -8 -16 0q-80 90 -176 136t-223 46q-142 0 -277.5 -64.5t-237 -171.5t-163.5 -256.5t-62 -310.5q0 -166 70 -303.5t193.5 -217t273.5 -79.5q241 0 456 191q7 7 15 0 l10 -12q6 -7 -2 -15q-208 -190 -465 -200l-104 -136q33 11 61 11q64 0 110 -36t46 -106q0 -84 -58 -139t-147 -55q-102 0 -156 69q-9 10 2 21l9 8q10 10 18 -2q46 -59 125 -59q67 0 117.5 42.5t50.5 112.5q0 53 -33 80t-88 27q-51 0 -100 -19q-9 -4 -14.5 6.5t-0.5 16.5 l117 160q-159 7 -283.5 93t-192 228t-67.5 313z" />
<glyph unicode="&#xc8;" horiz-adv-x="1120" d="M141 14l199 1405q0 6 4.5 10.5t9.5 4.5h750q6 0 9.5 -4.5t2.5 -10.5l-2 -8q-4 -14 -14 -14h-727l-88 -633h637q6 0 9.5 -4t2.5 -10l-2 -9q-4 -14 -14 -14h-639l-97 -690h725q10 0 13.5 -3.5t1.5 -10.5l-2 -9q-4 -14 -17 -14h-749q-13 0 -13 14zM600 1798l4 6q6 10 19 6 l307 -186q9 -6 4 -14l-4 -8q-8 -12 -19 -7l-309 185q-10 7 -2 18z" />
<glyph unicode="&#xc9;" horiz-adv-x="1120" d="M141 14l199 1405q0 6 4.5 10.5t9.5 4.5h750q6 0 9.5 -4.5t2.5 -10.5l-2 -8q-4 -14 -14 -14h-727l-88 -633h637q6 0 9.5 -4t2.5 -10l-2 -9q-4 -14 -14 -14h-639l-97 -690h725q10 0 13.5 -3.5t1.5 -10.5l-2 -9q-4 -14 -17 -14h-749q-13 0 -13 14zM565 1610q-4 8 8 14 l361 186q10 3 16 -6l6 -10q6 -11 -8 -18l-360 -185q-12 -5 -17 6z" />
<glyph unicode="&#xca;" horiz-adv-x="1120" d="M141 14l199 1405q0 6 4.5 10.5t9.5 4.5h750q6 0 9.5 -4.5t2.5 -10.5l-2 -8q-4 -14 -14 -14h-727l-88 -633h637q6 0 9.5 -4t2.5 -10l-2 -9q-4 -14 -14 -14h-639l-97 -690h725q10 0 13.5 -3.5t1.5 -10.5l-2 -9q-4 -14 -17 -14h-749q-13 0 -13 14zM465.5 1587q0.5 1 13.5 12 l260 209q10 7 17 0l207 -217q9 -9 2 -16l-9 -8q-7 -7 -14 -2l-197 207l-258 -209q-8 -4 -14 2l-6 10q-2 11 -1.5 12z" />
<glyph unicode="&#xcb;" horiz-adv-x="1120" d="M141 14l199 1405q0 6 4.5 10.5t9.5 4.5h750q6 0 9.5 -4.5t2.5 -10.5l-2 -8q-4 -14 -14 -14h-727l-88 -633h637q6 0 9.5 -4t2.5 -10l-2 -9q-4 -14 -14 -14h-639l-97 -690h725q10 0 13.5 -3.5t1.5 -10.5l-2 -9q-4 -14 -17 -14h-749q-13 0 -13 14zM496 1694q0 24 15.5 38.5 t35.5 14.5q39 0 39 -41q0 -23 -15 -37t-36 -14q-18 0 -28.5 10.5t-10.5 28.5zM879 1694q0 24 15 38.5t36 14.5q37 0 37 -41q0 -22 -14.5 -36.5t-34.5 -14.5q-18 0 -28.5 10.5t-10.5 28.5z" />
<glyph unicode="&#xcc;" horiz-adv-x="479" d="M141 14l197 1405q4 15 16 15h8q6 0 10 -4.5t3 -10.5l-197 -1405q-4 -14 -16 -14h-8q-6 0 -10 4t-3 10zM233 1798l5 6q6 10 18 6l307 -186q9 -6 4 -14l-4 -8q-8 -12 -18 -7l-309 185q-11 7 -3 18z" />
<glyph unicode="&#xcd;" horiz-adv-x="479" d="M141 14l197 1405q4 15 16 15h8q6 0 10 -4.5t3 -10.5l-197 -1405q-4 -14 -16 -14h-8q-6 0 -10 4t-3 10zM201 1610q-4 8 8 14l360 186q11 4 17 -6l6 -10q6 -11 -8 -18l-361 -185q-11 -4 -16 6z" />
<glyph unicode="&#xce;" horiz-adv-x="479" d="M125.5 1587q0.5 1 13.5 12l260 209q10 7 17 0l207 -217q9 -9 2 -16l-9 -8q-7 -7 -14 -2l-196 207l-259 -209q-8 -4 -14 2l-6 10q-2 11 -1.5 12zM141 14l197 1405q4 15 16 15h8q6 0 10 -4.5t3 -10.5l-197 -1405q-4 -14 -16 -14h-8q-6 0 -10 4t-3 10z" />
<glyph unicode="&#xcf;" horiz-adv-x="479" d="M141 14l197 1405q4 15 16 15h8q6 0 10 -4.5t3 -10.5l-197 -1405q-4 -14 -16 -14h-8q-6 0 -10 4t-3 10zM164 1694q0 24 15.5 38.5t35.5 14.5q39 0 39 -41q0 -23 -15 -37t-36 -14q-18 0 -28.5 10.5t-10.5 28.5zM547 1694q0 24 15 38.5t36 14.5q37 0 37 -41 q0 -22 -14.5 -36.5t-34.5 -14.5q-18 0 -28.5 10.5t-10.5 28.5z" />
<glyph unicode="&#xd0;" horiz-adv-x="1425" d="M141 14l97 682h-74q-5 0 -8 4.5t-2 10.5v8q4 14 16 14h74l96 686q0 15 14 15h406q159 0 287.5 -83.5t200 -226t71.5 -313.5q0 -163 -64 -314t-169 -259.5t-243.5 -173t-283.5 -64.5h-405q-13 0 -13 14zM182 37h381q137 0 268 61.5t230 164t159 246t60 298.5 q0 162 -66.5 296.5t-188 214t-271.5 79.5h-381l-94 -664h528q15 0 12 -14l-2 -8q0 -15 -14 -15h-529z" />
<glyph unicode="&#xd1;" horiz-adv-x="1454" d="M141 14l203 1440q2 11 12 14t15 -6l751 -1409l193 1366q4 15 16 15h8q6 0 10 -4.5t3 -10.5l-203 -1435q-2 -11 -12 -14.5t-15 5.5l-751 1409l-193 -1370q-4 -14 -16 -14h-8q-6 0 -10 4t-3 10zM606 1665q9 23 21 45t35.5 54.5t57 52.5t71.5 20q40 0 64 -23t33.5 -55.5 t18 -64.5t27 -55t49.5 -23q86 0 143 147q6 16 15 13l14 -4q15 -4 6 -19q-74 -172 -182 -172q-39 0 -63 23t-35 55.5t-20 64.5t-27 55t-48 23q-28 0 -54 -18t-44.5 -46t-29 -48t-17.5 -37q-6 -15 -14 -11l-15 5q-12 3 -6 18z" />
<glyph unicode="&#xd2;" horiz-adv-x="1597" d="M143 618q0 170 64.5 326t171.5 267t249.5 177t293.5 66q164 0 295 -86t203.5 -232t72.5 -323q0 -169 -65 -324.5t-171.5 -266t-249 -176.5t-292.5 -66q-164 0 -296 86t-204 231.5t-72 320.5zM180 621q0 -166 68.5 -304.5t192 -219.5t274.5 -81q142 0 277.5 63t237.5 169 t164 254t62 309q0 168 -68.5 306.5t-192 219t-275.5 80.5q-142 0 -277.5 -63t-237 -169t-163.5 -254.5t-62 -309.5zM799 1798l4 6q6 10 18 6l307 -186q10 -7 5 -14l-5 -8q-8 -12 -18 -7l-309 185q-10 7 -2 18z" />
<glyph unicode="&#xd3;" horiz-adv-x="1597" d="M143 618q0 170 64.5 326t171.5 267t249.5 177t293.5 66q164 0 295 -86t203.5 -232t72.5 -323q0 -169 -65 -324.5t-171.5 -266t-249 -176.5t-292.5 -66q-164 0 -296 86t-204 231.5t-72 320.5zM180 621q0 -166 68.5 -304.5t192 -219.5t274.5 -81q142 0 277.5 63t237.5 169 t164 254t62 309q0 168 -68.5 306.5t-192 219t-275.5 80.5q-142 0 -277.5 -63t-237 -169t-163.5 -254.5t-62 -309.5zM766 1610q-4 8 8 14l361 186q10 3 16 -6l6 -10q6 -11 -8 -18l-361 -185q-11 -4 -16 6z" />
<glyph unicode="&#xd4;" horiz-adv-x="1597" d="M143 618q0 170 64.5 326t171.5 267t249.5 177t293.5 66q164 0 295 -86t203.5 -232t72.5 -323q0 -169 -65 -324.5t-171.5 -266t-249 -176.5t-292.5 -66q-164 0 -296 86t-204 231.5t-72 320.5zM180 621q0 -166 68.5 -304.5t192 -219.5t274.5 -81q142 0 277.5 63t237.5 169 t164 254t62 309q0 168 -68.5 306.5t-192 219t-275.5 80.5q-142 0 -277.5 -63t-237 -169t-163.5 -254.5t-62 -309.5zM689.5 1581q-0.5 2 0.5 4.5t2 3.5t5.5 4.5t7.5 5.5l260 209q10 6 16 0l207 -217q9 -9 2 -16l-8 -8q-8 -8 -15 -2l-196 207l-258 -209q-8 -5 -15 2l-6 10 q-2 4 -2.5 6z" />
<glyph unicode="&#xd5;" horiz-adv-x="1597" d="M143 618q0 170 64.5 326t171.5 267t249.5 177t293.5 66q164 0 295 -86t203.5 -232t72.5 -323q0 -169 -65 -324.5t-171.5 -266t-249 -176.5t-292.5 -66q-164 0 -296 86t-204 231.5t-72 320.5zM180 621q0 -166 68.5 -304.5t192 -219.5t274.5 -81q142 0 277.5 63t237.5 169 t164 254t62 309q0 168 -68.5 306.5t-192 219t-275.5 80.5q-142 0 -277.5 -63t-237 -169t-163.5 -254.5t-62 -309.5zM686 1665q9 23 21 44.5t35 54.5t56.5 53t71.5 20q40 0 64 -23t34 -55.5t18.5 -64.5t27 -55t49.5 -23q86 0 143 147q6 16 15 13l14 -4q15 -4 6 -19 q-74 -172 -182 -172q-39 0 -63 23t-35 55.5t-20 64.5t-27 55t-48 23q-28 0 -54 -18t-44.5 -46t-29 -48t-17.5 -37q-6 -15 -14 -11l-15 5q-12 3 -6 18z" />
<glyph unicode="&#xd6;" horiz-adv-x="1597" d="M143 618q0 170 64.5 326t171.5 267t249.5 177t293.5 66q164 0 295 -86t203.5 -232t72.5 -323q0 -169 -65 -324.5t-171.5 -266t-249 -176.5t-292.5 -66q-164 0 -296 86t-204 231.5t-72 320.5zM180 621q0 -166 68.5 -304.5t192 -219.5t274.5 -81q142 0 277.5 63t237.5 169 t164 254t62 309q0 168 -68.5 306.5t-192 219t-275.5 80.5q-142 0 -277.5 -63t-237 -169t-163.5 -254.5t-62 -309.5zM727 1694q0 24 15.5 38.5t35.5 14.5q39 0 39 -41q0 -23 -15 -37t-36 -14q-18 0 -28.5 10.5t-10.5 28.5zM1110 1694q0 24 15 38.5t36 14.5q37 0 37 -41 q0 -22 -14.5 -36.5t-34.5 -14.5q-18 0 -28.5 10.5t-10.5 28.5z" />
<glyph unicode="&#xd7;" d="M319.5 433q0.5 6 4.5 9l282 273l-205 268q-9 14 2 21l7 4q12 8 18 0l203 -269l280 269q11 11 19 0l6 -9q8 -12 -2 -20l-279 -268l201 -269q8 -8 0 -16l-8 -8q-9 -9 -17 2l-202 266l-285 -270q-10 -10 -16 0l-6 8q-3 3 -2.5 9z" />
<glyph unicode="&#xd8;" horiz-adv-x="1599" d="M106 70q-8 8 5 20l141 131q-51 78 -80 183.5t-29 211.5q0 170 63.5 326t169 267.5t247 178t292.5 66.5q136 0 251.5 -56.5t191.5 -156.5l145 133q13 13 19 0l4 -6q6 -12 -2 -20l-146 -134q53 -80 84 -188t31 -215q0 -169 -64 -323.5t-169.5 -265.5t-247.5 -176.5 t-293 -65.5q-139 0 -255.5 55.5t-193.5 157.5l-141 -130q-10 -6 -16 0zM180 616q0 -100 26 -199.5t73 -170.5l1052 971q-75 95 -182 147.5t-234 52.5q-142 0 -277 -63.5t-235.5 -170t-161.5 -255.5t-61 -312zM301 219q71 -97 179 -150t239 -53q142 0 277 62.5t236 168 t162.5 253.5t61.5 309q0 103 -27.5 206t-76.5 175z" />
<glyph unicode="&#xd9;" horiz-adv-x="1366" d="M188 412q0 25 9 104l127 903q4 15 14 15h10q14 0 10 -15l-125 -903q-8 -47 -8 -102q0 -182 99.5 -290t277.5 -108q201 0 341 138.5t171 361.5l127 903q4 15 16 15h11q5 0 8 -4.5t2 -10.5l-127 -903q-35 -243 -180 -389.5t-375 -146.5q-189 0 -298.5 117.5t-109.5 314.5z M676 1798l4 6q6 10 18 6l308 -186q9 -6 4 -14l-4 -8q-8 -12 -19 -7l-309 185q-10 7 -2 18z" />
<glyph unicode="&#xda;" horiz-adv-x="1366" d="M188 412q0 25 9 104l127 903q4 15 14 15h10q14 0 10 -15l-125 -903q-8 -47 -8 -102q0 -182 99.5 -290t277.5 -108q201 0 341 138.5t171 361.5l127 903q4 15 16 15h11q5 0 8 -4.5t2 -10.5l-127 -903q-35 -243 -180 -389.5t-375 -146.5q-189 0 -298.5 117.5t-109.5 314.5z M647 1610q-4 8 8 14l361 186q10 3 16 -6l6 -10q6 -11 -8 -18l-360 -185q-12 -5 -17 6z" />
<glyph unicode="&#xdb;" horiz-adv-x="1366" d="M188 412q0 25 9 104l127 903q4 15 14 15h10q14 0 10 -15l-125 -903q-8 -47 -8 -102q0 -182 99.5 -290t277.5 -108q201 0 341 138.5t171 361.5l127 903q4 15 16 15h11q5 0 8 -4.5t2 -10.5l-127 -903q-35 -243 -180 -389.5t-375 -146.5q-189 0 -298.5 117.5t-109.5 314.5z M572.5 1581q-0.5 2 0.5 4.5t2 3.5t5.5 4.5t7.5 5.5l260 209q10 6 16 0l207 -217q9 -9 2 -16l-8 -8q-7 -7 -14 -2l-197 207l-258 -209q-8 -4 -14 2l-7 10q-2 4 -2.5 6z" />
<glyph unicode="&#xdc;" horiz-adv-x="1366" d="M188 412q0 25 9 104l127 903q4 15 14 15h10q14 0 10 -15l-125 -903q-8 -47 -8 -102q0 -182 99.5 -290t277.5 -108q201 0 341 138.5t171 361.5l127 903q4 15 16 15h11q5 0 8 -4.5t2 -10.5l-127 -903q-35 -243 -180 -389.5t-375 -146.5q-189 0 -298.5 117.5t-109.5 314.5z M608 1694q0 24 15.5 38.5t35.5 14.5q39 0 39 -41q0 -23 -15 -37t-36 -14q-18 0 -28.5 10.5t-10.5 28.5zM991 1694q0 24 15 38.5t36 14.5q37 0 37 -41q0 -22 -14.5 -36.5t-34.5 -14.5q-18 0 -28.5 10.5t-10.5 28.5z" />
<glyph unicode="&#xdd;" horiz-adv-x="1042" d="M129 1409q-8 12 4 18l12 7q9 5 17 -7l373 -690l571 693q8 12 16 6l15 -9q12 -6 0 -18l-586 -704l-96 -693q-3 -12 -15 -12h-12q-13 0 -10 14l96 688zM477 1610q-4 8 8 14l361 186q10 3 16 -6l6 -10q6 -11 -8 -18l-360 -185q-12 -5 -17 6z" />
<glyph unicode="&#xde;" horiz-adv-x="1138" d="M141 14l199 1405q0 6 4.5 10.5t9.5 4.5h11q6 0 9.5 -4.5t2.5 -10.5l-35 -235h363q156 1 259 -117t103 -285q0 -143 -66 -264.5t-179.5 -192.5t-246.5 -71h-362l-35 -240q0 -6 -5 -10t-11 -4h-8q-6 0 -10 4t-3 10zM217 289h363q114 0 218 65.5t168 179.5t64 244 q0 155 -94.5 263.5t-237.5 107.5h-360z" />
<glyph unicode="&#xdf;" horiz-adv-x="1173" d="M39 -469l192 1413q12 84 34 156.5t60 138.5t89.5 113t124.5 74.5t161 27.5q57 0 114 -19.5t106.5 -56.5t80.5 -98t31 -135q0 -62 -26.5 -120.5t-64 -101.5t-75 -81t-64 -73t-26.5 -62q0 -26 26 -61t63.5 -72t75 -78.5t63.5 -93.5t26 -103q0 -158 -104.5 -240t-274.5 -82 q-114 0 -202 52q-14 9 -7 20l7 8q8 13 22 2q64 -45 184 -45q69 0 127.5 16t107 48.5t76 88.5t27.5 130q0 49 -26 98t-63.5 88.5t-75 76.5t-63.5 75.5t-26 71.5q0 34 26.5 73t64 77t75 79t64 94.5t26.5 108.5q0 69 -28 124.5t-72.5 87.5t-95 49t-101.5 17q-96 0 -173.5 -39 t-128.5 -107t-82 -150t-44 -177l-194 -1413q0 -7 -4.5 -12.5t-10.5 -5.5h-10q-16 0 -12 18z" />
<glyph unicode="&#xe0;" horiz-adv-x="1064" d="M102 399q0 157 65.5 287.5t177.5 205.5t245 75q103 0 175.5 -37t115.5 -86l16 86q3 16 12 16h11q13 0 10 -16l-127 -914q-3 -16 -17 -16h-10q-13 0 -10 16l16 121q-43 -57 -135.5 -108.5t-195.5 -51.5q-159 0 -254 120t-95 302zM139 401q0 -165 86 -276t226 -111 q106 0 200.5 59.5t139.5 133.5l81 581q-4 8 -14 21.5t-34.5 35.5t-55 40t-78 31.5t-100.5 13.5q-188 0 -319.5 -153t-131.5 -376zM422 1350l4 6q6 10 18 6l308 -186q10 -6 4 -15l-4 -8q-8 -12 -19 -6l-309 184q-11 7 -2 19z" />
<glyph unicode="&#xe1;" horiz-adv-x="1064" d="M102 399q0 157 65.5 287.5t177.5 205.5t245 75q103 0 175.5 -37t115.5 -86l16 86q3 16 12 16h11q13 0 10 -16l-127 -914q-3 -16 -17 -16h-10q-13 0 -10 16l16 121q-43 -57 -135.5 -108.5t-195.5 -51.5q-159 0 -254 120t-95 302zM139 401q0 -165 86 -276t226 -111 q106 0 200.5 59.5t139.5 133.5l81 581q-4 8 -14 21.5t-34.5 35.5t-55 40t-78 31.5t-100.5 13.5q-188 0 -319.5 -153t-131.5 -376zM471 1163q-4 9 8 15l361 186q10 3 16 -6l6 -10q6 -12 -8 -19l-360 -184q-12 -5 -17 6z" />
<glyph unicode="&#xe2;" horiz-adv-x="1064" d="M102 399q0 157 65.5 287.5t177.5 205.5t245 75q103 0 175.5 -37t115.5 -86l16 86q3 16 12 16h11q13 0 10 -16l-127 -914q-3 -16 -17 -16h-10q-13 0 -10 16l16 121q-43 -57 -135.5 -108.5t-195.5 -51.5q-159 0 -254 120t-95 302zM139 401q0 -165 86 -276t226 -111 q106 0 200.5 59.5t139.5 133.5l81 581q-4 8 -14 21.5t-34.5 35.5t-55 40t-78 31.5t-100.5 13.5q-188 0 -319.5 -153t-131.5 -376zM385.5 1147q0.5 1 13.5 12l260 209q10 7 17 0l207 -217q9 -9 2 -16l-8 -9q-8 -8 -15 -2l-196 207l-258 -209q-8 -5 -15 2l-6 11q-2 11 -1.5 12 z" />
<glyph unicode="&#xe3;" horiz-adv-x="1064" d="M102 399q0 157 65.5 287.5t177.5 205.5t245 75q103 0 175.5 -37t115.5 -86l16 86q3 16 12 16h11q13 0 10 -16l-127 -914q-3 -16 -17 -16h-10q-13 0 -10 16l16 121q-43 -57 -135.5 -108.5t-195.5 -51.5q-159 0 -254 120t-95 302zM139 401q0 -165 86 -276t226 -111 q106 0 200.5 59.5t139.5 133.5l81 581q-4 8 -14 21.5t-34.5 35.5t-55 40t-78 31.5t-100.5 13.5q-188 0 -319.5 -153t-131.5 -376zM371 1217q9 23 21 44.5t35 54.5t56.5 53t71.5 20q40 0 64 -23t34 -55.5t18.5 -65t27 -55.5t49.5 -23q85 0 143 148q6 15 14 12l15 -4 q15 -4 6 -18q-74 -172 -183 -172q-39 0 -63 23t-34.5 55.5t-19.5 64.5t-27 55t-48 23q-28 0 -54 -18t-44.5 -46t-29 -48.5t-17.5 -37.5q-6 -15 -15 -10l-14 4q-12 3 -6 19z" />
<glyph unicode="&#xe4;" horiz-adv-x="1064" d="M102 399q0 157 65.5 287.5t177.5 205.5t245 75q103 0 175.5 -37t115.5 -86l16 86q3 16 12 16h11q13 0 10 -16l-127 -914q-3 -16 -17 -16h-10q-13 0 -10 16l16 121q-43 -57 -135.5 -108.5t-195.5 -51.5q-159 0 -254 120t-95 302zM139 401q0 -165 86 -276t226 -111 q106 0 200.5 59.5t139.5 133.5l81 581q-4 8 -14 21.5t-34.5 35.5t-55 40t-78 31.5t-100.5 13.5q-188 0 -319.5 -153t-131.5 -376zM455 1278q0 24 15.5 38.5t35.5 14.5q37 0 37 -41q0 -23 -13 -37t-36 -14q-18 0 -28.5 10.5t-10.5 28.5zM805 1278q0 20 15 36.5t34 16.5 q39 0 39 -41q0 -23 -15 -37t-36 -14q-37 0 -37 39z" />
<glyph unicode="&#xe5;" horiz-adv-x="1064" d="M102 399q0 157 65.5 287.5t177.5 205.5t245 75q103 0 175.5 -37t115.5 -86l16 86q3 16 12 16h11q13 0 10 -16l-127 -914q-3 -16 -17 -16h-10q-13 0 -10 16l16 121q-43 -57 -135.5 -108.5t-195.5 -51.5q-159 0 -254 120t-95 302zM139 401q0 -165 86 -276t226 -111 q106 0 200.5 59.5t139.5 133.5l81 581q-4 8 -14 21.5t-34.5 35.5t-55 40t-78 31.5t-100.5 13.5q-188 0 -319.5 -153t-131.5 -376zM461 1227q0 100 67.5 171.5t157.5 71.5q71 0 117.5 -53t46.5 -131q0 -100 -67 -171t-156 -71q-73 0 -119.5 52.5t-46.5 130.5zM498 1235 q0 -68 34 -112t99 -44q72 0 128 59.5t56 141.5q0 66 -36 111t-97 45q-73 0 -128.5 -60t-55.5 -141z" />
<glyph unicode="&#xe6;" horiz-adv-x="1542" d="M57 250q0 162 117.5 265t302.5 103q71 0 140 -17.5t112 -37.5q18 123 15 204.5t-50.5 122t-152.5 40.5q-56 0 -107 -10.5t-75.5 -20.5t-57.5 -28t-35 -19q-11 -6 -16 4l-6 12q-5 12 8 19q5 3 14 8.5t39.5 19.5t62.5 24.5t81 19t98 8.5q105 0 161 -36.5t70 -111.5 q65 70 158.5 109t191.5 39q147 0 237.5 -74t90.5 -184q0 -130 -135 -205.5t-356 -73.5q-107 0 -213 16l-37 -278q44 -76 120.5 -115t165.5 -39q150 0 289 105q9 6 15 -4l8 -13q4 -8 -8 -20q-45 -37 -130.5 -71t-177.5 -34q-99 0 -182 44t-125 110q-61 -59 -164.5 -106.5 t-208.5 -47.5q-123 0 -191.5 73t-68.5 200zM94 254q0 -111 55.5 -175.5t165.5 -64.5q105 0 207 49t152 103l51 356q-3 1 -34.5 13t-59 21t-72 17.5t-84.5 8.5q-165 0 -273 -92t-108 -236zM758 483q82 -16 207 -16q204 -2 329 63t125 179q0 95 -80.5 158t-212.5 63 q-98 0 -192.5 -45t-151.5 -119q1 -26 -1.5 -65.5t-5.5 -66t-9.5 -82.5t-7.5 -69z" />
<glyph unicode="&#xe7;" horiz-adv-x="1017" d="M100 408q0 161 75 290.5t195 199t257 69.5q184 0 309 -125q7 -12 -2 -21l-10 -10q-10 -9 -21 2l-11 11q-11 10 -21 18.5t-28.5 22t-40 24t-48 20.5t-59.5 15.5t-68 5.5q-95 0 -184 -39t-156.5 -106.5t-108.5 -166t-41 -210.5q0 -165 103 -279.5t247 -114.5q34 0 68.5 6.5 t63.5 17t57 24.5t49.5 28t40.5 28.5t31 25t21 18.5l9 8q9 10 17 2l10 -10q10 -10 0 -21q-8 -8 -19 -18t-47.5 -37t-73.5 -47t-93 -38t-111 -21l-121 -160q30 10 62 10q64 0 109.5 -35.5t45.5 -105.5q0 -84 -58 -139.5t-147 -55.5q-100 0 -155 70q-9 9 2 20l8 8q10 10 18 -2 q46 -59 125 -59q67 0 117.5 43t50.5 113q0 53 -33 79.5t-88 26.5q-53 0 -100 -18q-9 -4 -14 6t0 16l133 180q-155 9 -260 131.5t-105 299.5z" />
<glyph unicode="&#xe8;" horiz-adv-x="1009" d="M100 387q0 161 63.5 294t177 209.5t253.5 76.5q147 0 237.5 -74t90.5 -184q0 -130 -139 -202.5t-382 -72.5q-122 0 -260 21q-4 -46 -4 -64q0 -167 86 -272t238 -105q89 0 168 32t131 73q12 10 18 -2l6 -13q4 -8 -2 -14q-37 -37 -134 -75t-187 -38q-119 0 -202 57 t-121 147.5t-38 205.5zM145 492q158 -21 254 -21q227 0 356.5 62t129.5 176q0 95 -79.5 158t-211.5 63q-174 0 -298 -125t-151 -313zM428 1350l4 6q6 10 19 6l307 -186q10 -6 4 -15l-4 -8q-8 -12 -19 -6l-309 184q-11 7 -2 19z" />
<glyph unicode="&#xe9;" horiz-adv-x="1009" d="M100 387q0 161 63.5 294t177 209.5t253.5 76.5q147 0 237.5 -74t90.5 -184q0 -130 -139 -202.5t-382 -72.5q-122 0 -260 21q-4 -46 -4 -64q0 -167 86 -272t238 -105q89 0 168 32t131 73q12 10 18 -2l6 -13q4 -8 -2 -14q-37 -37 -134 -75t-187 -38q-119 0 -202 57 t-121 147.5t-38 205.5zM145 492q158 -21 254 -21q227 0 356.5 62t129.5 176q0 95 -79.5 158t-211.5 63q-174 0 -298 -125t-151 -313zM477 1163q-4 9 8 15l361 186q10 3 16 -6l6 -10q6 -12 -8 -19l-360 -184q-12 -5 -17 6z" />
<glyph unicode="&#xea;" horiz-adv-x="1009" d="M100 387q0 161 63.5 294t177 209.5t253.5 76.5q147 0 237.5 -74t90.5 -184q0 -130 -139 -202.5t-382 -72.5q-122 0 -260 21q-4 -46 -4 -64q0 -167 86 -272t238 -105q89 0 168 32t131 73q12 10 18 -2l6 -13q4 -8 -2 -14q-37 -37 -134 -75t-187 -38q-119 0 -202 57 t-121 147.5t-38 205.5zM145 492q158 -21 254 -21q227 0 356.5 62t129.5 176q0 95 -79.5 158t-211.5 63q-174 0 -298 -125t-151 -313zM363.5 1147q0.5 1 13.5 12l260 209q10 6 16 0l207 -217q9 -9 2 -16l-8 -9q-7 -7 -14 -2l-197 207l-258 -209q-7 -4 -14 2l-6 11 q-2 11 -1.5 12z" />
<glyph unicode="&#xeb;" horiz-adv-x="1009" d="M100 387q0 161 63.5 294t177 209.5t253.5 76.5q147 0 237.5 -74t90.5 -184q0 -130 -139 -202.5t-382 -72.5q-122 0 -260 21q-4 -46 -4 -64q0 -167 86 -272t238 -105q89 0 168 32t131 73q12 10 18 -2l6 -13q4 -8 -2 -14q-37 -37 -134 -75t-187 -38q-119 0 -202 57 t-121 147.5t-38 205.5zM145 492q158 -21 254 -21q227 0 356.5 62t129.5 176q0 95 -79.5 158t-211.5 63q-174 0 -298 -125t-151 -313zM418 1278q0 24 15.5 38.5t35.5 14.5q37 0 37 -41q0 -23 -13 -37t-36 -14q-18 0 -28.5 10.5t-10.5 28.5zM768 1278q0 20 15 36.5t34 16.5 q39 0 39 -41q0 -23 -15 -37t-36 -14q-37 0 -37 39z" />
<glyph unicode="&#xec;" horiz-adv-x="405" d="M90 1350l4 6q6 10 19 6l307 -186q10 -6 4 -15l-4 -8q-8 -12 -19 -6l-309 184q-11 7 -2 19zM102 16l129 914q3 16 17 16h10q15 0 12 -16l-129 -914q-3 -16 -14 -16h-10q-18 0 -15 16z" />
<glyph unicode="&#xed;" horiz-adv-x="405" d="M102 16l129 914q3 16 17 16h10q15 0 12 -16l-129 -914q-3 -16 -14 -16h-10q-18 0 -15 16zM123 1163q-4 9 8 15l361 186q10 3 16 -6l6 -10q6 -12 -8 -19l-361 -184q-11 -4 -16 6z" />
<glyph unicode="&#xee;" horiz-adv-x="405" d="M29.5 1147q0.5 1 13.5 12l260 209q10 6 16 0l207 -217q9 -9 2 -16l-8 -9q-7 -7 -14 -2l-197 207l-258 -209q-8 -4 -14 2l-6 11q-2 11 -1.5 12zM102 16l129 914q3 16 17 16h10q15 0 12 -16l-129 -914q-3 -16 -14 -16h-10q-18 0 -15 16z" />
<glyph unicode="&#xef;" horiz-adv-x="405" d="M80 1278q0 24 15.5 38.5t35.5 14.5q37 0 37 -41q0 -23 -13 -37t-36 -14q-18 0 -28.5 10.5t-10.5 28.5zM102 16l129 914q3 16 17 16h10q15 0 12 -16l-129 -914q-3 -16 -14 -16h-10q-18 0 -15 16zM430 1278q0 20 15 36.5t34 16.5q39 0 39 -41q0 -23 -15 -37t-36 -14 q-37 0 -37 39z" />
<glyph unicode="&#xf0;" horiz-adv-x="1136" d="M100 395q-1 98 34 194.5t97.5 173t156 124t198.5 47.5q76 0 142 -25t112 -66.5t75 -79t50 -77.5q13 344 -209 574l-279 -162q-4 -3 -10.5 -1.5t-7.5 7.5l-2 6q-7 10 8 18l266 156q-111 108 -248 168q-11 7 -4 16l6 13q5 11 19 6q147 -67 262 -182l139 81q10 7 17 -4l2 -6 q6 -15 -9 -22l-127 -74q216 -235 216 -557q0 -80 -14 -163.5t-41.5 -167.5t-73 -157.5t-103.5 -131t-138 -90.5t-173 -33q-152 0 -256.5 119t-104.5 296zM135 393q0 -161 95 -269t237 -108q129 0 234 76t169 202.5t86 287.5l5 30q-27 61 -43 87q-107 174 -289 195 q-24 3 -49 3q-126 -3 -229 -73.5t-159.5 -185t-56.5 -245.5z" />
<glyph unicode="&#xf1;" horiz-adv-x="1036" d="M102 16l131 914q3 16 15 16h10q10 0 10 -16l-16 -129q155 166 338 166q331 0 266 -439l-72 -512q-3 -16 -16 -16h-10q-16 0 -13 16l74 512q59 402 -229 402q-69 0 -132.5 -23.5t-107 -60t-67.5 -62.5t-39 -49l-103 -719q-3 -16 -16 -16h-8q-18 0 -15 16zM356 1219 q9 23 21 45t35.5 54.5t57 52.5t71.5 20q40 0 64 -23t33.5 -55.5t18 -65t27 -55.5t49.5 -23q86 0 144 148q6 15 14 12l14 -4q15 -4 6 -18q-74 -172 -182 -172q-39 0 -63 23t-34.5 55.5t-19.5 64.5t-27 55t-48 23q-28 0 -54 -18t-45 -46t-29.5 -48.5t-17.5 -37.5 q-6 -14 -14 -10l-15 4q-12 3 -6 19z" />
<glyph unicode="&#xf2;" horiz-adv-x="1099" d="M100 403q0 115 41.5 220t110.5 180t161.5 119.5t190.5 44.5q161 0 263 -122t102 -300q0 -115 -41.5 -221t-109.5 -181.5t-160.5 -120.5t-190.5 -45q-163 0 -265 122t-102 304zM137 403q0 -165 93.5 -277t236.5 -112q122 0 229.5 72t171.5 194.5t64 264.5 q0 164 -91.5 274.5t-236.5 110.5q-91 0 -177 -42.5t-149.5 -113t-102 -168.5t-38.5 -203zM438 1350l4 6q6 10 19 6l307 -186q10 -6 4 -15l-4 -8q-8 -11 -18 -6l-310 184q-11 7 -2 19z" />
<glyph unicode="&#xf3;" horiz-adv-x="1099" d="M100 403q0 115 41.5 220t110.5 180t161.5 119.5t190.5 44.5q161 0 263 -122t102 -300q0 -115 -41.5 -221t-109.5 -181.5t-160.5 -120.5t-190.5 -45q-163 0 -265 122t-102 304zM137 403q0 -165 93.5 -277t236.5 -112q122 0 229.5 72t171.5 194.5t64 264.5 q0 164 -91.5 274.5t-236.5 110.5q-91 0 -177 -42.5t-149.5 -113t-102 -168.5t-38.5 -203zM494 1163q-4 9 8 15l360 186q11 4 17 -6l6 -10q6 -12 -8 -19l-361 -184q-11 -4 -16 6z" />
<glyph unicode="&#xf4;" horiz-adv-x="1099" d="M100 403q0 115 41.5 220t110.5 180t161.5 119.5t190.5 44.5q161 0 263 -122t102 -300q0 -115 -41.5 -221t-109.5 -181.5t-160.5 -120.5t-190.5 -45q-163 0 -265 122t-102 304zM137 403q0 -165 93.5 -277t236.5 -112q122 0 229.5 72t171.5 194.5t64 264.5 q0 164 -91.5 274.5t-236.5 110.5q-91 0 -177 -42.5t-149.5 -113t-102 -168.5t-38.5 -203zM383.5 1147q0.5 1 13.5 12l260 209q10 7 17 0l207 -217q9 -9 2 -16l-9 -9q-7 -7 -14 -2l-196 207l-258 -209q-8 -5 -15 2l-6 11q-2 11 -1.5 12z" />
<glyph unicode="&#xf5;" horiz-adv-x="1099" d="M100 403q0 115 41.5 220t110.5 180t161.5 119.5t190.5 44.5q161 0 263 -122t102 -300q0 -115 -41.5 -221t-109.5 -181.5t-160.5 -120.5t-190.5 -45q-163 0 -265 122t-102 304zM137 403q0 -165 93.5 -277t236.5 -112q122 0 229.5 72t171.5 194.5t64 264.5 q0 164 -91.5 274.5t-236.5 110.5q-91 0 -177 -42.5t-149.5 -113t-102 -168.5t-38.5 -203zM371 1217q9 23 21 44.5t35 54.5t56.5 53t71.5 20q40 0 64 -23t34 -55.5t18.5 -65t27 -55.5t49.5 -23q85 0 143 148q6 15 14 12l15 -4q15 -4 6 -18q-74 -172 -183 -172q-39 0 -63 23 t-34.5 55.5t-19.5 64.5t-27 55t-48 23q-28 0 -54 -18t-44.5 -46t-29 -48.5t-17.5 -37.5q-6 -15 -15 -10l-14 4q-12 3 -6 19z" />
<glyph unicode="&#xf6;" horiz-adv-x="1099" d="M100 403q0 115 41.5 220t110.5 180t161.5 119.5t190.5 44.5q161 0 263 -122t102 -300q0 -115 -41.5 -221t-109.5 -181.5t-160.5 -120.5t-190.5 -45q-163 0 -265 122t-102 304zM137 403q0 -165 93.5 -277t236.5 -112q122 0 229.5 72t171.5 194.5t64 264.5 q0 164 -91.5 274.5t-236.5 110.5q-91 0 -177 -42.5t-149.5 -113t-102 -168.5t-38.5 -203zM434 1278q0 24 15.5 38.5t35.5 14.5q37 0 37 -41q0 -23 -13 -37t-36 -14q-18 0 -28.5 10.5t-10.5 28.5zM784 1278q0 20 15.5 36.5t34.5 16.5q38 0 38 -41q0 -23 -15 -37t-36 -14 q-37 0 -37 39z" />
<glyph unicode="&#xf7;" d="M252 711l2 8q4 14 14 14h719q5 0 8 -4t2 -10l-2 -8q-4 -15 -14 -15h-719q-5 0 -8 4.5t-2 10.5zM535 428q3 20 17.5 33.5t31.5 13.5q20 0 31 -13.5t8 -33.5q-3 -21 -17.5 -35t-34.5 -14q-17 0 -28 14.5t-8 34.5zM614 1001q3 20 18 34t32 14q20 0 30.5 -13.5t7.5 -34.5 t-17 -35t-34 -14q-17 0 -28.5 14.5t-8.5 34.5z" />
<glyph unicode="&#xf8;" horiz-adv-x="1099" d="M96 102q-8 11 4 23l54 45q-54 105 -54 233q0 115 41.5 220t110.5 180t161.5 119.5t190.5 44.5q92 0 166 -42t123 -116l70 59q14 9 20 0l6 -8q6 -11 -2 -24l-72 -64q54 -102 54 -227q0 -115 -41.5 -221t-109.5 -181.5t-160.5 -120.5t-190.5 -45q-93 0 -168.5 43 t-124.5 119l-51 -45q-5 -4 -12.5 -3.5t-10.5 5.5zM137 403q0 -119 47 -208l682 587q-44 69 -111.5 108.5t-150.5 39.5q-91 0 -177 -42.5t-149.5 -113t-102 -168.5t-38.5 -203zM203 164q46 -70 114 -110t150 -40q122 0 229.5 72t171.5 194.5t64 264.5q0 117 -45 205z" />
<glyph unicode="&#xf9;" horiz-adv-x="1015" d="M145 412l74 520q3 14 17 14h8q15 0 12 -16l-72 -518q-60 -398 230 -398q56 0 108.5 18.5t87 42t65 55t42.5 48t20 29.5l103 723q3 16 16 16h10q16 0 13 -16l-129 -914q-3 -16 -17 -16h-10q-13 0 -10 16l16 125q-27 -31 -52.5 -54.5t-65 -51t-90 -43t-107.5 -15.5 q-169 0 -234.5 109t-34.5 326zM461 1350l4 6q6 10 18 6l308 -186q10 -6 4 -15l-4 -8q-8 -12 -19 -6l-309 184q-11 7 -2 19z" />
<glyph unicode="&#xfa;" horiz-adv-x="1015" d="M145 412l74 520q3 14 17 14h8q15 0 12 -16l-72 -518q-60 -398 230 -398q56 0 108.5 18.5t87 42t65 55t42.5 48t20 29.5l103 723q3 16 16 16h10q16 0 13 -16l-129 -914q-3 -16 -17 -16h-10q-13 0 -10 16l16 125q-27 -31 -52.5 -54.5t-65 -51t-90 -43t-107.5 -15.5 q-169 0 -234.5 109t-34.5 326zM348 1163q-4 9 8 15l361 186q10 3 16 -6l6 -10q6 -12 -8 -19l-360 -184q-12 -5 -17 6z" />
<glyph unicode="&#xfb;" horiz-adv-x="1015" d="M145 412l74 520q3 14 17 14h8q15 0 12 -16l-72 -518q-60 -398 230 -398q56 0 108.5 18.5t87 42t65 55t42.5 48t20 29.5l103 723q3 16 16 16h10q16 0 13 -16l-129 -914q-3 -16 -17 -16h-10q-13 0 -10 16l16 125q-27 -31 -52.5 -54.5t-65 -51t-90 -43t-107.5 -15.5 q-169 0 -234.5 109t-34.5 326zM314.5 1141q-0.5 2 0.5 4.5t2 3.5t5.5 4.5t7.5 5.5l260 209q10 6 16 0l207 -217q9 -9 2 -16l-8 -9q-7 -7 -14 -2l-197 207l-258 -209q-8 -4 -14 2l-7 11q-2 4 -2.5 6z" />
<glyph unicode="&#xfc;" horiz-adv-x="1015" d="M145 412l74 520q3 14 17 14h8q15 0 12 -16l-72 -518q-60 -398 230 -398q56 0 108.5 18.5t87 42t65 55t42.5 48t20 29.5l103 723q3 16 16 16h10q16 0 13 -16l-129 -914q-3 -16 -17 -16h-10q-13 0 -10 16l16 125q-27 -31 -52.5 -54.5t-65 -51t-90 -43t-107.5 -15.5 q-169 0 -234.5 109t-34.5 326zM381 1278q0 24 15.5 38.5t35.5 14.5q37 0 37 -41q0 -23 -13 -37t-36 -14q-18 0 -28.5 10.5t-10.5 28.5zM731 1278q0 20 15 36.5t34 16.5q39 0 39 -41q0 -23 -15 -37t-36 -14q-37 0 -37 39z" />
<glyph unicode="&#xfd;" horiz-adv-x="901" d="M90 -471l264 491l-243 916q-3 13 6 16l12 4q12 3 16 -8l234 -887l475 891q8 11 18 6l11 -4q12 -6 6 -18l-768 -1425q-8 -13 -19 -7l-8 4q-11 7 -4 21zM375 1163q-4 9 8 15l360 186q11 4 17 -6l6 -10q6 -12 -8 -19l-361 -184q-11 -4 -16 6z" />
<glyph unicode="&#xfe;" horiz-adv-x="1069" d="M35 -469l266 1886q3 17 14 17h9q6 0 11 -5t5 -12l-84 -581q51 51 136 91t192 40q158 0 254 -121.5t96 -302.5q0 -248 -141 -407t-371 -159q-168 0 -272 119l-76 -565q0 -7 -6 -12.5t-11 -5.5h-14q-8 0 -8 18zM160 150q3 -10 19.5 -29.5t46.5 -45t83.5 -43.5t116.5 -18 q137 0 245 69.5t167 190t59 269.5q0 166 -89 276.5t-233 110.5q-66 0 -127.5 -20t-103 -49.5t-63.5 -49t-33 -33.5z" />
<glyph unicode="&#xff;" horiz-adv-x="901" d="M90 -471l264 491l-243 916q-3 13 6 16l12 4q12 3 16 -8l234 -887l475 891q8 11 18 6l11 -4q12 -6 6 -18l-768 -1425q-8 -13 -19 -7l-8 4q-11 7 -4 21zM334 1278q0 24 15.5 38.5t35.5 14.5q37 0 37 -41q0 -23 -13 -37t-36 -14q-18 0 -28.5 10.5t-10.5 28.5zM684 1278 q0 20 15 36.5t34 16.5q39 0 39 -41q0 -23 -15 -37t-36 -14q-37 0 -37 39z" />
<glyph unicode="&#x152;" horiz-adv-x="1824" d="M141 614q0 170 64 326.5t170 268.5t248 178.5t292 66.5q74 0 152 -20h743q6 0 9.5 -4.5t1.5 -10.5l-2 -8q-3 -14 -13 -14h-727l-88 -633h637q5 0 8 -4t2 -10l-2 -9q-4 -14 -14 -14h-637l-96 -690h725q6 0 9.5 -4t2.5 -10l-2 -9q-4 -14 -14 -14h-742q-82 -20 -161 -20 q-164 0 -294 84.5t-201 229t-71 320.5zM176 618q0 -167 68 -304.5t191.5 -217.5t277.5 -80q70 0 137 17l192 1368q-69 16 -131 16q-142 0 -277 -63.5t-235.5 -170t-161.5 -255t-61 -310.5z" />
<glyph unicode="&#x153;" horiz-adv-x="1703" d="M100 406q0 115 42 220t111.5 179t162 118t190.5 44q100 0 180 -53t129 -142q66 90 162.5 142.5t216.5 52.5q140 0 234 -72.5t94 -185.5q0 -71 -46 -126t-125 -87t-175 -48t-205 -16q-108 0 -182 10l-33 -231q32 -92 110 -144.5t179 -52.5q91 0 171 32.5t130 72.5 q13 11 20 -2l7 -15q2 -5 -5 -12q-37 -37 -134 -75t-189 -38q-107 0 -186.5 51t-122.5 138q-73 -89 -169 -139t-198 -50q-162 0 -265.5 123t-103.5 306zM139 406q0 -164 94.5 -278t235.5 -114q97 0 191 54t161 145l72 522q-45 94 -120 144.5t-167 50.5q-121 0 -229 -70.5 t-173 -192t-65 -261.5zM897 479q88 -10 166 -10q100 0 190.5 14.5t165 42.5t118.5 75t44 108q0 88 -81.5 154.5t-205.5 66.5q-111 0 -206.5 -54.5t-159.5 -144.5z" />
<glyph unicode="&#x178;" horiz-adv-x="1042" d="M129 1409q-8 12 4 18l12 7q9 5 17 -7l373 -690l571 693q8 12 16 6l15 -9q12 -6 0 -18l-586 -704l-96 -693q-3 -12 -15 -12h-12q-13 0 -10 14l96 688zM440 1694q0 24 16 38.5t36 14.5q38 0 38 -41q0 -23 -15 -37t-36 -14q-18 0 -28.5 10.5t-10.5 28.5zM823 1694 q0 24 15 38.5t36 14.5q37 0 37 -41q0 -22 -14.5 -36.5t-34.5 -14.5q-18 0 -28.5 10.5t-10.5 28.5z" />
<glyph unicode="&#x2c6;" horiz-adv-x="688" d="M127.5 1147q0.5 1 13.5 12l260 209q10 7 17 0l207 -217q9 -9 2 -16l-9 -9q-7 -7 -14 -2l-196 207l-258 -209q-8 -5 -15 2l-6 11q-2 11 -1.5 12z" />
<glyph unicode="&#x2dc;" horiz-adv-x="700" d="M109 1217q9 23 21 44.5t35 54.5t56.5 53t71.5 20q40 0 64 -23t33.5 -55.5t18 -65t27 -55.5t49.5 -23q86 0 144 148q6 15 14 12l14 -4q15 -4 7 -18q-74 -172 -183 -172q-39 0 -63 23t-34.5 55.5t-19.5 64.5t-27 55t-48 23q-28 0 -54 -18t-45 -46t-29.5 -48.5t-17.5 -37.5 q-6 -14 -14 -10l-14 4q-12 3 -6 19z" />
<glyph unicode="&#x2000;" horiz-adv-x="981" />
<glyph unicode="&#x2001;" horiz-adv-x="1962" />
<glyph unicode="&#x2002;" horiz-adv-x="981" />
<glyph unicode="&#x2003;" horiz-adv-x="1962" />
<glyph unicode="&#x2004;" horiz-adv-x="654" />
<glyph unicode="&#x2005;" horiz-adv-x="490" />
<glyph unicode="&#x2006;" horiz-adv-x="327" />
<glyph unicode="&#x2007;" horiz-adv-x="327" />
<glyph unicode="&#x2008;" horiz-adv-x="245" />
<glyph unicode="&#x2009;" horiz-adv-x="392" />
<glyph unicode="&#x200a;" horiz-adv-x="109" />
<glyph unicode="&#x2010;" horiz-adv-x="753" d="M131 512l2 8q4 15 14 15h447q5 0 7 -4.5t1 -10.5l-2 -8q-4 -14 -12 -14h-447q-5 0 -8 4t-2 10z" />
<glyph unicode="&#x2011;" horiz-adv-x="753" d="M131 512l2 8q4 15 14 15h447q5 0 7 -4.5t1 -10.5l-2 -8q-4 -14 -12 -14h-447q-5 0 -8 4t-2 10z" />
<glyph unicode="&#x2012;" horiz-adv-x="753" d="M131 512l2 8q4 15 14 15h447q5 0 7 -4.5t1 -10.5l-2 -8q-4 -14 -12 -14h-447q-5 0 -8 4t-2 10z" />
<glyph unicode="&#x2013;" horiz-adv-x="1044" d="M131 512l2 8q4 15 14 15h734q6 0 9.5 -4.5t2.5 -10.5l-2 -8q-3 -14 -14 -14h-734q-15 0 -12 14z" />
<glyph unicode="&#x2014;" horiz-adv-x="1443" d="M131 512l2 8q4 15 14 15h1133q5 0 9 -4.5t3 -10.5l-2 -8q-4 -14 -16 -14h-1133q-5 0 -8 4t-2 10z" />
<glyph unicode="&#x2018;" horiz-adv-x="405" d="M209 1171q0 79 39 151.5t108 123.5q17 12 23 0l6 -12q6 -12 -8 -23q-58 -41 -92.5 -104t-34.5 -136q0 -36 10 -59q21 21 45 21q19 0 31 -12t12 -31q0 -23 -18.5 -39.5t-42.5 -16.5q-39 0 -58.5 40t-19.5 97z" />
<glyph unicode="&#x2019;" horiz-adv-x="401" d="M203 1055q-6 12 8 22q58 41 92.5 104t34.5 136q0 36 -10 59q-20 -20 -45 -20q-19 0 -31 12t-12 31q0 23 18.5 39t42.5 16q39 0 58.5 -40t19.5 -97q0 -79 -39 -151.5t-109 -123.5q-17 -11 -22 0z" />
<glyph unicode="&#x201a;" horiz-adv-x="364" d="M10 -322q-6 12 8 23q58 41 92.5 104t34.5 136q0 36 -10 59q-20 -20 -45 -20q-19 0 -31 12t-12 31q0 23 19 39t43 16q38 0 57.5 -40t19.5 -97q0 -79 -39 -151.5t-108 -123.5q-17 -12 -23 0z" />
<glyph unicode="&#x201c;" horiz-adv-x="733" d="M209 1171q0 79 39 151.5t108 123.5q17 12 23 0l6 -12q6 -12 -8 -23q-58 -41 -92.5 -104t-34.5 -136q0 -36 10 -59q21 21 45 21q19 0 31 -12t12 -31q0 -23 -18.5 -39.5t-42.5 -16.5q-39 0 -58.5 40t-19.5 97zM537 1171q0 79 39 151.5t108 123.5q17 12 23 0l6 -12 q6 -12 -8 -23q-58 -41 -92.5 -104t-34.5 -136q0 -36 10 -59q21 21 45 21q19 0 31 -12t12 -31q0 -23 -19 -39.5t-43 -16.5q-38 0 -57.5 40t-19.5 97z" />
<glyph unicode="&#x201d;" horiz-adv-x="729" d="M203 1055q-6 12 8 22q58 41 92.5 104t34.5 136q0 36 -10 59q-20 -20 -45 -20q-19 0 -31 12t-12 31q0 23 18.5 39t42.5 16q39 0 58.5 -40t19.5 -97q0 -79 -39 -151.5t-109 -123.5q-17 -11 -22 0zM530 1055q-6 11 9 22q58 41 92.5 104t34.5 136q0 33 -11 59 q-20 -20 -45 -20q-19 0 -31 12t-12 31q0 23 19 39t43 16q39 0 58.5 -40t19.5 -97q0 -79 -39 -151.5t-109 -123.5q-17 -11 -22 0z" />
<glyph unicode="&#x201e;" horiz-adv-x="692" d="M10 -322q-6 12 8 23q58 41 92.5 104t34.5 136q0 36 -10 59q-20 -20 -45 -20q-19 0 -31 12t-12 31q0 23 19 39t43 16q38 0 57.5 -40t19.5 -97q0 -79 -39 -151.5t-108 -123.5q-17 -12 -23 0zM338 -322q-6 12 8 23q58 41 92.5 104t34.5 136q0 36 -10 59q-20 -20 -45 -20 q-19 0 -31 12t-12 31q0 23 18.5 39t42.5 16q39 0 58.5 -40t19.5 -97q0 -79 -39 -151.5t-108 -123.5q-17 -12 -23 0z" />
<glyph unicode="&#x2022;" horiz-adv-x="542" d="M188 514q0 37 25 63.5t59 26.5q29 0 47.5 -19.5t18.5 -49.5q0 -35 -26.5 -60.5t-61.5 -25.5q-27 0 -44.5 19t-17.5 46z" />
<glyph unicode="&#x2026;" horiz-adv-x="1060" d="M59 37q0 23 16.5 38t37.5 15q18 0 28.5 -11.5t10.5 -29.5q0 -22 -15.5 -38.5t-38.5 -16.5q-17 0 -28 12.5t-11 30.5zM410 37q0 23 15 38t36 15q18 0 29.5 -11.5t11.5 -29.5q0 -22 -15.5 -38.5t-37.5 -16.5q-17 0 -28 12.5t-11 30.5zM766 37q0 23 15 38t36 15 q18 0 29.5 -11.5t11.5 -29.5q0 -22 -16 -38.5t-39 -16.5q-17 0 -27 12.5t-10 30.5z" />
<glyph unicode="&#x202f;" horiz-adv-x="392" />
<glyph unicode="&#x2039;" horiz-adv-x="499" d="M102 479q-5 7 2 17l273 348q7 10 18 4l8 -6q11 -9 3 -17l-265 -340l166 -342q4 -11 -6 -16l-8 -4q-13 -7 -17 4z" />
<glyph unicode="&#x203a;" horiz-adv-x="497" d="M68 145l262 344l-166 338q-7 11 6 17l8 4q10 7 17 -4l174 -348q3 -9 -2 -17l-273 -352q-11 -11 -18 -4l-6 6q-8 8 -2 16z" />
<glyph unicode="&#x205f;" horiz-adv-x="490" />
<glyph unicode="&#x20ac;" d="M53 555l2 12q3 11 15 11h106q0 96 23 204h-101q-5 0 -8 4.5t-2 10.5l2 10q3 12 14 12h103q31 130 90 244t140 201.5t187.5 138.5t223.5 51q223 0 379 -170q5 -9 -2 -16l-8 -11q-12 -9 -17 0q-79 84 -159.5 122t-190.5 38q-145 0 -271.5 -82t-210.5 -215.5t-124 -300.5 h753q7 0 10.5 -2t2.5 -8l-4 -16q-3 -11 -15 -11h-755q-23 -102 -23 -204h670q5 0 9 -3t3 -8l-4 -14q-3 -10 -12 -10h-664q2 -108 28.5 -201t77 -167.5t135 -117.5t195.5 -43q116 0 207.5 40.5t188.5 131.5q8 8 16 0l8 -10q9 -9 -2 -16q-101 -94 -197 -138.5t-221 -44.5 q-118 0 -210 45t-148.5 123.5t-85.5 179t-31 218.5h-113q-13 0 -10 12z" />
<glyph unicode="&#x2122;" horiz-adv-x="1521" d="M250 1411v8q0 6 4.5 10.5t9.5 4.5h414q10 0 10 -15v-8q0 -14 -14 -14h-189l-82 -586q-3 -14 -14 -14h-8q-5 0 -8 4t-2 10l82 586h-193q-10 0 -10 14zM692 813l242 633q3 7 9 9.5t10.5 0t4.5 -9.5l89 -576l245 576q3 10 15.5 10t13.5 -10l63 -633q0 -14 -10 -16l-18 -4 q-5 -2 -7 5q-1 2 -1 3l-54 553l-245 -570q-5 -10 -15 -10t-12 10l-86 570l-211 -553q-5 -11 -18 -8l-9 4q-9 4 -6 16z" />
<glyph unicode="&#x25fc;" horiz-adv-x="962" d="M0 0v963h963v-963h-963z" />
<glyph unicode="&#xfb03;" horiz-adv-x="1677" d="M74 -469l192 1378h-129q-8 0 -11.5 3.5t-2.5 9.5l2 12q2 12 18 12h129l11 68q65 420 422 420q108 0 187 -34t112 -73q102 127 278 127q109 0 178 -42t105 -93q9 -12 -2 -21l-9 -6q-11 -7 -18 2q-13 18 -31.5 36t-49.5 39.5t-76 34.5t-97 13q-138 0 -229 -90.5 t-119 -271.5l-16 -109h614q14 0 14 -16l-129 -914q-3 -16 -14 -16h-12q-5 0 -9.5 4.5t-1.5 11.5l125 893h-594l-192 -1378q-4 -18 -17 -18h-8q-6 0 -9.5 5.5t-2.5 12.5l192 1378h-571l-192 -1378q-4 -18 -15 -18h-10q-6 0 -9.5 5.5t-2.5 12.5zM309 946h572l16 111 q24 148 82 237q-92 103 -274 103q-327 0 -386 -383z" />
<glyph unicode="&#xfb04;" horiz-adv-x="1730" d="M74 -469l192 1378h-129q-8 0 -11.5 3.5t-2.5 9.5l2 12q2 12 18 12h129l11 68q15 111 55.5 194.5t98.5 131.5t125 71t143 23q105 0 179.5 -37t112.5 -80q49 66 126 101.5t165 35.5q102 0 185.5 -40.5t125.5 -88.5l13 92q3 17 16 17h10q14 0 11 -17l-199 -1401 q-3 -16 -14 -16h-11q-13 0 -10 16l176 1264q-42 49 -119.5 93t-183.5 44q-139 0 -233.5 -91.5t-118.5 -264.5l-18 -115h401q17 0 14 -14l-2 -8q-4 -15 -18 -15h-402l-190 -1378q-4 -18 -19 -18h-8q-6 0 -9.5 5.5t-2.5 12.5l192 1378h-571l-192 -1378q-4 -18 -15 -18h-10 q-6 0 -9.5 5.5t-2.5 12.5zM309 946h572l18 115q20 131 74 223q-34 44 -106 78.5t-162 34.5q-70 0 -131 -21t-114.5 -64.5t-90.5 -119.5t-50 -178z" />
</font>
</defs>
</svg>
