<?xml version="1.0" standalone="no"?>
<!DOCTYPE svg PUBLIC "-//W3C//DTD SVG 1.1//EN" "http://www.w3.org/Graphics/SVG/1.1/DTD/svg11.dtd" >
<svg xmlns="http://www.w3.org/2000/svg">
<metadata></metadata>
<defs>
<font id="hurme_geometric_sans_4black" horiz-adv-x="1267" >
<font-face units-per-em="2048" ascent="1571" descent="-477" />
<missing-glyph horiz-adv-x="798" />
<glyph horiz-adv-x="0" />
<glyph horiz-adv-x="682" />
<glyph unicode=" "  horiz-adv-x="798" />
<glyph unicode="&#x09;" horiz-adv-x="798" />
<glyph unicode="&#xa0;" horiz-adv-x="798" />
<glyph unicode="!" horiz-adv-x="638" d="M96 1427h445l-58 -1003h-329zM121 176q0 82 57 139q60 57 142 57t139 -57q60 -57 60 -139t-60 -139q-57 -57 -139 -57t-142 57q-57 57 -57 139z" />
<glyph unicode="&#x22;" horiz-adv-x="915" d="M63 1427h340l-47 -516h-247zM512 1427h340l-47 -516h-248z" />
<glyph unicode="#" horiz-adv-x="1435" d="M63 311v320h256l37 149h-176v320h256l43 174h303l-43 -174h164l43 174h305l-43 -174h170v-320h-250l-36 -149h170v-320h-248l-45 -182h-305l45 182h-162l-45 -182h-305l45 182h-179zM625 631h161l37 149h-161z" />
<glyph unicode="$" horiz-adv-x="1236" d="M-16 283l274 202q103 -145 311 -166v242q-204 56 -336 148q-147 110 -147 311q0 191 137 301q137 113 342 125v207h162v-215q247 -37 412 -226l-248 -202q-65 71 -168 92v-219q276 -77 377 -187q104 -107 104 -264q0 -193 -121 -310.5t-356 -137.5v-201h-162v199 q-399 21 -581 301zM457 1026q0 -40 24 -60t88 -40v184q-112 -15 -112 -84zM723 326q102 18 102 94q0 58 -102 96v-190z" />
<glyph unicode="%" horiz-adv-x="1589" d="M43 1137q0 131 96 221t234 90q135 0 231 -90t96 -221t-96 -224q-96 -90 -231 -90q-138 0 -234 90q-96 93 -96 224zM127 0l995 1427h334l-995 -1427h-334zM311 1137q0 -31 16.5 -49.5t45.5 -18.5q27 0 44 19t17 49t-19 47.5t-42.5 17.5t-42.5 -17.5t-19 -47.5zM889 293 q0 131 96 221t234 90q135 0 231 -90t96 -221q0 -130 -96 -223q-96 -90 -231 -90q-138 0 -234 90q-96 93 -96 223zM1157 293q0 -31 16.5 -49.5t45.5 -18.5q27 0 44 19t17 49t-19 47.5t-42.5 17.5t-42.5 -17.5t-19 -47.5z" />
<glyph unicode="&#x26;" horiz-adv-x="1785" d="M61 457q0 308 285 452q-24 49 -24 113q0 193 139 317q137 125 366 125q193 0 312 -98q121 -100 121 -246q0 -55 -23 -88h510v-348h-250v-80q0 -180 -133 -319l291 -285h-479l-72 70q-162 -101 -465 -101q-259 0 -418 135q-160 136 -160 353zM440 457q0 -73 52.5 -114.5 t146.5 -41.5q111 0 158 27q-175 175 -211 207q-30 26 -58 61q-88 -49 -88 -139zM676 1012q0 -76 72 -148l141 -141v201q33 8 54.5 40t21.5 76q0 57 -41 95.5t-101 38.5t-103.5 -43.5t-43.5 -118.5zM928 684l164 -164q57 34 57 146v18h-221z" />
<glyph unicode="'" horiz-adv-x="466" d="M63 1427h340l-47 -516h-247z" />
<glyph unicode="(" horiz-adv-x="700" d="M68 633q0 567 473 981l166 -182q-160 -187 -234 -367q-78 -188 -78 -432q0 -258 76 -438t236 -369l-166 -180q-473 390 -473 987z" />
<glyph unicode=")" horiz-adv-x="700" d="M-6 -174q158 186 235 369q76 180 76 438q0 244 -78 432q-74 183 -233 367l166 182q473 -414 473 -981q0 -597 -473 -987z" />
<glyph unicode="*" horiz-adv-x="749" d="M29 1100l69 221l185 -94l-31 200h244l-29 -198l182 92l72 -221l-197 -37l138 -150l-197 -139l-92 176l-90 -176l-195 139l139 150z" />
<glyph unicode="+" horiz-adv-x="1208" d="M88 555v319h338v355h356v-355h338v-319h-338v-354h-356v354h-338z" />
<glyph unicode="," horiz-adv-x="544" d="M-47 -262l178 489h350l-258 -489h-270z" />
<glyph unicode="-" horiz-adv-x="942" d="M76 428v320h790v-320h-790z" />
<glyph unicode="." horiz-adv-x="462" d="M33 176q0 82 57 139q60 57 142 57t139 -57q60 -57 60 -139t-60 -139q-57 -57 -139 -57t-142 57q-57 57 -57 139z" />
<glyph unicode="/" horiz-adv-x="960" d="M-68 -279l684 1760h336l-684 -1760h-336z" />
<glyph unicode="0" horiz-adv-x="1253" d="M78 715q0 231 6 295q21 184 174 313q149 125 358 125q218 0 373 -125q159 -129 180 -313q7 -75 7 -295q0 -222 -7 -297q-21 -185 -180 -314q-154 -124 -373 -124q-210 0 -358 124q-153 129 -174 314q-6 64 -6 297zM444 715q0 -200 7 -254q6 -64 55.5 -106t120.5 -42 q66 0 117.5 42.5t58.5 105.5q6 47 6 254q0 195 -6 241q-7 63 -58.5 105.5t-117.5 42.5q-71 0 -120.5 -42t-55.5 -106q-7 -54 -7 -241z" />
<glyph unicode="1" horiz-adv-x="790" d="M63 1075v352h603v-1427h-390v1075h-213z" />
<glyph unicode="2" horiz-adv-x="1146" d="M35 0v256l624 573q76 70 76 154q0 57 -43 97t-104 40q-69 0 -117.5 -53t-48.5 -131h-342q0 212 147 362q150 150 361 150q203 0 346 -137q143 -134 143 -328q0 -209 -196 -387l-275 -244h492v-352h-1063z" />
<glyph unicode="3" horiz-adv-x="1163" d="M-6 254l299 203q83 -123 229 -123q86 0 144.5 41.5t58.5 107.5q0 63 -61 104.5t-162 41.5q-70 0 -150 -17l-119 193l324 270h-438v352h930v-280l-273 -244h2q147 -24 238 -141q94 -113 94 -266q0 -216 -156 -363t-422 -147q-175 0 -316 71.5t-222 196.5z" />
<glyph unicode="4" horiz-adv-x="1286" d="M78 242v268l444 917h396l-414 -845h287v249h378v-831h-378v242h-713z" />
<glyph unicode="5" horiz-adv-x="1150" d="M8 272l309 193q26 -60 83 -95.5t126 -35.5q79 0 133 45.5t54 116.5q0 78 -50 118.5t-137 40.5q-88 0 -135 -47l-289 76l156 743h735v-352h-465l-28 -125q31 8 94 8q206 0 354 -139q150 -138 150 -334q0 -208 -168 -354q-168 -145 -404 -145q-171 0 -310 77.5t-208 208.5z " />
<glyph unicode="6" horiz-adv-x="1189" d="M35 516q0 114 47 217q52 110 160 275l274 419h420l-281 -413q10 2 27 2q69 0 148 -32t153 -89q77 -59 124.5 -159t47.5 -216q0 -215 -166 -368q-166 -152 -399 -152q-227 0 -393 152q-162 149 -162 364zM412 520q0 -72 51 -123q54 -50 127 -49.5t127 51.5t54 121t-54 121 q-53 53 -126 53t-128 -51q-51 -51 -51 -123z" />
<glyph unicode="7" horiz-adv-x="1118" d="M45 1075v352h1028v-315l-553 -1112h-391l545 1075h-629z" />
<glyph unicode="8" horiz-adv-x="1210" d="M55 485q0 102 49 190t136 144q-88 76 -88 205q0 175 133 299q131 125 319 125q189 0 320 -125q133 -127 133 -299q0 -129 -88 -205q87 -56 136.5 -144t49.5 -190q0 -208 -162 -354q-160 -145 -389 -145q-224 0 -389 145q-160 148 -160 354zM440 485q0 -62 48.5 -106.5 t115.5 -44.5q50 -2 91.5 26t60.5 68t11.5 86.5t-46.5 77.5q-34 37 -84.5 44.5t-94.5 -10.5t-74.5 -56.5t-27.5 -84.5zM494 1024q0 -45 31.5 -75.5t78.5 -30.5t79 31t32 75q0 41 -33 68.5t-78 27.5t-77.5 -27.5t-32.5 -68.5z" />
<glyph unicode="9" horiz-adv-x="1202" d="M45 922q0 216 164 366q165 154 397 154q228 0 389 -152q162 -149 162 -364q0 -115 -49 -219q-48 -104 -158 -273l-282 -434h-420l289 428q-10 -2 -27 -2q-141 0 -297 121q-75 59 -121.5 159.5t-46.5 215.5zM430 922q0 -69 51 -123q54 -51 125.5 -51t122.5 51t51 122 t-51 121q-51 51 -122.5 51t-125.5 -51q-51 -51 -51 -120z" />
<glyph unicode=":" horiz-adv-x="503" d="M54 252q0 82 57 139q60 57 141.5 57t138.5 -57q60 -57 60 -139t-60 -139q-57 -57 -138.5 -57t-141.5 57q-57 57 -57 139zM54 788.5q0 82.5 57 139.5q60 57 141.5 57t138.5 -57q60 -57 60 -139.5t-60 -139.5q-57 -57 -138.5 -57t-141.5 57q-57 57 -57 139.5z" />
<glyph unicode=";" horiz-adv-x="544" d="M-47 -262l178 489h350l-258 -489h-270zM82 784.5q0 82.5 57 139.5q60 57 142 57t139 -57q60 -57 60 -139.5t-60 -139.5q-57 -57 -139 -57t-142 57q-57 57 -57 139.5z" />
<glyph unicode="&#x3c;" horiz-adv-x="1003" d="M70 596v266l837 463v-385l-411 -211l411 -211v-385z" />
<glyph unicode="=" horiz-adv-x="1228" d="M98 303v320h1032v-320h-1032zM98 803v319h1032v-319h-1032z" />
<glyph unicode="&#x3e;" horiz-adv-x="1003" d="M96 133v385l412 211l-412 211v385l838 -463v-266z" />
<glyph unicode="?" horiz-adv-x="935" d="M78 948v387q149 113 352 113q199 0 318 -94q120 -92 120 -244q0 -122 -54 -198t-193 -136l-74 -31q-45 -23 -45 -51q0 -43 76 -43q90 0 155 41v-272q-118 -53 -239 -53q-153 0 -254 90q-99 89 -99 231q0 201 234 309q11 5 30.5 14t30.5 14.5t23.5 12.5t18.5 15t5 16 q0 31 -75 31q-172 0 -330 -152zM264 151.5q0 77.5 55 131.5q57 55 137 55t136 -55q57 -54 57 -132t-57 -133q-56 -54 -136 -54t-137 54q-55 56 -55 133.5z" />
<glyph unicode="@" horiz-adv-x="1644" d="M61 598q0 133 43 252t117 208.5t171 155.5t208 99.5t225 34.5q322 0 541 -213t219 -504q0 -222 -106.5 -343.5t-296.5 -121.5q-102 0 -174.5 47t-92.5 125q-34 -64 -161 -64q-126 0 -211 97q-82 94 -82 231q0 138 82 232q84 96 211 96q114 0 141 -64v56h268v-451 q0 -29 14.5 -49.5t34.5 -20.5q97 0 97 230q0 185 -144 317q-142 133 -340 133q-199 0 -340 -141t-141 -342q0 -199 141 -340t342 -141q106 0 191 39l102 -236q-143 -70 -293 -70q-223 0 -405 111q-175 108 -268 276t-93 361zM743 602.5q0 -30.5 23 -53.5q23 -20 55.5 -20 t55.5 20q43 35 17 82q-21 37 -63 44q-38 7 -65 -22q-23 -20 -23 -50.5z" />
<glyph unicode="A" horiz-adv-x="1544" d="M12 0l582 1427h356l582 -1427h-412l-73 186h-549l-76 -186h-410zM600 487h344l-172 443z" />
<glyph unicode="B" horiz-adv-x="1320" d="M117 0v1427h663q163 0 273 -104q110 -101 110 -260q0 -102 -47.5 -177t-134.5 -110q138 -29 212.5 -122.5t74.5 -231.5q0 -184 -125 -303q-122 -119 -309 -119h-717zM506 319h242q63 0 104 40t41 100q0 58 -41.5 95.5t-106.5 37.5h-239v-273zM506 858h188q54 0 87.5 36 t33.5 93q0 54 -35 89.5t-86 35.5h-188v-254z" />
<glyph unicode="C" horiz-adv-x="1458" d="M61 713q0 315 226 524q227 211 553 211q172 0 326.5 -73.5t265.5 -205.5l-265 -221q-137 152 -327 152q-163 0 -277 -111q-112 -109 -112 -276q0 -168 112 -277q114 -108 277 -108q191 0 327 151l265 -221q-111 -132 -265.5 -205t-326.5 -73q-326 0 -553 208 q-226 209 -226 525z" />
<glyph unicode="D" horiz-adv-x="1523" d="M117 0v1427h579q373 0 568 -198q198 -198 198 -518q0 -325 -196 -518q-193 -193 -568 -193h-581zM506 352h168q250 0 327 109q40 52 55 109.5t15 140.5q0 82 -15 138t-55 105q-85 105 -329 105h-166v-707z" />
<glyph unicode="E" d="M117 0v1427h1052v-350h-663v-196h618v-320h-618v-217h680v-344h-1069z" />
<glyph unicode="F" horiz-adv-x="1216" d="M117 0v1427h1032v-350h-643v-221h584v-330h-584v-526h-389z" />
<glyph unicode="G" horiz-adv-x="1544" d="M61 713q0 315 226 524q227 211 553 211q349 0 579 -254l-264 -221q-124 127 -315 127q-163 0 -277 -111q-112 -109 -112 -276q0 -168 112 -277q114 -108 277 -108q189 0 297 123v96h-369v323h705v-573q-101 -145 -269.5 -231t-363.5 -86q-326 0 -553 208 q-226 209 -226 525z" />
<glyph unicode="H" horiz-adv-x="1548" d="M117 0v1427h389v-495h536v495h390v-1427h-390v575h-536v-575h-389z" />
<glyph unicode="I" horiz-adv-x="638" d="M125 0v1427h389v-1427h-389z" />
<glyph unicode="J" horiz-adv-x="800" d="M12 -6v344q45 -10 131 -10q103 0 142 44t39 136v919h389v-892q0 -110 -8 -175t-37 -139q-39 -117 -150 -176t-319 -65q-102 0 -187 14z" />
<glyph unicode="K" horiz-adv-x="1454" d="M117 0v1427h389v-579l487 579h457l-535 -632l553 -795h-458l-363 530l-141 -163v-367h-389z" />
<glyph unicode="L" horiz-adv-x="1089" d="M117 0v1427h389v-1075h543v-352h-932z" />
<glyph unicode="M" horiz-adv-x="1798" d="M117 0v1427h319l463 -649l463 649h319v-1427h-360v756l-422 -584l-422 584v-756h-360z" />
<glyph unicode="N" horiz-adv-x="1552" d="M117 0v1427h348l598 -765v765h373v-1427h-318l-629 797v-797h-372z" />
<glyph unicode="O" horiz-adv-x="1697" d="M61 709q0 305 230 522t557 217t557 -217q231 -215 231 -522q0 -305 -231 -523q-232 -215 -557 -215t-557 215q-230 217 -230 523zM459 709q0 -165 112 -277q113 -113 277 -113q159 0 274 115q117 117 117 275q0 157 -117 274q-114 117 -274 117q-161 0 -275 -117 q-114 -114 -114 -274z" />
<glyph unicode="P" horiz-adv-x="1333" d="M117 0v1427h669q177 0 328 -124q78 -63 126 -163.5t48 -219.5q0 -217 -158 -363q-155 -143 -344 -143h-280v-414h-389zM506 766h264q28 0 72 20q29 12 46 47.5t17 86.5q0 111 -63 137q-44 18 -74 18h-262v-309z" />
<glyph unicode="Q" horiz-adv-x="1693" d="M61 713q0 306 230 520q232 215 555 215q325 0 557 -215q229 -213 229 -520q0 -250 -172 -443l117 -131l-256 -221l-125 137q-160 -75 -350 -75q-322 0 -555 213q-230 214 -230 520zM459 713q0 -163 112 -275q113 -110 275 -110q58 0 94 8l-152 168l256 221l158 -176 q33 62 33 164q0 155 -115 270q-114 117 -274 117t-275 -115q-112 -112 -112 -272z" />
<glyph unicode="R" horiz-adv-x="1392" d="M117 0v1427h649q213 0 362 -143q150 -144 150 -348q0 -136 -66.5 -246.5t-177.5 -161.5l357 -528h-447l-291 444h-4h-143v-444h-389zM506 756h217q78 0 123 44.5t45 123.5q0 67 -38.5 109t-96.5 42h-250v-319z" />
<glyph unicode="S" horiz-adv-x="1216" d="M-16 283l274 211q59 -80 152.5 -128.5t203.5 -48.5q191 0 191 103q0 55 -80 88q-62 23 -84 29q-153 44 -225 71q-330 124 -330 412q0 201 150 315q149 113 362 113q353 0 528 -227l-256 -220q-94 113 -258 113q-73 0 -114 -24.5t-41 -63.5q0 -31 12.5 -50t44.5 -32 q34 -15 72 -24q101 -21 252 -76q182 -65 264 -164.5t82 -247.5q0 -212 -145.5 -332t-424.5 -120q-240 0 -395 88q-152 88 -235 215z" />
<glyph unicode="T" horiz-adv-x="1171" d="M10 1075v352h1151v-352h-377v-1075h-389v1075h-385z" />
<glyph unicode="U" horiz-adv-x="1482" d="M100 614v813h389v-772q0 -172 63 -247.5t189 -75.5t189 75.5t63 247.5v772h389v-813q0 -309 -182 -473q-179 -161 -459 -161q-279 0 -458 161q-183 165 -183 473z" />
<glyph unicode="V" horiz-adv-x="1538" d="M12 1427h412l346 -874l344 874h412l-578 -1427h-358z" />
<glyph unicode="W" horiz-adv-x="2025" d="M20 1427h381l244 -778l211 778h313l211 -776l244 776h381l-440 -1427h-342l-211 733l-209 -733h-344z" />
<glyph unicode="X" horiz-adv-x="1417" d="M4 0l473 729l-448 698h430l250 -395l249 395h431l-449 -698l473 -729h-424l-280 436l-281 -436h-424z" />
<glyph unicode="Y" horiz-adv-x="1466" d="M2 1427h418l313 -555l314 555h417l-538 -921v-506h-385v506z" />
<glyph unicode="Z" horiz-adv-x="1351" d="M66 0v270l702 805h-643v352h1151v-301l-678 -774h692v-352h-1224z" />
<glyph unicode="[" horiz-adv-x="835" d="M115 -512v1939h708v-319h-352v-1301h352v-319h-708z" />
<glyph unicode="\" horiz-adv-x="960" d="M8 1481h336l684 -1760h-336z" />
<glyph unicode="]" horiz-adv-x="835" d="M12 -193h353v1301h-353v319h709v-1939h-709v319z" />
<glyph unicode="^" horiz-adv-x="1097" d="M10 717l398 710h282l397 -710h-360l-178 348l-178 -348h-361z" />
<glyph unicode="_" horiz-adv-x="987" d="M-25 -61h1037v-281h-1037v281z" />
<glyph unicode="`" horiz-adv-x="1044" d="M242 1427h389l100 -297h-278z" />
<glyph unicode="a" horiz-adv-x="1366" d="M49 516q0 218 146 373q143 155 364 155q223 0 285 -120v108h370v-608q0 -60 17.5 -84.5t58.5 -24.5q13 0 49 4v-317q-66 -16 -157 -16q-110 0 -170 32q-60 29 -92 91q-91 -125 -320 -125q-246 0 -399 153q-152 155 -152 379zM424 516q0 -84 63.5 -142.5t151.5 -58.5 t151.5 59.5t63.5 141.5q0 80 -63.5 138.5t-151.5 58.5t-151.5 -58.5t-63.5 -138.5z" />
<glyph unicode="b" horiz-adv-x="1308" d="M94 0v1427h371v-503q59 120 285 120q221 0 364 -155q146 -155 146 -373q0 -220 -146 -375q-144 -153 -364 -153q-226 0 -285 121v-109h-371zM455 516q0 -81 63.5 -139t151.5 -58t151.5 58t63.5 139q0 80 -63.5 138.5t-151.5 58.5t-151.5 -58.5t-63.5 -138.5z" />
<glyph unicode="c" horiz-adv-x="1107" d="M49 520q0 234 168 389q169 156 414 156q257 0 448 -209l-241 -231q-89 92 -207 92q-87 0 -147 -56.5t-60 -140.5t60 -140t147 -56q118 0 207 92l241 -232q-191 -209 -448 -209q-245 0 -414 156q-168 155 -168 389z" />
<glyph unicode="d" horiz-adv-x="1366" d="M49 516q0 218 146 373q143 155 364 155q223 0 285 -120v503h370v-1003q0 -60 17.5 -84.5t58.5 -24.5q13 0 49 4v-317q-66 -16 -157 -16q-110 0 -170 32q-60 29 -92 91q-91 -125 -320 -125q-246 0 -399 153q-152 155 -152 379zM424 516q0 -84 63.5 -142.5t151.5 -58.5 t151.5 59.5t63.5 141.5q0 80 -63.5 138.5t-151.5 58.5t-151.5 -58.5t-63.5 -138.5z" />
<glyph unicode="e" horiz-adv-x="1226" d="M49 512v10q0 243 164 387q165 148 418 148q244 0 401 -154q156 -150 156 -375q0 -58 -6 -114h-754q4 -55 66.5 -88t162.5 -33q133 0 222 80l215 -205q-191 -191 -457 -191q-260 0 -426 146q-162 146 -162 389zM430 643h381q0 50 -53.5 86.5t-126.5 36.5q-79 0 -137.5 -36 t-63.5 -87z" />
<glyph unicode="f" horiz-adv-x="831" d="M43 702v330h172v2q0 127 30.5 205t98.5 133q104 84 320 84q58 0 143 -12v-297q-33 10 -88 10q-129 0 -129 -106v-19h198v-330h-194v-702h-379v702h-172z" />
<glyph unicode="g" horiz-adv-x="1300" d="M51 516q0 218 146 373q143 155 364 155q227 0 285 -120v108h371v-860q0 -177 -43 -298t-144 -200q-152 -125 -387 -125q-315 0 -514 140l170 258q147 -84 281 -84q120 0 190 43q92 53 92 196v4q-64 -110 -301 -110q-219 0 -364 151q-146 152 -146 369zM424 516 q0 -82 62 -138t153 -56q88 0 151.5 56.5t63.5 137.5q0 80 -63.5 138.5t-151.5 58.5t-151.5 -58.5t-63.5 -138.5z" />
<glyph unicode="h" horiz-adv-x="1265" d="M94 0v1427h379v-522q87 152 277 152q188 0 287.5 -116t99.5 -331v-180q0 -58 14.5 -83t50.5 -25l29 2v-322q-59 -16 -164 -16q-309 0 -309 323v262q0 76 -35 119t-100 43q-66 0 -108 -47t-42 -119v-567h-379z" />
<glyph unicode="i" horiz-adv-x="606" d="M74 1286q0 86 61 146q61 62 147 62t148 -62q62 -60 62 -146t-62 -147q-62 -60 -147.5 -60t-147.5 60q-61 61 -61 147zM94 309v723h379v-602q0 -58 15 -83t51 -25l28 2v-322q-59 -16 -164 -16q-309 0 -309 323z" />
<glyph unicode="j" horiz-adv-x="557" d="M-84 -119q62 -4 64 -4q60 0 86 27t26 90v1038h379v-1093q0 -392 -385 -392q-95 0 -170 11v323zM72 1286q0 86 61.5 146.5t147.5 60.5t147 -60.5t61 -146.5q0 -84 -61 -145q-62 -62 -147 -62q-86 0 -148 62q-61 61 -61 145z" />
<glyph unicode="k" horiz-adv-x="1191" d="M94 0v1427h379v-745l301 350h416l-406 -469l437 -563h-416l-262 332l-70 -76v-256h-379z" />
<glyph unicode="l" horiz-adv-x="669" d="M86 371v1056h379v-1003q0 -63 26.5 -91t86.5 -28q38 0 73 6v-319q-80 -17 -178 -17q-387 0 -387 396z" />
<glyph unicode="m" horiz-adv-x="1849" d="M94 0v1032h379v-127q84 152 258 152q209 0 283 -160q109 160 342 160q177 0 270.5 -116t93.5 -331v-180q0 -58 15 -83t51 -25l29 2v-322q-59 -16 -164 -16q-310 0 -310 323v256q0 74 -29.5 117t-82.5 43q-56 0 -91.5 -46.5t-35.5 -119.5v-559h-379v565q0 74 -32 117 t-87 43q-56 0 -93.5 -46.5t-37.5 -119.5v-559h-379z" />
<glyph unicode="n" horiz-adv-x="1282" d="M94 0v1032h379v-127q90 152 285 152q191 0 293 -116t102 -331v-180q0 -58 15 -83t51 -25l28 2v-322q-59 -16 -164 -16q-309 0 -309 323v256q0 74 -38 117t-105 43q-69 0 -113.5 -46.5t-44.5 -119.5v-559h-379z" />
<glyph unicode="o" horiz-adv-x="1269" d="M49 516q0 226 170 385q171 162 416 162q243 0 414 -162q172 -159 172 -385q0 -224 -172 -387q-174 -160 -414 -160q-242 0 -416 160q-170 164 -170 387zM422 516q0 -82 63 -141.5t150 -59.5q83 0 149 60q64 58 64 141t-64 141q-66 60 -149 60q-87 0 -150 -59.5 t-63 -141.5z" />
<glyph unicode="p" horiz-adv-x="1308" d="M94 -395v1427h371v-108q59 120 285 120q221 0 364 -155q146 -155 146 -373q0 -220 -146 -375q-144 -153 -364 -153q-226 0 -285 121v-504h-371zM455 516q0 -81 63.5 -139t151.5 -58t151.5 58t63.5 139q0 80 -63.5 138.5t-151.5 58.5t-151.5 -58.5t-63.5 -138.5z" />
<glyph unicode="q" horiz-adv-x="1296" d="M49 516q0 218 146 373q143 155 364 155q223 0 285 -120v108h370v-1427h-370v504q-62 -121 -285 -121q-220 0 -364 153q-146 155 -146 375zM424 516q0 -81 63.5 -139t151.5 -58t151.5 58t63.5 139q0 80 -63.5 138.5t-151.5 58.5t-151.5 -58.5t-63.5 -138.5z" />
<glyph unicode="r" horiz-adv-x="882" d="M94 0v1032h379v-127q90 152 291 152q13 0 49 -3t39 -3v-344q-58 10 -102 10q-134 0 -205.5 -67t-71.5 -191v-459h-379z" />
<glyph unicode="s" horiz-adv-x="1028" d="M14 125l201 254q112 -92 309 -92q61 0 88 10t27 39q0 22 -45 31q-44 12 -131 24q-80 14 -152 37q-217 76 -217 277q0 175 131 266q133 92 312 92q203 0 381 -111l-148 -254q-117 66 -246 66q-92 0 -92 -43q0 -26 25 -35l116 -20q104 -18 187 -48q227 -76 227 -278 q0 -175 -122 -273t-359 -98q-286 0 -492 156z" />
<glyph unicode="t" horiz-adv-x="761" d="M10 702v330h142v395h378v-395h213v-330h-213v-280q0 -62 26.5 -89.5t86.5 -27.5q34 0 70 8v-321q-80 -17 -176 -17q-385 0 -385 394v333h-142z" />
<glyph unicode="u" horiz-adv-x="1282" d="M86 422v610h379v-565q0 -76 36 -120t101 -44q66 0 109 48t43 122v559h376v-608q0 -60 17.5 -84.5t58.5 -24.5q13 0 49 4v-317q-66 -16 -157 -16q-110 0 -174 34q-58 34 -84 82q-91 -131 -326 -131q-208 0 -318 117t-110 334z" />
<glyph unicode="v" horiz-adv-x="1220" d="M-8 1032h381l237 -594l238 594h381l-443 -1032h-352z" />
<glyph unicode="w" horiz-adv-x="1536" d="M-6 1032h342l143 -495l139 495h300l139 -495l143 495h342l-305 -1032h-326l-143 512l-143 -512h-326z" />
<glyph unicode="x" horiz-adv-x="1173" d="M-16 0l387 541l-346 491h411l152 -215l151 215h412l-346 -491l387 -541h-414l-190 262l-191 -262h-413z" />
<glyph unicode="y" d="M10 1032h381l256 -643l227 643h381l-456 -1190q-52 -137 -125 -198q-120 -97 -314 -97q-82 0 -149 15v311q35 -14 133 -14q65 0 98 20q23 16 23 49l-4 11z" />
<glyph unicode="z" horiz-adv-x="1126" d="M25 0v242l520 460h-471v330h993v-268l-473 -434h489v-330h-1058z" />
<glyph unicode="{" horiz-adv-x="798" d="M41 455v168q48 3 92 20q82 37 82 141v381q0 115 70 188.5t176 73.5h266v-305h-70q-51 0 -75.5 -25t-24.5 -65v-235q0 -141 -98 -205q-55 -36 -121 -53q64 -16 121 -54q98 -64 98 -204v-236q0 -40 24.5 -65t75.5 -25h70v-305h-266q-106 0 -176 73.5t-70 188.5v381 q0 104 -82 141q-47 17 -80 21h-12z" />
<glyph unicode="|" horiz-adv-x="606" d="M125 -57v1542h356v-1542h-356z" />
<glyph unicode="}" horiz-adv-x="798" d="M72 -45h69q51 0 76 25t25 65v236q0 140 98 204q57 38 121 54q-66 17 -121 53q-98 64 -98 205v235q0 40 -25 65t-76 25h-69v305h266q106 0 176 -73.5t70 -188.5v-381q0 -104 82 -141q43 -16 79 -20h13v-168q-45 -3 -92 -21q-82 -37 -82 -141v-381q0 -115 -70 -188.5 t-176 -73.5h-266v305z" />
<glyph unicode="~" horiz-adv-x="1007" d="M49 586q19 158 98.5 251t204.5 93q81 0 172 -45t144 -45q69 0 90 86l200 -33q-43 -358 -307 -358q-80 0 -176 45t-143 45q-70 0 -82 -72z" />
<glyph unicode="&#xa1;" horiz-adv-x="638" d="M96 -395l58 1003h329l58 -1003h-445zM121 856q0 82 57 139q60 57 142 57t139 -57q60 -57 60 -139t-60 -139q-57 -57 -139 -57t-142 57q-57 57 -57 139z" />
<glyph unicode="&#xa2;" horiz-adv-x="1099" d="M49 723q0 234 168 389q169 156 410 156h10l29 159h180l-35 -188q143 -48 260 -174l-227 -219q-48 48 -94 69l-78 -407h2q93 9 170 92l227 -219q-188 -203 -444 -203h-19l-33 -178h-180l41 207q-170 52 -280 192q-107 137 -107 324zM401 723q0 -121 105 -186l76 399h-2 q-79 -17 -129 -75.5t-50 -137.5z" />
<glyph unicode="&#xa3;" horiz-adv-x="1234" d="M53 0v260h19q170 0 248.5 56t78.5 149q0 31 -30 102h-244v240h111q-68 133 -68 221q0 178 143 303q145 127 348 127q195 0 326 -131q135 -132 135 -319h-321q0 41 -40 69.5t-97 28.5q-51 0 -90.5 -36t-39.5 -83q0 -61 84 -180h345v-240h-216q29 -66 29 -102 q0 -107 -80 -154h500v-311h-1141z" />
<glyph unicode="&#xa4;" horiz-adv-x="1388" d="M61 281l181 157q-68 112 -68 244t68 244l-181 157l226 226l166 -191q110 58 241 58q130 0 240 -58l168 191l225 -226l-180 -157q67 -113 67 -244.5t-67 -243.5l180 -157l-225 -226l-168 189q-115 -56 -240 -56q-126 0 -241 56l-166 -189zM516 682.5q0 -71.5 51 -125.5 q54 -51 127.5 -51t124.5 51q54 54 54 125.5t-54 122.5q-51 54 -124.5 54t-127.5 -54q-51 -51 -51 -122.5z" />
<glyph unicode="&#xa5;" horiz-adv-x="1466" d="M2 1427h418l313 -555l314 555h417l-307 -522h203v-246h-346l-86 -149h432v-246h-434v-264h-385v264h-435v246h433l-88 149h-345v246h201z" />
<glyph unicode="&#xa6;" horiz-adv-x="606" d="M125 0v602h356v-602h-356zM125 850v577h356v-577h-356z" />
<glyph unicode="&#xa7;" horiz-adv-x="1177" d="M55 547q0 168 129 270q-86 89 -86 219q0 190 148 305q150 117 340 117q235 0 368 -127t133 -317h-360q-11 72 -40.5 105.5t-92.5 33.5q-51 0 -88 -29.5t-37 -72.5q0 -72 43 -99q42 -31 252 -98q354 -114 354 -369q0 -171 -129 -270q86 -92 86 -219q0 -192 -149 -305 q-147 -117 -338 -117q-238 0 -371 127q-131 125 -131 317h360q11 -71 41 -105t93 -34q50 0 87.5 30t37.5 73q0 54 -37 88q-19 18 -56.5 36.5t-66.5 26.5l-76 25l-59 20q-355 111 -355 369zM418 553q0 -68 90 -107q74 -32 162 -57l39 -12q47 41 47 102q0 66 -90 107 q-77 35 -164 57l-37 10q-47 -41 -47 -100z" />
<glyph unicode="&#xa8;" horiz-adv-x="1044" d="M140 1293q9 37 30.5 69t58 51t78.5 17q72 0 121 -47t49 -115q3 -49 -28.5 -89.5t-77 -59t-98 -11t-87.5 44.5q-31 27 -43 65t-3 75zM570 1293q9 37 30.5 69t58 51t78.5 17q72 0 121 -47t49 -115q3 -49 -28.5 -89.5t-77 -59t-98 -11t-87.5 44.5q-31 27 -43 65t-3 75z" />
<glyph unicode="&#xa9;" horiz-adv-x="1652" d="M61 713q0 299 218 528q216 229 546 229q193 0 371 -96t285 -270q110 -174 110 -391q0 -302 -221 -531q-217 -227 -545 -227q-192 0 -368 92q-170 93 -285 270q-111 176 -111 396zM328 713q0 -203 145 -348q147 -144 352 -144q209 0 353 144q147 144 147 348 q0 202 -147 346q-145 145 -353 145q-204 0 -352 -145q-145 -145 -145 -346zM418 711q0 168 123 282q124 115 301 115q183 0 323 -162l-192 -180q-57 57 -131 57q-48 0 -83.5 -32.5t-35.5 -79.5q0 -49 35.5 -82t83.5 -33q75 0 131 59l192 -180q-143 -162 -323 -162 q-179 0 -301 113q-123 114 -123 285z" />
<glyph unicode="&#xaa;" horiz-adv-x="976" d="M84 868q0 113 82 174t270 84q99 20 115 33q8 8 8 21q0 28 -65 28q-121 0 -205 -90l-156 148q126 172 356 172q176 0 271.5 -72t95.5 -203v-256q0 -33 13 -46t38 -13v-191q-41 -18 -100 -18q-85 0 -129 29q-25 19 -43 53q-70 -88 -262 -88q-129 0 -209 64.5t-80 170.5z M381 907q0 -28 47 -28q129 0 129 96v4q-5 -4 -24.5 -8.5t-49 -9t-41.5 -7.5q-61 -15 -61 -47z" />
<glyph unicode="&#xab;" horiz-adv-x="1316" d="M59 518l258 393h390l-267 -393l267 -393h-390zM614 518l258 393h390l-267 -393l267 -393h-390z" />
<glyph unicode="&#xac;" horiz-adv-x="1355" d="M96 797v319h1164v-670h-357v351h-807z" />
<glyph unicode="&#xad;" horiz-adv-x="942" d="M76 428v320h790v-320h-790z" />
<glyph unicode="&#xae;" horiz-adv-x="868" d="M47 1087q0 156 113 263q114 108 274 108t273 -110q114 -108 114 -261q0 -154 -116 -264q-114 -108 -271 -108q-161 0 -274 110t-113 262zM205 1087q0 -94 66 -158.5t163 -64.5t163.5 64.5t66.5 158.5q0 93 -67 157.5t-163 64.5t-162.5 -64.5t-66.5 -157.5zM307 942v299 h148q44 0 77 -33.5t33 -77.5q0 -58 -45 -81l70 -107h-127l-45 78h-2v-78h-109zM414 1102h28q14 0 20 11t1 22.5t-17 11.5h-32v-45z" />
<glyph unicode="&#xaf;" horiz-adv-x="1044" d="M186 1141v223h672v-223h-672z" />
<glyph unicode="&#xb0;" horiz-adv-x="909" d="M70 1073q0 150 112 256q113 107 275 107q157 0 270 -107t113 -256q0 -153 -113 -260q-112 -106 -270 -106q-163 0 -275 106t-112 260zM324 1073q0 -54 39 -92.5t94 -38.5q54 0 92.5 38.5t38.5 92.5q0 51 -38.5 89t-92.5 38q-55 0 -94 -38t-39 -89z" />
<glyph unicode="&#xb1;" horiz-adv-x="1228" d="M98 0v319h1032v-319h-1032zM98 754v319h338v354h357v-354h337v-319h-337v-355h-357v355h-338z" />
<glyph unicode="&#xb2;" horiz-adv-x="696" d="M31 672v186l338 240q39 26 39 59q0 29 -15.5 47.5t-38.5 18.5q-29 0 -49 -24.5t-20 -61.5h-236q0 129 88 217t215 88q121 0 205 -78t84 -190q0 -98 -84 -173l-121 -90h232v-239h-637z" />
<glyph unicode="&#xb3;" horiz-adv-x="681" d="M2 795l195 145q49 -43 94 -43q80 0 80 49t-78 49q-59 0 -105 -24l-65 123l174 94h-229v239h526v-186l-135 -86h2q84 -20 132 -78t48 -133q0 -120 -94.5 -201t-251.5 -81q-184 0 -293 133z" />
<glyph unicode="&#xb4;" horiz-adv-x="1044" d="M307 1130l101 297h389l-211 -297h-279z" />
<glyph unicode="&#xb6;" horiz-adv-x="1636" d="M27 907q0 218 155 367q156 153 377 153h1053v-352h-139v-1075h-383v1075h-168v-1075h-387v399q-208 9 -361 156q-147 144 -147 352z" />
<glyph unicode="&#xb7;" horiz-adv-x="466" d="M33 518q0 82 57 139q60 57 142 57t139 -57q60 -57 60 -139t-60 -139q-57 -57 -139 -57t-142 57q-57 57 -57 139z" />
<glyph unicode="&#xb8;" horiz-adv-x="1044" d="M268 -406l70 148q42 -25 90 -25q31 0 50.5 16t19.5 42q0 37 -26 53t-83 16l66 156h196l-43 -94q58 0 96.5 -44t38.5 -112q0 -102 -71 -159.5t-193 -57.5q-129 0 -211 61z" />
<glyph unicode="&#xb9;" horiz-adv-x="507" d="M41 1188v239h393v-755h-272v516h-121z" />
<glyph unicode="&#xba;" horiz-adv-x="968" d="M49 1044q0 162 127 283t307 121q178 0 308 -121q129 -120 129 -283q0 -166 -129 -286q-128 -119 -308 -119q-182 0 -307 119q-127 121 -127 286zM385 1044q0 -35 30 -62.5t68 -27.5q37 0 68 27.5t31 62.5q0 32 -31 60.5t-68 28.5q-36 0 -67 -28.5t-31 -60.5z" />
<glyph unicode="&#xbb;" horiz-adv-x="1316" d="M55 125l267 393l-267 393h389l258 -393l-258 -393h-389zM610 125l267 393l-267 393h389l258 -393l-258 -393h-389z" />
<glyph unicode="&#xbc;" horiz-adv-x="1568" d="M41 1188v239h393v-755h-272v516h-121zM80 0l995 1427h334l-995 -1427h-334zM879 121v180l225 457h250l-217 -424h139v143h235v-477h-235v121h-397z" />
<glyph unicode="&#xbd;" horiz-adv-x="1525" d="M41 0l995 1427h334l-995 -1427h-334zM41 1188v239h393v-755h-272v516h-121zM860 0v186l338 240q39 26 39 59q0 29 -15 47.5t-38 18.5q-29 0 -49.5 -24.5t-20.5 -61.5h-235q0 129 88 217t215 88q120 0 204 -78t84 -190q0 -97 -84 -172l-120 -90h231v-240h-637z" />
<glyph unicode="&#xbe;" horiz-adv-x="1597" d="M2 795l195 145q49 -43 94 -43q80 0 80 49t-78 49q-59 0 -105 -24l-65 123l174 94h-229v239h526v-186l-135 -86h2q84 -20 132 -78t48 -133q0 -120 -94.5 -201t-251.5 -81q-184 0 -293 133zM129 0l995 1427h334l-995 -1427h-334zM907 121v180l226 457h249l-217 -424h140 v143h235v-477h-235v121h-398z" />
<glyph unicode="&#xbf;" horiz-adv-x="935" d="M53 -92q0 122 54.5 198t193.5 136q6 3 36 15t36 15q47 17 47 52q0 43 -76 43q-91 0 -156 -41v272q118 53 240 53q153 0 254 -90q98 -88 98 -231q0 -202 -233 -310q-11 -6 -30.5 -14t-31 -13.5t-24 -13t-18.5 -15t-5 -15.5q0 -31 76 -31q172 0 330 152v-387 q-149 -113 -352 -113q-199 0 -318 94q-121 92 -121 244zM272 865.5q0 77.5 56 131.5q57 55 136.5 55t135.5 -55q57 -54 57 -131.5t-57 -132.5q-56 -54 -135.5 -54t-136.5 54q-56 55 -56 132.5z" />
<glyph unicode="&#xc0;" horiz-adv-x="1511" d="M12 0l582 1427h356l582 -1427h-412l-73 186h-549l-76 -186h-410zM436 1823h389l101 -297h-279zM600 487h344l-172 443z" />
<glyph unicode="&#xc1;" horiz-adv-x="1544" d="M12 0l582 1427h356l582 -1427h-412l-73 186h-549l-76 -186h-410zM600 487h344l-172 443zM618 1526l101 297h389l-211 -297h-279z" />
<glyph unicode="&#xc2;" horiz-adv-x="1544" d="M12 0l582 1427h356l582 -1427h-412l-73 186h-549l-76 -186h-410zM358 1548l316 248h198l316 -248h-318l-98 94l-96 -94h-318zM600 487h344l-172 443z" />
<glyph unicode="&#xc3;" horiz-adv-x="1544" d="M12 0l582 1427h356l582 -1427h-412l-73 186h-549l-76 -186h-410zM315 1559q19 138 98.5 220.5t204.5 82.5q84 0 183 -45q102 -45 153 -45q69 0 90 86l201 -33q-44 -318 -307 -318q-84 0 -186 45t-154 45q-70 0 -82 -71zM600 487h344l-172 443z" />
<glyph unicode="&#xc4;" horiz-adv-x="1544" d="M12 0l582 1427h356l582 -1427h-412l-73 186h-549l-76 -186h-410zM277 1533.5q-8 49.5 11 92.5t61.5 72.5t94.5 27.5q72 0 121 -46.5t49 -114.5q3 -49 -28.5 -89.5t-76.5 -59t-97.5 -11t-87.5 44.5q-39 34 -47 83.5zM600 487h344l-172 443zM934.5 1533.5 q-7.5 49.5 11.5 92.5t61.5 72.5t94.5 27.5q72 0 121 -46.5t49 -114.5q3 -49 -28.5 -89.5t-77 -59t-98 -11t-87.5 44.5q-39 34 -46.5 83.5z" />
<glyph unicode="&#xc5;" horiz-adv-x="1544" d="M12 0l568 1325q-74 74 -74 174q0 104 80 178q82 76 194 76q115 0 191 -76q80 -74 80 -178q0 -103 -80 -180l561 -1319h-412l-73 186h-549l-76 -186h-410zM600 487h344l-172 431zM711.5 1517q-10.5 -35 17.5 -67q19 -17 42.5 -19t40.5 9.5t28.5 28.5t9 39t-20.5 40 q-28 32 -67.5 18t-50 -49z" />
<glyph unicode="&#xc6;" horiz-adv-x="1966" d="M-94 0l1175 1427h787v-350h-500v-196h461v-320h-461v-217h516v-344h-899v186h-485l-158 -186h-436zM737 487h248v299z" />
<glyph unicode="&#xc7;" horiz-adv-x="1458" d="M61 713q0 315 226 524q227 211 553 211q172 0 326.5 -73.5t265.5 -205.5l-265 -221q-137 152 -327 152q-163 0 -277 -111q-112 -109 -112 -276q0 -168 112 -277q114 -108 277 -108q191 0 327 151l265 -221q-206 -247 -521 -274h-2l-32 -78q58 0 96.5 -44t38.5 -112 q0 -102 -71 -159.5t-193 -57.5q-129 0 -211 61l69 148q42 -25 90 -25q31 0 50.5 16t19.5 42q0 37 -26 53t-83 16l60 144q-283 41 -469 239q-187 202 -187 486z" />
<glyph unicode="&#xc8;" d="M117 0v1427h1052v-350h-663v-196h618v-320h-618v-217h680v-344h-1069zM371 1823h348l108 -297h-266z" />
<glyph unicode="&#xc9;" d="M117 0v1427h1052v-350h-663v-196h618v-320h-618v-217h680v-344h-1069zM489 1526l101 297h389l-211 -297h-279z" />
<glyph unicode="&#xca;" d="M117 0v1427h1052v-350h-663v-196h618v-320h-618v-217h680v-344h-1069zM236 1548l315 248h199l315 -248h-317l-99 94l-96 -94h-317z" />
<glyph unicode="&#xcb;" d="M117 0v1427h1052v-350h-663v-196h618v-320h-618v-217h680v-344h-1069zM263 1688q9 37 30.5 69t58 51t78.5 17q72 0 121 -47t49 -115q3 -49 -28.5 -89.5t-77 -59t-98 -11t-87.5 44.5q-31 27 -43 65t-3 75zM693 1688q9 37 30.5 69t58 51t78.5 17q72 0 121 -47t49 -115 q3 -49 -28.5 -89.5t-77 -59t-98 -11t-87.5 44.5q-31 27 -43 65t-3 75z" />
<glyph unicode="&#xcc;" horiz-adv-x="638" d="M16 1823h390l100 -297h-279zM125 0v1427h389v-1427h-389z" />
<glyph unicode="&#xcd;" horiz-adv-x="638" d="M125 0v1427h389v-1427h-389zM133 1526l100 297h390l-211 -297h-279z" />
<glyph unicode="&#xce;" horiz-adv-x="638" d="M-94 1548l315 248h199l315 -248h-317l-99 94l-96 -94h-317zM125 0v1427h389v-1427h-389z" />
<glyph unicode="&#xcf;" horiz-adv-x="638" d="M-63 1631.5q-8 49.5 11.5 92.5t61.5 73t94 28q72 0 121 -47t49 -115q3 -49 -28.5 -89.5t-77 -59t-97 -11t-85.5 44.5q-41 34 -49 83.5zM125 0v1427h389v-1427h-389zM368 1688q9 37 30.5 69t58 51t78.5 17q72 0 121 -47t49 -115q3 -49 -28.5 -89.5t-77 -59t-98 -11 t-87.5 44.5q-31 27 -43 65t-3 75z" />
<glyph unicode="&#xd0;" horiz-adv-x="1550" d="M-10 535v352h153v540h580q372 0 567 -198q199 -199 199 -518q0 -324 -197 -518q-193 -193 -567 -193h-582v535h-153zM532 352h168q251 0 328 109q40 52 55 109.5t15 140.5q0 82 -15 138t-55 105q-85 105 -330 105h-166v-172h271v-352h-271v-183z" />
<glyph unicode="&#xd1;" horiz-adv-x="1552" d="M117 0v1427h348l598 -765v765h373v-1427h-318l-629 797v-797h-372zM309 1559q19 138 98.5 220.5t204.5 82.5q84 0 183 -45q102 -45 153 -45q69 0 90 86l201 -33q-44 -318 -307 -318q-85 0 -187 45t-153 45q-70 0 -82 -71z" />
<glyph unicode="&#xd2;" horiz-adv-x="1697" d="M61 709q0 305 230 522t557 217t557 -217q231 -215 231 -522q0 -305 -231 -523q-232 -215 -557 -215t-557 215q-230 217 -230 523zM459 709q0 -165 112 -277q113 -113 277 -113q159 0 274 115q117 117 117 275q0 157 -117 274q-114 117 -274 117q-161 0 -275 -117 q-114 -114 -114 -274zM492 1823h389l100 -297h-279z" />
<glyph unicode="&#xd3;" horiz-adv-x="1697" d="M61 709q0 305 230 522t557 217t557 -217q231 -215 231 -522q0 -305 -231 -523q-232 -215 -557 -215t-557 215q-230 217 -230 523zM459 709q0 -165 112 -277q113 -113 277 -113q159 0 274 115q117 117 117 275q0 157 -117 274q-114 117 -274 117q-161 0 -275 -117 q-114 -114 -114 -274zM707 1526l100 297h389l-211 -297h-278z" />
<glyph unicode="&#xd4;" horiz-adv-x="1697" d="M61 709q0 305 230 522t557 217t557 -217q231 -215 231 -522q0 -305 -231 -523q-232 -215 -557 -215t-557 215q-230 217 -230 523zM436 1526l316 248h198l316 -248h-318l-98 94l-96 -94h-318zM459 709q0 -165 112 -277q113 -113 277 -113q159 0 274 115q117 117 117 275 q0 157 -117 274q-114 117 -274 117q-161 0 -275 -117q-114 -114 -114 -274z" />
<glyph unicode="&#xd5;" horiz-adv-x="1697" d="M61 709q0 305 230 522t557 217t557 -217q231 -215 231 -522q0 -305 -231 -523q-232 -215 -557 -215t-557 215q-230 217 -230 523zM385 1559q19 138 98.5 220.5t204.5 82.5q83 0 182 -45q102 -45 154 -45q69 0 90 86l201 -33q-44 -318 -307 -318q-85 0 -187 45t-153 45 q-70 0 -82 -71zM459 709q0 -165 112 -277q113 -113 277 -113q159 0 274 115q117 117 117 275q0 157 -117 274q-114 117 -274 117q-161 0 -275 -117q-114 -114 -114 -274z" />
<glyph unicode="&#xd6;" horiz-adv-x="1697" d="M61 709q0 305 230 522t557 217t557 -217q231 -215 231 -522q0 -305 -231 -523q-232 -215 -557 -215t-557 215q-230 217 -230 523zM459 709q0 -165 112 -277q113 -113 277 -113q159 0 274 115q117 117 117 275q0 157 -117 274q-114 117 -274 117q-161 0 -275 -117 q-114 -114 -114 -274zM468 1688q9 37 30.5 69t58 51t78.5 17q72 0 121 -47t49 -115q3 -49 -28.5 -89.5t-77 -59t-98 -11t-87.5 44.5q-31 27 -43 65t-3 75zM898 1688q9 37 30.5 69t58 51t78.5 17q72 0 121 -47t49 -115q3 -49 -28.5 -89.5t-77 -59t-98 -11t-87.5 44.5 q-31 27 -43 65t-3 75z" />
<glyph unicode="&#xd7;" horiz-adv-x="1036" d="M78 471l213 213l-213 213l225 227l215 -215l215 215l225 -227l-213 -213l213 -213l-225 -227l-215 213l-215 -213z" />
<glyph unicode="&#xd8;" horiz-adv-x="1693" d="M61 713q0 306 230 520q232 215 555 215q175 0 332 -68l131 166l250 -198l-119 -150q196 -205 196 -485q0 -307 -231 -525q-230 -217 -559 -217q-164 0 -324 66l-135 -172l-250 198l123 156q-199 208 -199 494zM459 713q0 -102 45 -185l440 557q-52 15 -98 15 q-160 0 -275 -115q-112 -112 -112 -272zM760 336q31 -8 86 -8q158 0 272 114q117 114 117 271q0 87 -43 172z" />
<glyph unicode="&#xd9;" horiz-adv-x="1482" d="M100 614v813h389v-772q0 -172 63 -247.5t189 -75.5t189 75.5t63 247.5v772h389v-813q0 -309 -182 -473q-179 -161 -459 -161q-279 0 -458 161q-183 165 -183 473zM426 1823h389l100 -297h-278z" />
<glyph unicode="&#xda;" horiz-adv-x="1482" d="M100 614v813h389v-772q0 -172 63 -247.5t189 -75.5t189 75.5t63 247.5v772h389v-813q0 -309 -182 -473q-179 -161 -459 -161q-279 0 -458 161q-183 165 -183 473zM594 1526l100 297h389l-211 -297h-278z" />
<glyph unicode="&#xdb;" horiz-adv-x="1482" d="M100 614v813h389v-772q0 -172 63 -247.5t189 -75.5t189 75.5t63 247.5v772h389v-813q0 -309 -182 -473q-179 -161 -459 -161q-279 0 -458 161q-183 165 -183 473zM328 1526l315 248h199l315 -248h-317l-99 94l-96 -94h-317z" />
<glyph unicode="&#xdc;" horiz-adv-x="1482" d="M100 614v813h389v-772q0 -172 63 -247.5t189 -75.5t189 75.5t63 247.5v772h389v-813q0 -309 -182 -473q-179 -161 -459 -161q-279 0 -458 161q-183 165 -183 473zM359 1631.5q-8 49.5 11 92.5t61.5 73t94.5 28q72 0 121 -47t49 -115q3 -49 -28.5 -89.5t-76.5 -59 t-97.5 -11t-87.5 44.5q-39 34 -47 83.5zM789 1631.5q-8 49.5 11 92.5t61.5 73t94.5 28q72 0 121 -47t49 -115q3 -49 -28.5 -89.5t-76.5 -59t-97.5 -11t-87.5 44.5q-39 34 -47 83.5z" />
<glyph unicode="&#xdd;" horiz-adv-x="1466" d="M2 1427h418l313 -555l314 555h417l-538 -921v-506h-385v506zM580 1526l100 297h389l-211 -297h-278z" />
<glyph unicode="&#xde;" horiz-adv-x="1193" d="M117 0v1427h389v-233h125q216 0 366 -141q152 -143 152 -342t-152 -342q-151 -142 -366 -142h-125v-227h-389zM506 575h125q55 0 95 40t40 96q0 55 -40 95t-95 40h-125v-271z" />
<glyph unicode="&#xdf;" d="M94 0v1061q0 167 127 282t316 115t313 -112q129 -111 129 -271q0 -69 -33 -119q124 -56 198.5 -174.5t74.5 -263.5q0 -230 -154 -387q-150 -156 -385 -156q-74 0 -145 11v338q35 -9 104 -9q91 0 155 59t64 144q0 80 -65 139q-66 60 -154 60q-42 0 -104 -10v229 q104 9 104 100q0 33 -24.5 56.5t-59.5 23.5t-58.5 -26.5t-23.5 -63.5v-1026h-379z" />
<glyph unicode="&#xe0;" horiz-adv-x="1366" d="M49 516q0 218 146 373q143 155 364 155q223 0 285 -120v108h370v-608q0 -60 17.5 -84.5t58.5 -24.5q13 0 49 4v-317q-66 -16 -157 -16q-110 0 -170 32q-60 29 -92 91q-91 -125 -320 -125q-246 0 -399 153q-152 155 -152 379zM385 1427h389l100 -297h-278zM424 516 q0 -84 63.5 -142.5t151.5 -58.5t151.5 59.5t63.5 141.5q0 80 -63.5 138.5t-151.5 58.5t-151.5 -58.5t-63.5 -138.5z" />
<glyph unicode="&#xe1;" horiz-adv-x="1366" d="M49 516q0 218 146 373q143 155 364 155q223 0 285 -120v108h370v-608q0 -60 17.5 -84.5t58.5 -24.5q13 0 49 4v-317q-66 -16 -157 -16q-110 0 -170 32q-60 29 -92 91q-91 -125 -320 -125q-246 0 -399 153q-152 155 -152 379zM424 516q0 -84 63.5 -142.5t151.5 -58.5 t151.5 59.5t63.5 141.5q0 80 -63.5 138.5t-151.5 58.5t-151.5 -58.5t-63.5 -138.5zM543 1130l100 297h389l-211 -297h-278z" />
<glyph unicode="&#xe2;" horiz-adv-x="1366" d="M49 516q0 218 146 373q143 155 364 155q223 0 285 -120v108h370v-608q0 -60 17.5 -84.5t58.5 -24.5q13 0 49 4v-317q-66 -16 -157 -16q-110 0 -170 32q-60 29 -92 91q-91 -125 -320 -125q-246 0 -399 153q-152 155 -152 379zM291 1130l315 248h199l315 -248h-317l-98 95 l-97 -95h-317zM424 516q0 -84 63.5 -142.5t151.5 -58.5t151.5 59.5t63.5 141.5q0 80 -63.5 138.5t-151.5 58.5t-151.5 -58.5t-63.5 -138.5z" />
<glyph unicode="&#xe3;" horiz-adv-x="1366" d="M49 516q0 218 146 373q143 155 364 155q223 0 285 -120v108h370v-608q0 -60 17.5 -84.5t58.5 -24.5q13 0 49 4v-317q-66 -16 -157 -16q-110 0 -170 32q-60 29 -92 91q-91 -125 -320 -125q-246 0 -399 153q-152 155 -152 379zM215 1174q19 133 99.5 212.5t203.5 79.5 q83 0 182 -45q102 -45 154 -45q69 0 90 86l201 -32q-47 -308 -307 -308q-85 0 -187 45t-153 45q-70 0 -82 -71zM424 516q0 -84 63.5 -142.5t151.5 -58.5t151.5 59.5t63.5 141.5q0 80 -63.5 138.5t-151.5 58.5t-151.5 -58.5t-63.5 -138.5z" />
<glyph unicode="&#xe4;" horiz-adv-x="1366" d="M49 516q0 218 146 373q143 155 364 155q223 0 285 -120v108h370v-608q0 -60 17.5 -84.5t58.5 -24.5q13 0 49 4v-317q-66 -16 -157 -16q-110 0 -170 32q-60 29 -92 91q-91 -125 -320 -125q-246 0 -399 153q-152 155 -152 379zM320 1236.5q-8 49.5 11 92.5t61.5 73t94.5 28 q72 0 121 -47t49 -115q3 -49 -28.5 -89.5t-76.5 -59t-97.5 -11t-87.5 44.5q-39 34 -47 83.5zM424 516q0 -84 63.5 -142.5t151.5 -58.5t151.5 59.5t63.5 141.5q0 80 -63.5 138.5t-151.5 58.5t-151.5 -58.5t-63.5 -138.5zM751 1293q9 37 30.5 69t58 51t78.5 17q72 0 120.5 -47 t48.5 -115q3 -49 -28.5 -89.5t-76.5 -59t-97.5 -11t-87.5 44.5q-31 27 -43 65t-3 75z" />
<glyph unicode="&#xe5;" horiz-adv-x="1366" d="M49 516q0 218 146 373q143 155 364 155q223 0 285 -120v108h370v-608q0 -60 17.5 -84.5t58.5 -24.5q13 0 49 4v-317q-66 -16 -157 -16q-110 0 -170 32q-60 29 -92 91q-91 -125 -320 -125q-246 0 -399 153q-152 155 -152 379zM424 516q0 -84 63.5 -142.5t151.5 -58.5 t151.5 59.5t63.5 141.5q0 80 -63.5 138.5t-151.5 58.5t-151.5 -58.5t-63.5 -138.5zM426 1366q0 104 80 178q82 76 194 76q115 0 191 -76q80 -74 80 -178q0 -103 -80 -180q-77 -74 -191 -74q-111 0 -194 74q-80 77 -80 180zM632 1384q-11 -35 17 -67q19 -17 42.5 -19t41 9.5 t29 28.5t9 39t-20.5 40q-28 32 -67.5 18t-50.5 -49z" />
<glyph unicode="&#xe6;" horiz-adv-x="2134" d="M49 516q0 226 158 387q157 160 385 160q207 0 309 -123v92h320v-98q95 129 346 129q237 0 381 -156q147 -153 147 -381q0 -58 -6 -114h-743q4 -60 63 -93.5t156 -33.5q132 0 221 80l215 -205q-191 -191 -457 -191q-223 0 -323 103v-72h-320v92q-102 -123 -309 -123 q-228 0 -385 160q-158 161 -158 387zM422 516q0 -82 63 -141.5t150 -59.5q83 0 149 60q64 58 64 141t-64 141q-66 60 -149 60q-87 0 -150 -59.5t-63 -141.5zM1348 641h370q0 50 -53.5 86.5t-126.5 36.5q-75 0 -130 -36t-60 -87z" />
<glyph unicode="&#xe7;" horiz-adv-x="1107" d="M49 520q0 234 168 389q169 156 414 156q257 0 448 -209l-241 -231q-89 92 -207 92q-87 0 -147 -56.5t-60 -140.5t60 -140t147 -56q118 0 207 92l241 -232q-163 -178 -368 -202h-2l-31 -76q58 0 96.5 -44t38.5 -112q0 -102 -71 -159.5t-193 -57.5q-129 0 -211 61l70 148 q42 -25 90 -25q31 0 50 16t19 42q0 38 -25.5 53.5t-82.5 15.5l59 142q-206 35 -338 182q-131 146 -131 352z" />
<glyph unicode="&#xe8;" horiz-adv-x="1226" d="M49 512v10q0 243 164 387q165 148 418 148q244 0 401 -154q156 -150 156 -375q0 -58 -6 -114h-754q4 -55 66.5 -88t162.5 -33q133 0 222 80l215 -205q-191 -191 -457 -191q-260 0 -426 146q-162 146 -162 389zM299 1427h389l100 -297h-278zM430 643h381q0 50 -53.5 86.5 t-126.5 36.5q-79 0 -137.5 -36t-63.5 -87z" />
<glyph unicode="&#xe9;" horiz-adv-x="1226" d="M49 512v10q0 243 164 387q165 148 418 148q244 0 401 -154q156 -150 156 -375q0 -58 -6 -114h-754q4 -55 66.5 -88t162.5 -33q133 0 222 80l215 -205q-191 -191 -457 -191q-260 0 -426 146q-162 146 -162 389zM430 643h381q0 50 -53.5 86.5t-126.5 36.5q-79 0 -137.5 -36 t-63.5 -87zM446 1130l101 297h389l-211 -297h-279z" />
<glyph unicode="&#xea;" horiz-adv-x="1226" d="M49 512v10q0 243 164 387q165 148 418 148q244 0 401 -154q156 -150 156 -375q0 -58 -6 -114h-754q4 -55 66.5 -88t162.5 -33q133 0 222 80l215 -205q-191 -191 -457 -191q-260 0 -426 146q-162 146 -162 389zM217 1130l315 248h199l316 -248h-318l-98 95l-96 -95h-318z M430 643h381q0 50 -53.5 86.5t-126.5 36.5q-79 0 -137.5 -36t-63.5 -87z" />
<glyph unicode="&#xeb;" horiz-adv-x="1226" d="M49 512v10q0 243 164 387q165 148 418 148q244 0 401 -154q156 -150 156 -375q0 -58 -6 -114h-754q4 -55 66.5 -88t162.5 -33q133 0 222 80l215 -205q-191 -191 -457 -191q-260 0 -426 146q-162 146 -162 389zM247 1293q9 37 30.5 69t58 51t78.5 17q72 0 121 -47t49 -115 q3 -49 -28.5 -89.5t-77 -59t-98 -11t-87.5 44.5q-31 27 -43 65t-3 75zM430 643h381q0 50 -53.5 86.5t-126.5 36.5q-79 0 -137.5 -36t-63.5 -87zM677 1293q9 37 30.5 69t58 51t78.5 17q72 0 121 -47t49 -115q3 -49 -28.5 -89.5t-77 -59t-98 -11t-87.5 44.5q-31 27 -43 65 t-3 75z" />
<glyph unicode="&#xec;" horiz-adv-x="606" d="M-33 1427h389l88 -297h-278zM94 309v723h379v-602q0 -58 15 -83t51 -25l28 2v-322q-59 -16 -164 -16q-309 0 -309 323z" />
<glyph unicode="&#xed;" horiz-adv-x="606" d="M94 309v723h379v-602q0 -58 15 -83t51 -25l28 2v-322q-59 -16 -164 -16q-309 0 -309 323zM100 1130l88 297h390l-199 -297h-279z" />
<glyph unicode="&#xee;" horiz-adv-x="669" d="M-23 1130l275 248h199l274 -248h-299l-76 105l-74 -105h-299zM158 309v723h379v-602q0 -58 14.5 -83t50.5 -25l29 2v-322q-59 -16 -164 -16q-309 0 -309 323z" />
<glyph unicode="&#xef;" horiz-adv-x="659" d="M-18 1274q0 64 47 108q50 47 117 47t114 -47q50 -44 50 -108t-50 -111q-47 -44 -114 -44t-117 44q-47 47 -47 111zM147 309v723h379v-602q0 -58 15 -83t51 -25l29 2v-322q-59 -16 -164 -16q-310 0 -310 323zM363 1274q0 64 47 108q50 47 117 47t114 -47q49 -44 49 -108 t-49 -111q-47 -44 -114 -44t-117 44q-47 47 -47 111z" />
<glyph unicode="&#xf0;" horiz-adv-x="1120" d="M49 457q0 185 135 317q136 133 334 133q120 0 191 -65q-55 93 -140 172l-94 -107l-215 183l74 88q-67 31 -199 65l107 291q160 -40 301 -121l121 141l213 -186l-107 -123q174 -162 250 -373q51 -140 51 -286q0 -282 -147 -445q-144 -159 -385 -159q-201 0 -346 139 q-144 138 -144 336zM412 457q0 -57 43 -97.5t106 -40.5q62 0 106 40.5t44 97.5q0 55 -44 95t-106 40q-63 0 -106 -39.5t-43 -95.5z" />
<glyph unicode="&#xf1;" horiz-adv-x="1282" d="M94 0v1032h379v-127q90 152 285 152q191 0 293 -116t102 -331v-180q0 -58 15 -83t51 -25l28 2v-322q-59 -16 -164 -16q-309 0 -309 323v256q0 74 -38 117t-105 43q-69 0 -113.5 -46.5t-44.5 -119.5v-559h-379zM162 1174q19 133 99.5 212.5t203.5 79.5q83 0 182 -45 q102 -45 154 -45q69 0 90 86l201 -32q-47 -308 -308 -308q-84 0 -186 45t-154 45q-70 0 -82 -71z" />
<glyph unicode="&#xf2;" horiz-adv-x="1269" d="M49 516q0 226 170 385q171 162 416 162q243 0 414 -162q172 -159 172 -385q0 -224 -172 -387q-174 -160 -414 -160q-242 0 -416 160q-170 164 -170 387zM313 1427h389l101 -297h-279zM422 516q0 -82 63 -141.5t150 -59.5q83 0 149 60q64 58 64 141t-64 141 q-66 60 -149 60q-87 0 -150 -59.5t-63 -141.5z" />
<glyph unicode="&#xf3;" horiz-adv-x="1269" d="M49 516q0 226 170 385q171 162 416 162q243 0 414 -162q172 -159 172 -385q0 -224 -172 -387q-174 -160 -414 -160q-242 0 -416 160q-170 164 -170 387zM422 516q0 -82 63 -141.5t150 -59.5q83 0 149 60q64 58 64 141t-64 141q-66 60 -149 60q-87 0 -150 -59.5 t-63 -141.5zM481 1130l101 297h389l-211 -297h-279z" />
<glyph unicode="&#xf4;" horiz-adv-x="1269" d="M49 516q0 226 170 385q171 162 416 162q243 0 414 -162q172 -159 172 -385q0 -224 -172 -387q-174 -160 -414 -160q-242 0 -416 160q-170 164 -170 387zM221 1130l316 248h198l316 -248h-318l-98 95l-96 -95h-318zM422 516q0 -82 63 -141.5t150 -59.5q83 0 149 60 q64 58 64 141t-64 141q-66 60 -149 60q-87 0 -150 -59.5t-63 -141.5z" />
<glyph unicode="&#xf5;" horiz-adv-x="1269" d="M49 516q0 226 170 385q171 162 416 162q243 0 414 -162q172 -159 172 -385q0 -224 -172 -387q-174 -160 -414 -160q-242 0 -416 160q-170 164 -170 387zM166 1174q19 133 99.5 212.5t203.5 79.5q83 0 182 -45q102 -45 154 -45q69 0 90 86l201 -32q-47 -308 -308 -308 q-84 0 -186 45t-153 45q-70 0 -82 -71zM422 516q0 -82 63 -141.5t150 -59.5q83 0 149 60q64 58 64 141t-64 141q-66 60 -149 60q-87 0 -150 -59.5t-63 -141.5z" />
<glyph unicode="&#xf6;" horiz-adv-x="1269" d="M49 516q0 226 170 385q171 162 416 162q243 0 414 -162q172 -159 172 -385q0 -224 -172 -387q-174 -160 -414 -160q-242 0 -416 160q-170 164 -170 387zM251 1293q9 37 30.5 69t58 51t78.5 17q72 0 121 -47t49 -115q3 -49 -28.5 -89.5t-77 -59t-98 -11t-87.5 44.5 q-31 27 -43 65t-3 75zM422 516q0 -82 63 -141.5t150 -59.5q83 0 149 60q64 58 64 141t-64 141q-66 60 -149 60q-87 0 -150 -59.5t-63 -141.5zM681 1293q9 37 30.5 69t58 51t78.5 17q72 0 121 -47t49 -115q3 -49 -28.5 -89.5t-77 -59t-98 -11t-87.5 44.5q-31 27 -43 65t-3 75 z" />
<glyph unicode="&#xf7;" horiz-adv-x="1208" d="M88 555v319h1032v-319h-1032zM406 297q0 82 57 139q60 57 141.5 57t138.5 -57q60 -57 60 -139t-60 -139q-57 -57 -138.5 -57t-141.5 57q-57 57 -57 139zM406 1132.5q0 82.5 57 139.5q60 57 141.5 57t138.5 -57q60 -57 60 -139.5t-60 -139.5q-57 -57 -138.5 -57t-141.5 57 q-57 57 -57 139.5z" />
<glyph unicode="&#xf8;" horiz-adv-x="1269" d="M49 516q0 226 170 385q171 162 416 162q114 0 223 -41l90 119l201 -152l-82 -106q154 -160 154 -367q0 -224 -172 -387q-174 -160 -414 -160q-119 0 -225 41l-101 -133l-200 152l90 121q-150 159 -150 366zM422 516q0 -36 12 -70l203 271h-2q-87 0 -150 -59.5t-63 -141.5 zM629 315h6q83 0 149 60q64 58 64 141q0 32 -14 70z" />
<glyph unicode="&#xf9;" horiz-adv-x="1282" d="M86 422v610h379v-565q0 -76 36 -120t101 -44q66 0 109 48t43 122v559h376v-608q0 -60 17.5 -84.5t58.5 -24.5q13 0 49 4v-317q-66 -16 -157 -16q-110 0 -174 34q-58 34 -84 82q-91 -131 -326 -131q-208 0 -318 117t-110 334zM293 1427h389l100 -297h-278z" />
<glyph unicode="&#xfa;" horiz-adv-x="1282" d="M86 422v610h379v-565q0 -76 36 -120t101 -44q66 0 109 48t43 122v559h376v-608q0 -60 17.5 -84.5t58.5 -24.5q13 0 49 4v-317q-66 -16 -157 -16q-110 0 -174 34q-58 34 -84 82q-91 -131 -326 -131q-208 0 -318 117t-110 334zM438 1130l101 297h389l-211 -297h-279z" />
<glyph unicode="&#xfb;" horiz-adv-x="1282" d="M86 422v610h379v-565q0 -76 36 -120t101 -44q66 0 109 48t43 122v559h376v-608q0 -60 17.5 -84.5t58.5 -24.5q13 0 49 4v-317q-66 -16 -157 -16q-110 0 -174 34q-58 34 -84 82q-91 -131 -326 -131q-208 0 -318 117t-110 334zM203 1130l315 248h199l315 -248h-317l-99 95 l-96 -95h-317z" />
<glyph unicode="&#xfc;" horiz-adv-x="1282" d="M86 422v610h379v-565q0 -76 36 -120t101 -44q66 0 109 48t43 122v559h376v-608q0 -60 17.5 -84.5t58.5 -24.5q13 0 49 4v-317q-66 -16 -157 -16q-110 0 -174 34q-58 34 -84 82q-91 -131 -326 -131q-208 0 -318 117t-110 334zM234 1236.5q-8 49.5 11 92.5t61.5 73t94.5 28 q72 0 121 -47t49 -115q3 -49 -28.5 -89.5t-76.5 -59t-97.5 -11t-87.5 44.5q-39 34 -47 83.5zM664 1236.5q-8 49.5 11 92.5t61.5 73t94.5 28q72 0 121 -47t49 -115q3 -49 -28.5 -89.5t-76.5 -59t-97.5 -11t-87.5 44.5q-39 34 -47 83.5z" />
<glyph unicode="&#xfd;" d="M10 1032h381l256 -643l227 643h381l-456 -1190q-52 -137 -125 -198q-120 -97 -314 -97q-82 0 -149 15v311q35 -14 133 -14q65 0 98 20q23 16 23 49l-4 11zM465 1130l100 297h389l-211 -297h-278z" />
<glyph unicode="&#xfe;" horiz-adv-x="1308" d="M94 -395v1822h371v-503q59 120 285 120q221 0 364 -155q146 -155 146 -373q0 -220 -146 -375q-144 -153 -364 -153q-226 0 -285 121v-504h-371zM455 516q0 -81 63.5 -139t151.5 -58t151.5 58t63.5 139q0 80 -63.5 138.5t-151.5 58.5t-151.5 -58.5t-63.5 -138.5z" />
<glyph unicode="&#xff;" d="M10 1032h381l256 -643l227 643h381l-456 -1190q-52 -137 -125 -198q-120 -97 -314 -97q-82 0 -149 15v311q35 -14 133 -14q65 0 98 20q23 16 23 49l-4 11zM263 1293q9 37 30.5 69t58 51t78.5 17q72 0 121 -47t49 -115q3 -49 -28.5 -89.5t-77 -59t-98 -11t-87.5 44.5 q-31 27 -43 65t-3 75zM693 1293q9 37 30.5 69t58 51t78.5 17q72 0 121 -47t49 -115q3 -49 -28.5 -89.5t-77 -59t-98 -11t-87.5 44.5q-31 27 -43 65t-3 75z" />
<glyph unicode="&#x152;" horiz-adv-x="2172" d="M57 713q0 306 224 520q226 215 540 215q213 0 371 -119v98h883v-350h-500v-196h461v-320h-461v-217h516v-344h-899v96q-155 -116 -371 -116q-314 0 -540 215q-224 214 -224 518zM455 713q0 -161 114 -275q113 -110 277 -110q159 0 276 114t117 271q0 156 -117 270 q-117 117 -276 117t-277 -115q-114 -114 -114 -272z" />
<glyph unicode="&#x153;" horiz-adv-x="1974" d="M49 516q0 226 170 385q171 162 416 162q223 0 369 -152q146 152 403 152q237 0 381 -156q147 -153 147 -381q0 -58 -6 -114h-743q4 -60 63 -93.5t156 -33.5q132 0 221 80l215 -205q-191 -191 -457 -191q-250 0 -383 142q-145 -142 -366 -142q-242 0 -416 160 q-170 164 -170 387zM422 516q0 -82 63 -141.5t150 -59.5q83 0 149 60q64 58 64 141t-64 141q-66 60 -149 60q-87 0 -150 -59.5t-63 -141.5zM1188 641h371q0 50 -54 86.5t-127 36.5q-75 0 -130 -36t-60 -87z" />
<glyph unicode="&#x178;" horiz-adv-x="1466" d="M2 1427h418l313 -555l314 555h417l-538 -921v-506h-385v506zM351 1688q9 37 30.5 69t58 51t78.5 17q72 0 121 -47t49 -115q3 -49 -28.5 -89.5t-77 -59t-98 -11t-87.5 44.5q-31 27 -43 65t-3 75zM781 1688q9 37 30.5 69t58 51t78.5 17q72 0 121 -47t49 -115 q3 -49 -28.5 -89.5t-77 -59t-98 -11t-87.5 44.5q-31 27 -43 65t-3 75z" />
<glyph unicode="&#x2c6;" horiz-adv-x="1044" d="M109 1130l315 248h199l315 -248h-317l-99 95l-96 -95h-317z" />
<glyph unicode="&#x2dc;" horiz-adv-x="1044" d="M57 1174q19 133 99.5 212.5t203.5 79.5q84 0 183 -45q102 -45 153 -45q69 0 90 86l201 -32q-47 -308 -307 -308q-84 0 -186 45t-154 45q-70 0 -82 -71z" />
<glyph unicode="&#x2000;" horiz-adv-x="931" />
<glyph unicode="&#x2001;" horiz-adv-x="1862" />
<glyph unicode="&#x2002;" horiz-adv-x="931" />
<glyph unicode="&#x2003;" horiz-adv-x="1862" />
<glyph unicode="&#x2004;" horiz-adv-x="620" />
<glyph unicode="&#x2005;" horiz-adv-x="465" />
<glyph unicode="&#x2006;" horiz-adv-x="310" />
<glyph unicode="&#x2007;" horiz-adv-x="310" />
<glyph unicode="&#x2008;" horiz-adv-x="232" />
<glyph unicode="&#x2009;" horiz-adv-x="372" />
<glyph unicode="&#x200a;" horiz-adv-x="103" />
<glyph unicode="&#x2010;" horiz-adv-x="942" d="M76 428v320h790v-320h-790z" />
<glyph unicode="&#x2011;" horiz-adv-x="942" d="M76 428v320h790v-320h-790z" />
<glyph unicode="&#x2012;" horiz-adv-x="942" d="M76 428v320h790v-320h-790z" />
<glyph unicode="&#x2013;" horiz-adv-x="1202" d="M76 428v320h1050v-320h-1050z" />
<glyph unicode="&#x2014;" horiz-adv-x="1511" d="M76 428v320h1360v-320h-1360z" />
<glyph unicode="&#x2018;" horiz-adv-x="604" d="M45 938l258 489h270l-178 -489h-350z" />
<glyph unicode="&#x2019;" horiz-adv-x="606" d="M45 938l178 489h350l-258 -489h-270z" />
<glyph unicode="&#x201a;" horiz-adv-x="544" d="M-47 -262l178 489h350l-258 -489h-270z" />
<glyph unicode="&#x201c;" horiz-adv-x="999" d="M45 938l258 489h270l-178 -489h-350zM440 938l258 489h271l-178 -489h-351z" />
<glyph unicode="&#x201d;" horiz-adv-x="1001" d="M45 938l178 489h350l-258 -489h-270zM442 938l179 489h350l-258 -489h-271z" />
<glyph unicode="&#x201e;" horiz-adv-x="942" d="M-47 -262l178 489h350l-258 -489h-270zM350 -262l178 489h351l-258 -489h-271z" />
<glyph unicode="&#x2022;" horiz-adv-x="831" d="M135 514q0 118 82 197q82 82 199 82q114 0 196 -82q84 -81 84 -197q0 -117 -82 -199q-79 -79 -198 -79q-116 0 -197 81q-84 84 -84 197z" />
<glyph unicode="&#x2026;" horiz-adv-x="1429" d="M33 176q0 82 57 139q60 57 142 57t139 -57q60 -57 60 -139t-60 -139q-57 -57 -139 -57t-142 57q-57 57 -57 139zM516 176q0 82 57 139q60 57 142 57t139 -57q60 -57 60 -139t-60 -139q-57 -57 -139 -57t-142 57q-57 57 -57 139zM1000 176q0 82 57 139q60 57 141.5 57 t138.5 -57q60 -57 60 -139t-60 -139q-57 -57 -138.5 -57t-141.5 57q-57 57 -57 139z" />
<glyph unicode="&#x202f;" horiz-adv-x="372" />
<glyph unicode="&#x2039;" horiz-adv-x="761" d="M59 518l258 393h390l-267 -393l267 -393h-390z" />
<glyph unicode="&#x203a;" horiz-adv-x="761" d="M55 125l267 393l-267 393h389l258 -393l-258 -393h-389z" />
<glyph unicode="&#x205f;" horiz-adv-x="465" />
<glyph unicode="&#x20ac;" horiz-adv-x="1572" d="M8 518l72 158h117v37q0 55 2 71h-156l72 158h116q71 228 265 367q195 139 438 139q159 0 302 -73.5t249 -205.5l-264 -221q-116 152 -287 152q-177 0 -283 -158h459l-72 -158h-448q-4 -28 -4 -71v-37h401l-72 -158h-284q45 -88 125 -139t178 -51q172 0 287 151l264 -221 q-105 -132 -248 -205t-303 -73q-256 0 -453 147q-196 150 -260 391h-213z" />
<glyph unicode="&#x2122;" horiz-adv-x="1918" d="M51 1110v317h756v-317h-203v-442h-342v442h-211zM913 668v759h236l242 -292l245 292h232v-759h-314v284l-163 -182l-164 182v-284h-314z" />
<glyph unicode="&#x25fc;" horiz-adv-x="1034" d="M0 0v1034h1034v-1034h-1034z" />
<glyph unicode="&#xfb01;" horiz-adv-x="1368" d="M45 702v330h172v2q0 127 30.5 205t98.5 133q137 84 422 84q82 0 205 -12v-297q-58 10 -150 10q-122 0 -176.5 -24.5t-54.5 -81.5v-19h643v-602q0 -58 14.5 -83t50.5 -25l29 2v-322q-59 -16 -164 -16q-309 0 -309 323v393h-260v-702h-379v702h-172z" />
<glyph unicode="&#xfb02;" horiz-adv-x="1501" d="M43 702v330h172v2q0 127 30.5 205t98.5 133q104 84 320 84q58 0 143 -12v-297q-33 10 -88 10q-129 0 -129 -106v-19h198v-330h-194v-702h-379v702h-172zM918 371v1056h378v-1003q0 -63 26.5 -91t86.5 -28q39 0 74 6v-319q-80 -17 -178 -17q-387 0 -387 396z" />
<glyph unicode="&#xfb03;" horiz-adv-x="2004" d="M43 702v330h172v2q0 422 428 422q57 0 143 -12v-297q-30 10 -77 10q-62 0 -90.5 -25t-28.5 -81v-19h264v2q0 127 30.5 205t98.5 133q137 84 422 84q82 0 205 -12v-297q-58 10 -150 10q-122 0 -176.5 -24.5t-54.5 -81.5v-19h643v-602q0 -58 14.5 -83t50.5 -25l29 2v-322 q-59 -16 -164 -16q-309 0 -309 323v393h-260v-702h-379v702h-260v-702h-379v702h-172z" />
<glyph unicode="&#xfb04;" horiz-adv-x="2138" d="M43 702v330h172v2q0 422 428 422q57 0 143 -12v-297q-30 10 -77 10q-62 0 -90.5 -25t-28.5 -81v-19h282v2q0 221 115.5 321.5t333.5 100.5q57 0 143 -12v-297q-33 10 -88 10q-129 0 -129 -106v-19h199v-330h-195v-702h-379v702h-278v-702h-379v702h-172zM1554 371v1056 h379v-1003q0 -63 26.5 -91t86.5 -28q40 0 74 6v-319q-80 -17 -178 -17q-388 0 -388 396z" />
</font>
</defs>
</svg>
