<?xml version="1.0" standalone="no"?>
<!DOCTYPE svg PUBLIC "-//W3C//DTD SVG 1.1//EN" "http://www.w3.org/Graphics/SVG/1.1/DTD/svg11.dtd" >
<svg xmlns="http://www.w3.org/2000/svg">
<metadata></metadata>
<defs>
<font id="hurme_geometric_sans_4bold" horiz-adv-x="1667" >
<font-face units-per-em="2048" ascent="1567" descent="-481" />
<missing-glyph horiz-adv-x="827" />
<glyph horiz-adv-x="0" />
<glyph horiz-adv-x="682" />
<glyph unicode=" "  horiz-adv-x="827" />
<glyph unicode="&#x09;" horiz-adv-x="827" />
<glyph unicode="&#xa0;" horiz-adv-x="827" />
<glyph unicode="!" horiz-adv-x="591" d="M113 1427h364l-49 -1038h-266zM129 143q0 69 49 117.5t117 48.5q69 0 118.5 -48.5t49.5 -117.5t-49.5 -118.5t-118.5 -49.5q-68 0 -117 49.5t-49 118.5z" />
<glyph unicode="&#x22;" horiz-adv-x="811" d="M72 1427h280l-41 -516h-200zM459 1427h280l-39 -516h-202z" />
<glyph unicode="#" horiz-adv-x="1335" d="M61 358v258h242l45 179h-178v258h242l47 188h252l-47 -188h188l47 188h252l-47 -188h174v-258h-238l-45 -179h174v-258h-237l-49 -194h-252l49 194h-188l-50 -194h-252l50 194h-179zM555 616h186l47 179h-188z" />
<glyph unicode="$" horiz-adv-x="1198" d="M18 293l234 162q92 -167 297 -197v352q-224 72 -330 170.5t-106 268.5q0 172 123 280q127 109 309 121v203h153v-211q237 -34 377 -221l-213 -162q-60 85 -168 106v-303q254 -79 355 -186q100 -103 100 -264q0 -183 -116 -297.5t-335 -132.5v-199h-153v199 q-185 12 -320 95t-207 216zM416 1053q0 -53 30 -84t103 -58v263q-63 -7 -98 -39t-35 -82zM694 262q74 7 111 46.5t37 94.5q0 54 -35 89t-113 69v-299z" />
<glyph unicode="%" horiz-adv-x="1560" d="M53 1137q0 132 94 223q95 92 232 92q134 0 229 -92q97 -94 97 -223q0 -130 -97 -224q-95 -92 -229 -92q-137 0 -232 92q-94 91 -94 224zM154 0l972 1427h279l-973 -1427h-278zM279 1137q0 -47 28.5 -78t71.5 -31q41 0 70.5 32.5t29.5 76.5t-29.5 76t-70.5 32 q-42 0 -71 -31.5t-29 -76.5zM856 291q0 130 96 223q95 92 232 92q134 0 229 -92q94 -91 94 -223t-94 -223q-96 -93 -229 -93q-136 0 -232 93t-96 223zM1081 291q0 -47 29.5 -78t73.5 -31q41 0 70.5 32.5t29.5 76.5t-29.5 76t-70.5 32q-43 0 -73 -32t-30 -76z" />
<glyph unicode="&#x26;" horiz-adv-x="1697" d="M70 457q0 303 284 444q-37 70 -37 148q0 179 127 294q126 117 334 117q175 0 291 -96q115 -95 115 -240q0 -72 -37 -118h506v-277h-258v-86q0 -205 -115 -362l274 -281h-389l-90 92q-164 -123 -446 -123q-253 0 -406 135t-153 353zM377 457q0 -98 67.5 -154.5 t184.5 -56.5q140 0 205 59q-208 215 -234 238l-39 41q-29 31 -55 65q-129 -65 -129 -192zM610 1040q0 -94 109 -209l338 -348q51 57 51 203v43h-274v189q44 11 73 51t29 94q0 66 -46.5 110t-115.5 44q-67 0 -115.5 -48t-48.5 -129z" />
<glyph unicode="'" horiz-adv-x="423" d="M72 1427h280l-41 -516h-200z" />
<glyph unicode="(" horiz-adv-x="669" d="M76 633q0 569 471 981l137 -150q-172 -188 -254 -384.5t-82 -446.5q0 -267 82 -459q79 -186 254 -379l-137 -147q-471 397 -471 985z" />
<glyph unicode=")" horiz-adv-x="669" d="M-14 -205q170 187 252 381q84 197 84 457q0 247 -82 444t-254 387l137 150q469 -411 469 -981q0 -589 -469 -985z" />
<glyph unicode="*" horiz-adv-x="763" d="M49 1122l62 187l192 -92l-24 210h204l-22 -208l192 90l62 -187l-205 -47l143 -157l-166 -119l-106 180l-107 -180l-161 119l143 157z" />
<glyph unicode="+" horiz-adv-x="1073" d="M88 582v264h303v321h291v-321h303v-264h-303v-320h-291v320h-303z" />
<glyph unicode="," horiz-adv-x="495" d="M-55 -262l180 489h303l-258 -489h-225z" />
<glyph unicode="-" horiz-adv-x="892" d="M80 432v279h733v-279h-733z" />
<glyph unicode="." horiz-adv-x="438" d="M50 147q0 67 50 117q51 50 118.5 50t117.5 -50q51 -50 51 -117t-51 -116q-50 -49 -117.5 -49t-118.5 49q-50 49 -50 116z" />
<glyph unicode="/" horiz-adv-x="929" d="M-45 -279l670 1760h274l-672 -1760h-272z" />
<glyph unicode="0" horiz-adv-x="1228" d="M80 715q0 233 6 297q21 186 172 313q149 125 356 125q206 0 355 -125q153 -129 174 -313q6 -65 6 -297q0 -235 -6 -299q-21 -185 -174 -314q-149 -125 -355 -125q-207 0 -356 125q-151 127 -172 314q-6 65 -6 299zM395 715q0 -215 6 -264q7 -82 67.5 -134.5t145.5 -52.5 t145.5 52.5t67.5 134.5q7 58 7 264q0 171 -5 254q-11 85 -71 139.5t-144 54.5t-144 -54.5t-71 -139.5q-4 -66 -4 -254z" />
<glyph unicode="1" horiz-adv-x="735" d="M68 1141v286h524v-1427h-316v1141h-208z" />
<glyph unicode="2" horiz-adv-x="1107" d="M33 0v207l629 622q81 84 81 177q0 73 -53.5 123.5t-128.5 50.5q-80 0 -136 -60t-56 -147h-283q0 199 139 338q138 141 338 141q194 0 328 -131q137 -131 137 -315q0 -195 -182 -371l-350 -348h557v-287h-1020z" />
<glyph unicode="3" horiz-adv-x="1159" d="M4 258l246 158q82 -150 282 -150q110 0 182 58t72 149q0 87 -75.5 144t-198.5 57q-83 0 -154 -19l-100 164l369 322h-496v286h907v-225l-329 -299h2q168 -9 274 -133q111 -123 111 -289q0 -213 -154 -358q-149 -143 -403 -143q-178 0 -319.5 74t-215.5 204z" />
<glyph unicode="4" horiz-adv-x="1249" d="M88 266v217l461 944h323l-434 -882h373v268h309v-813h-309v266h-723z" />
<glyph unicode="5" horiz-adv-x="1146" d="M25 268l254 152q33 -70 99.5 -112t147.5 -42q101 0 172.5 64t71.5 157q0 98 -67 159t-168 61q-117 0 -179 -62l-231 62l143 720h713v-286h-485l-41 -197q59 19 125 19q214 0 358 -144q145 -142 145 -336q0 -216 -161 -358q-165 -145 -396 -145q-164 0 -298.5 78 t-202.5 210z" />
<glyph unicode="6" horiz-adv-x="1177" d="M49 502q0 84 33 166q34 88 68 145q43 72 114 180l285 434h346l-295 -438q15 6 55 6q171 0 320 -137q153 -135 153 -352t-159 -367q-155 -149 -383 -149q-224 0 -379 149q-158 152 -158 363zM362 502q0 -94 66 -160t158 -66q93 0 159 66q68 68 68 160q0 90 -68 155 q-68 68 -159 68q-94 0 -159 -65.5t-65 -157.5z" />
<glyph unicode="7" horiz-adv-x="1120" d="M53 1141v286h1012v-249l-582 -1178h-323l573 1141h-680z" />
<glyph unicode="8" horiz-adv-x="1185" d="M63 469q0 113 54 205t147 147q-106 84 -106 223q0 166 127 287q130 121 307 121q178 0 305 -121q129 -120 129 -287q0 -139 -106 -223q94 -52 149 -145t55 -207q0 -203 -155 -346t-377 -143q-220 0 -375 143q-154 145 -154 346zM379 469q0 -86 63 -143q66 -60 150 -60 q88 0 152.5 60.5t64.5 142.5t-64.5 142.5t-152.5 60.5t-150.5 -59.5t-62.5 -143.5zM446 1044q0 -57 43 -99t103 -42q62 0 104.5 40.5t42.5 100.5q0 57 -42.5 96.5t-104.5 39.5q-60 0 -103 -39.5t-43 -96.5z" />
<glyph unicode="9" horiz-adv-x="1185" d="M55 936q0 208 158 360t381 152q226 0 379 -150q155 -146 155 -358q0 -116 -51 -221q-45 -98 -164 -275l-295 -444h-346l310 457q-13 -8 -60 -8q-166 0 -317 133q-150 135 -150 354zM371 938q0 -92 65.5 -158.5t157.5 -66.5q97 0 161 65t64 160q0 94 -67 158 q-66 66 -158 66t-158 -66q-65 -65 -65 -158z" />
<glyph unicode=":" horiz-adv-x="464" d="M66 246q0 69 49 117.5t118 48.5q68 0 118 -49.5t50 -116.5t-50 -116.5t-118 -49.5q-69 0 -118 48.5t-49 117.5zM66 793q0 69 49 117t118 48q68 0 118 -49t50 -116q0 -69 -50 -118.5t-118 -49.5q-69 0 -118 49.5t-49 118.5z" />
<glyph unicode=";" horiz-adv-x="520" d="M-55 -262l180 489h303l-258 -489h-225zM98 788q0 69 49.5 117.5t118.5 48.5q68 0 118 -49t50 -117q0 -67 -50 -116t-118 -49q-69 0 -118.5 48t-49.5 117z" />
<glyph unicode="&#x3c;" horiz-adv-x="954" d="M76 621v217l778 442v-313l-436 -238l436 -237v-314z" />
<glyph unicode="=" horiz-adv-x="1114" d="M94 362v263h926v-263h-926zM94 809v262h926v-262h-926z" />
<glyph unicode="&#x3e;" horiz-adv-x="952" d="M100 178v314l437 237l-437 238v313l777 -442v-217z" />
<glyph unicode="?" horiz-adv-x="894" d="M86 1022v321q142 109 332 109q189 0 299 -96q110 -94 110 -230q0 -129 -57 -204q-56 -78 -203 -154q-18 -8 -65 -35q-58 -34 -58 -78q0 -63 88 -63q92 0 154 39v-236q-93 -43 -209 -43q-147 0 -237 82.5t-90 216.5q0 182 217 305q22 11 56.5 32t39.5 24l11.5 11.5 l11.5 11.5t9 10t8 11.5t5.5 11.5t4.5 14t1 16q0 28 -28.5 48.5t-84.5 20.5q-164 0 -315 -145zM272 125q0 67 48 113.5t116 46.5t116 -46.5t48 -113.5q0 -66 -48 -112t-116 -46t-116 46t-48 112z" />
<glyph unicode="@" horiz-adv-x="1644" d="M68 598q0 316 225 530q226 218 530 218q318 0 535 -211q221 -209 221 -504q0 -215 -99.5 -335t-273.5 -120q-93 0 -160 44t-90 118q-57 -78 -182 -78q-137 0 -225 98t-88 240t88 240t225 98q115 0 162 -74v62h225v-457q0 -42 19 -65t47 -23q121 0 121 252q0 203 -154 348 t-371 145q-216 0 -368 -155t-152 -371q0 -217 154 -371q153 -153 368 -153q116 0 219 53l93 -201q-146 -73 -312 -73q-322 0 -540 221q-217 224 -217 524zM698 598q0 -54 35 -88.5t86 -34.5q54 0 88.5 34.5t34.5 88.5t-34.5 88.5t-88.5 34.5q-51 0 -86 -34.5t-35 -88.5z" />
<glyph unicode="A" horiz-adv-x="1521" d="M31 0l590 1427h280l590 -1427h-336l-96 240h-596l-96 -240h-336zM553 492h416l-207 518z" />
<glyph unicode="B" horiz-adv-x="1286" d="M139 0v1427h568q172 0 288 -104q119 -101 119 -260q0 -103 -48 -179.5t-134 -107.5q135 -24 211 -120t76 -234q0 -184 -125 -303q-122 -119 -310 -119h-645zM449 272h272q79 0 131.5 50t52.5 124t-52 121t-134 47h-270v-342zM449 858h206q67 0 110.5 43t43.5 109 q0 63 -43 105t-109 42h-208v-299z" />
<glyph unicode="C" horiz-adv-x="1458" d="M72 713q0 316 223 526q224 211 545 211q168 0 317.5 -70t259.5 -196l-215 -183q-143 162 -362 162q-190 0 -322 -129q-131 -128 -131 -321t129 -322q133 -127 324 -127q220 0 364 164l215 -182q-109 -128 -259.5 -198.5t-319.5 -70.5q-319 0 -545 209q-223 210 -223 527z " />
<glyph unicode="D" horiz-adv-x="1511" d="M139 0v1427h541q364 0 559 -198q199 -196 199 -518q0 -324 -197 -518q-193 -193 -559 -193h-543zM455 287h207q242 0 350 109t108 315q0 202 -104 315q-103 115 -357 115h-204v-854z" />
<glyph unicode="E" horiz-adv-x="1222" d="M139 0v1427h975v-286h-659v-269h616v-280h-616v-305h673v-287h-989z" />
<glyph unicode="F" horiz-adv-x="1159" d="M139 0v1427h940v-286h-624v-293h569v-281h-569v-567h-316z" />
<glyph unicode="G" horiz-adv-x="1536" d="M72 713q0 316 223 526q224 211 545 211q328 0 553 -231l-213 -187q-131 131 -340 131q-190 0 -322 -129q-131 -128 -131 -321t129 -322q133 -127 324 -127q188 0 311 111v192h-375v279h670v-578q-101 -135 -261.5 -213t-344.5 -78q-319 0 -545 209q-223 210 -223 527z " />
<glyph unicode="H" horiz-adv-x="1529" d="M139 0v1427h316v-530h618v530h316v-1427h-316v610h-618v-610h-316z" />
<glyph unicode="I" horiz-adv-x="612" d="M147 0v1427h316v-1427h-316z" />
<glyph unicode="J" horiz-adv-x="747" d="M18 -8v284q46 -12 123 -12q99 0 136.5 51t37.5 156v956h316v-938q0 -100 -7 -159.5t-32 -128.5q-35 -107 -132 -162.5t-278 -61.5q-88 0 -164 15z" />
<glyph unicode="K" horiz-adv-x="1406" d="M139 0v1427h316v-636l551 636h374l-546 -632l563 -795h-371l-408 571l-163 -182v-389h-316z" />
<glyph unicode="L" horiz-adv-x="1064" d="M139 0v1427h316v-1140h557v-287h-873z" />
<glyph unicode="M" horiz-adv-x="1785" d="M139 0v1427h264l490 -731l489 731h265v-1427h-297v870l-457 -675l-459 675v-870h-295z" />
<glyph unicode="N" horiz-adv-x="1548" d="M139 0v1427h281l684 -886v886h305v-1427h-258l-707 911v-911h-305z" />
<glyph unicode="O" d="M72 711q0 309 221 524q226 215 541 215q317 0 538 -215q223 -213 223 -524q0 -312 -221 -527q-222 -213 -540 -213q-314 0 -541 213q-221 215 -221 527zM387 711q0 -192 129 -324q129 -129 318 -129q187 0 315 131q131 131 131 322q0 187 -129 319q-130 133 -317 133 q-188 0 -318 -133q-129 -132 -129 -319z" />
<glyph unicode="P" horiz-adv-x="1282" d="M139 0v1427h602q179 0 330 -133q152 -134 152 -350q0 -207 -148 -346q-146 -137 -334 -137h-286v-461h-316zM455 748h268q68 0 125 45q59 47 59 151q0 103 -59 150t-125 47h-268v-393z" />
<glyph unicode="Q" d="M72 713q0 312 223 522q226 215 543 215q315 0 536 -215q221 -212 221 -522q0 -262 -178 -461l131 -154l-211 -178l-137 160q-148 -98 -362 -98q-319 0 -543 211q-223 210 -223 520zM387 713q0 -189 129 -318q133 -127 322 -127q96 0 161 33l-178 205l211 180l182 -211 q66 101 66 238q0 185 -129 317q-130 133 -313 133q-189 0 -320 -131t-131 -319z" />
<glyph unicode="R" horiz-adv-x="1343" d="M139 0v1427h598q202 0 342 -137q144 -135 144 -334q0 -136 -69 -245.5t-185 -159.5l348 -551h-356l-297 475h-5h-206v-475h-314zM453 754h249q93 0 149 54t56 144q0 81 -51.5 135t-126.5 54h-276v-387z" />
<glyph unicode="S" horiz-adv-x="1187" d="M16 293l230 158q115 -189 358 -189q104 0 158.5 40t54.5 101q0 71 -78 119q-52 35 -123 53q-18 7 -77.5 28.5t-79.5 29.5q-175 64 -260.5 161t-85.5 253q0 185 137 292q138 111 338 111q309 0 475 -233l-211 -160q-85 110 -256 110q-77 0 -124.5 -32.5t-47.5 -83.5 q0 -37 12 -60t43 -43q20 -11 64 -30l102 -35q71 -24 123 -45q195 -74 280 -172t85 -252q0 -202 -137 -319.5t-394 -117.5q-210 0 -360.5 85.5t-225.5 230.5z" />
<glyph unicode="T" horiz-adv-x="1136" d="M27 1141v286h1083v-286h-381v-1141h-315v1141h-387z" />
<glyph unicode="U" horiz-adv-x="1464" d="M125 578v849h315v-817q0 -346 293 -346q291 0 291 346v817h315v-849q0 -289 -172 -445q-173 -156 -434 -156q-262 0 -436 154q-172 156 -172 447z" />
<glyph unicode="V" horiz-adv-x="1509" d="M31 1427h336l389 -966l387 966h336l-584 -1427h-279z" />
<glyph unicode="W" horiz-adv-x="1978" d="M31 1427h311l268 -874l256 874h248l256 -874l268 874h310l-432 -1427h-267l-260 852l-260 -852h-266z" />
<glyph unicode="X" horiz-adv-x="1390" d="M31 0l471 733l-447 694h353l288 -454l287 454h350l-444 -696l473 -731h-348l-320 496l-319 -496h-344z" />
<glyph unicode="Y" horiz-adv-x="1409" d="M23 1427h342l340 -593l339 593h342l-524 -895v-532h-315v532z" />
<glyph unicode="Z" horiz-adv-x="1331" d="M74 0v215l757 926h-686v286h1100v-237l-739 -903h754v-287h-1186z" />
<glyph unicode="[" horiz-adv-x="770" d="M133 -475v1902h629v-264h-336v-1374h336v-264h-629z" />
<glyph unicode="\" horiz-adv-x="929" d="M23 1481h274l670 -1760h-273z" />
<glyph unicode="]" horiz-adv-x="770" d="M8 -211h336v1374h-336v264h629v-1902h-629v264z" />
<glyph unicode="^" horiz-adv-x="1087" d="M23 717l407 710h227l408 -710h-297l-225 411l-226 -411h-294z" />
<glyph unicode="_" horiz-adv-x="864" d="M-4 -123h872v-235h-872v235z" />
<glyph unicode="`" horiz-adv-x="1062" d="M266 1427h330l102 -297h-227z" />
<glyph unicode="a" horiz-adv-x="1341" d="M57 516q0 224 146 379q147 156 366 156q116 0 200 -43t108 -111v135h305v-670q0 -62 17 -88t58 -26q16 0 52 4v-254q-53 -16 -138 -16q-105 0 -167 36q-72 48 -93 111q-101 -149 -342 -149q-219 0 -366 153q-146 158 -146 383zM362 516q0 -108 76 -184q77 -74 187 -74 q113 0 190 74q80 77 80 184q0 108 -80 182q-76 76 -190 76q-111 0 -187 -76q-76 -73 -76 -182z" />
<glyph unicode="b" horiz-adv-x="1282" d="M102 0v1427h306v-530q24 68 107.5 111t199.5 43q220 0 364 -156q148 -154 148 -379q0 -224 -148 -381q-144 -153 -364 -153q-116 0 -200 42.5t-107 110.5v-135h-306zM389 516q0 -106 78 -184q80 -74 192 -74q110 0 187 74q76 76 76 184q0 109 -76 182q-76 76 -187 76 q-113 0 -192 -76q-78 -75 -78 -182z" />
<glyph unicode="c" horiz-adv-x="1091" d="M57 518q0 233 164 389q169 158 406 158q255 0 430 -193l-193 -190q-100 106 -237 106q-113 0 -189 -77t-76 -193t76.5 -192t188.5 -76q137 0 237 106l193 -190q-175 -193 -430 -193q-239 0 -406 156q-164 156 -164 389z" />
<glyph unicode="d" horiz-adv-x="1341" d="M57 516q0 224 146 379q147 156 366 156q116 0 200 -43t108 -111v530h305v-1065q0 -62 17 -88t58 -26q16 0 52 4v-254q-53 -16 -138 -16q-105 0 -167 36q-72 48 -93 111q-101 -149 -342 -149q-219 0 -366 153q-146 158 -146 383zM362 516q0 -108 76 -184q77 -74 187 -74 q113 0 190 74q80 77 80 184q0 108 -80 182q-76 76 -190 76q-111 0 -187 -76q-76 -73 -76 -182z" />
<glyph unicode="e" horiz-adv-x="1196" d="M57 510v8q0 242 158 391q156 150 401 150q234 0 383 -152q148 -151 148 -372q0 -37 -4 -99h-781q5 -92 79.5 -147.5t195.5 -55.5q145 0 252 101l178 -170q-183 -189 -444 -189q-252 0 -410 146q-156 147 -156 389zM367 635h473q0 72 -65.5 122t-158.5 50q-99 0 -171 -50 t-78 -122z" />
<glyph unicode="f" horiz-adv-x="770" d="M49 756v276h170v29q0 224 121 319q88 76 285 76q55 0 123 -10v-254q-30 10 -93 10q-74 0 -107.5 -28.5t-33.5 -94.5v-47h207v-276h-207v-756h-295v756h-170z" />
<glyph unicode="g" horiz-adv-x="1277" d="M57 516q0 224 146 379q147 156 366 156q116 0 200 -43t108 -111v135h305v-860q0 -189 -39.5 -307t-141.5 -197q-149 -119 -374 -119q-298 0 -506 146l145 221q154 -98 318 -98q134 0 211 53q90 63 90 225v23q-33 -56 -119 -90.5t-197 -34.5q-220 0 -366 149 q-146 152 -146 373zM362 516q0 -107 76 -180q77 -74 187 -74q113 0 190 74q80 74 80 180q0 108 -80 182q-76 76 -190 76q-111 0 -187 -76q-76 -73 -76 -182z" />
<glyph unicode="h" horiz-adv-x="1218" d="M102 0v1427h306v-520q31 68 108.5 108t179.5 40q182 0 282.5 -113t100.5 -315v-260q0 -60 15 -84.5t53 -24.5q4 0 11.5 0.5t13 1t6.5 0.5v-258q-41 -14 -131 -14q-273 0 -273 295v307q0 91 -46 142.5t-130 51.5q-85 0 -137.5 -56.5t-52.5 -147.5v-580h-306z" />
<glyph unicode="i" horiz-adv-x="550" d="M80 1292q0 73 51 123.5t123 50.5t123 -50.5t51 -123.5q0 -72 -51 -122t-123 -50t-123 50t-51 122zM102 272v760h306v-670q0 -58 15.5 -83t53.5 -25q25 0 37 4v-260q-43 -16 -141 -16q-271 0 -271 290z" />
<glyph unicode="j" horiz-adv-x="501" d="M-88 -170q62 -4 65 -4q64 0 93.5 31.5t29.5 103.5v1071h306v-1108q0 -368 -361 -368q-81 0 -133 8v266zM78 1292q0 72 51 121q51 51 123 51t123 -51q51 -49 51 -121t-51 -123t-123 -51t-123 51t-51 123z" />
<glyph unicode="k" horiz-adv-x="1124" d="M102 0v1427h306v-788l340 393h354l-412 -467l447 -565h-344l-299 381l-86 -92v-289h-306z" />
<glyph unicode="l" horiz-adv-x="628" d="M96 336v1091h305v-1044q0 -69 28 -101t91 -32q47 0 74 8v-270q-52 -15 -145 -15q-353 0 -353 363z" />
<glyph unicode="m" horiz-adv-x="1798" d="M102 0v1032h306v-129q30 68 102.5 110t165.5 42q209 0 280 -164q86 164 340 164q173 0 268 -113t95 -315v-260q0 -61 14.5 -85t52.5 -24h19l12 2v-258q-41 -14 -131 -14q-272 0 -272 295v307q0 91 -39 142.5t-111 51.5q-74 0 -121 -57t-47 -147v-580h-305v590 q0 91 -40 142.5t-113 51.5q-74 0 -122 -57t-48 -147v-580h-306z" />
<glyph unicode="n" horiz-adv-x="1236" d="M102 0v1032h306v-129q33 68 113.5 110t183.5 42q185 0 288 -113t103 -315v-260q0 -61 14.5 -85t52.5 -24h21l12 2v-258q-35 -14 -133 -14q-272 0 -272 295v307q0 92 -47.5 143t-137.5 51q-87 0 -142.5 -57t-55.5 -147v-580h-306z" />
<glyph unicode="o" horiz-adv-x="1261" d="M57 516q0 231 166 387q171 160 408 160q234 0 405 -160q168 -155 168 -387q0 -231 -168 -389q-172 -158 -405 -158q-236 0 -408 158q-166 159 -166 389zM362 516q0 -114 78 -192t191 -78q112 0 190 78q78 81 78 192q0 113 -78 191q-76 79 -190 79q-115 0 -191 -79 q-78 -78 -78 -191z" />
<glyph unicode="p" horiz-adv-x="1282" d="M102 -395v1427h306v-135q24 68 107.5 111t199.5 43q220 0 364 -156q148 -154 148 -379q0 -224 -148 -381q-144 -153 -364 -153q-116 0 -200 42.5t-107 110.5v-530h-306zM389 516q0 -106 78 -184q80 -74 192 -74q110 0 187 74q76 76 76 184q0 109 -76 182q-76 76 -187 76 q-113 0 -192 -76q-78 -75 -78 -182z" />
<glyph unicode="q" horiz-adv-x="1273" d="M57 516q0 224 146 379q147 156 366 156q116 0 200 -43t108 -111v135h305v-1427h-305v530q-23 -68 -107.5 -110.5t-200.5 -42.5q-219 0 -366 153q-146 158 -146 381zM362 516q0 -108 76 -184q77 -74 187 -74q113 0 190 74q80 77 80 184q0 108 -80 182q-76 76 -190 76 q-111 0 -187 -76q-76 -73 -76 -182z" />
<glyph unicode="r" horiz-adv-x="837" d="M102 0v1032h306v-141q35 78 114 121t185 43q29 0 79 -6v-287q-52 10 -102 10q-131 0 -203.5 -70.5t-72.5 -197.5v-504h-306z" />
<glyph unicode="s" horiz-adv-x="970" d="M23 156l176 188q43 -51 119 -82t163 -31q156 0 156 84q0 32 -35 50q-42 22 -125 41q-73 17 -139 38q-238 83 -238 287q0 159 117 244q116 88 285 88q215 0 354 -133l-145 -201q-82 76 -217 76q-49 0 -76 -18t-27 -48q0 -20 9.5 -32.5t33.5 -22.5q15 -6 95.5 -27.5 t144.5 -44.5q254 -85 254 -293q0 -162 -116.5 -255t-338.5 -93q-300 0 -450 185z" />
<glyph unicode="t" horiz-adv-x="718" d="M27 756v276h135v395h297v-395h229v-276h-229v-369q0 -73 31 -105t100 -32q31 0 78 8v-270q-62 -15 -150 -15q-356 0 -356 369v414h-135z" />
<glyph unicode="u" horiz-adv-x="1230" d="M92 406v626h305v-590q0 -92 46 -143t132 -51q85 0 138 57t53 148v579h305v-670q0 -62 17.5 -88t58.5 -26q15 0 51 4v-254q-53 -16 -137 -16q-106 0 -168 36q-71 47 -92 111q-78 -152 -303 -152q-194 0 -300 113.5t-106 315.5z" />
<glyph unicode="v" horiz-adv-x="1165" d="M4 1032h309l271 -655l268 655h309l-442 -1032h-273z" />
<glyph unicode="w" horiz-adv-x="1533" d="M6 1032h283l182 -575l176 575h238l178 -575l182 575h283l-328 -1032h-252l-182 590l-180 -590h-254z" />
<glyph unicode="x" horiz-adv-x="1134" d="M6 0l391 543l-354 489h332l192 -272l193 272h332l-355 -489l391 -543h-329l-232 322l-231 -322h-330z" />
<glyph unicode="y" horiz-adv-x="1191" d="M16 1032h312l280 -717l254 717h312l-459 -1196q-53 -133 -119 -190q-104 -90 -277 -90q-75 0 -135 14v264q53 -16 125 -16q57 0 88 22q32 22 43 66l17 45z" />
<glyph unicode="z" horiz-adv-x="1093" d="M35 0v193l557 571h-502v268h926v-215l-524 -549h544v-268h-1001z" />
<glyph unicode="{" horiz-adv-x="751" d="M47 459v145q43 3 92 25q82 40 82 153v383q0 115 70 188.5t176 73.5h209v-245h-72q-51 0 -76.5 -30t-25.5 -77v-278q0 -145 -90 -211q-53 -38 -109 -56q60 -17 109 -53q90 -66 90 -211v-278q0 -47 25.5 -77t76.5 -30h72v-246h-209q-106 0 -176 74t-70 189v383 q0 113 -82 153q-39 20 -78 25h-14z" />
<glyph unicode="|" horiz-adv-x="575" d="M141 -55v1538h291v-1538h-291z" />
<glyph unicode="}" horiz-adv-x="751" d="M76 -119h71q51 0 77 30t26 77v278q0 145 90 211q49 36 109 53q-56 18 -109 56q-90 66 -90 211v278q0 47 -26 77t-77 30h-71v245h209q106 0 175.5 -73.5t69.5 -188.5v-383q0 -113 82 -153q44 -23 80 -23l13 -2v-145q-44 -3 -93 -25q-82 -40 -82 -153v-383 q0 -115 -69.5 -189t-175.5 -74h-209v246z" />
<glyph unicode="~" horiz-adv-x="958" d="M51 596q19 136 90.5 215.5t182.5 79.5q79 0 172 -43q98 -43 145 -43q74 0 98 84l168 -25q-37 -307 -276 -307q-78 0 -176 43t-144 43q-78 0 -90 -72z" />
<glyph unicode="&#xa1;" horiz-adv-x="591" d="M113 -401l49 1038h266l49 -1038h-364zM129 885q0 69 49 117.5t117 48.5q69 0 118.5 -48.5t49.5 -117.5t-49.5 -117.5t-118.5 -48.5q-68 0 -117 48.5t-49 117.5z" />
<glyph unicode="&#xa2;" horiz-adv-x="1097" d="M57 721q0 245 170 395q175 152 400 152h14l31 159h166l-35 -186q145 -44 252 -160l-185 -182q-53 56 -118 78l-107 -531h6q4 -2 11 -2q116 9 208 101l185 -185q-175 -184 -428 -184q-31 0 -33 2l-35 -178h-168l43 207q-168 55 -272 192q-105 138 -105 322zM346 721 q0 -79 39 -145t107 -101l102 522h-2q-107 -12 -176.5 -89.5t-69.5 -186.5z" />
<glyph unicode="&#xa3;" horiz-adv-x="1224" d="M61 0v221h19q174 0 255 65.5t81 172.5q0 42 -39 121h-232v211h117q-78 144 -78 241q0 175 135 301q137 125 332 125q186 0 318 -129q131 -128 131 -311h-269q0 62 -52.5 107.5t-125.5 45.5q-69 0 -119.5 -49t-50.5 -118q0 -74 92 -213h336v-211h-223q33 -67 33 -121 q0 -142 -92 -201h538v-258h-1106z" />
<glyph unicode="&#xa4;" horiz-adv-x="1366" d="M76 258l180 162q-80 118 -80 262t80 262l-180 162l186 186l166 -190q112 69 256 69q141 0 256 -69l166 190l186 -186l-180 -160q80 -122 80 -265t-80 -261l180 -162l-186 -184l-168 186q-116 -67 -254 -67q-139 0 -258 67l-164 -186zM455 682q0 -97 67 -164 q68 -68 162 -68t162 68q67 67 67 164t-67 164q-68 68 -162 68t-162 -68q-67 -67 -67 -164z" />
<glyph unicode="&#xa5;" horiz-adv-x="1398" d="M16 1427h340l344 -596l342 596h340l-307 -522h215v-213h-340l-94 -160h434v-215h-434v-317h-311v317h-434v215h434l-96 160h-338v213h213z" />
<glyph unicode="&#xa6;" horiz-adv-x="575" d="M141 0v602h291v-602h-291zM141 850v577h291v-577h-291z" />
<glyph unicode="&#xa7;" horiz-adv-x="1138" d="M57 565q0 176 148 279q-88 91 -88 221q0 178 131 285q132 108 315 108q213 0 334 -121t121 -303h-295q-15 170 -156 170q-62 0 -104.5 -35.5t-42.5 -93.5q0 -86 100 -143q45 -27 76 -41l111 -49l84 -35q282 -126 282 -340q0 -180 -147 -279q88 -91 88 -221 q0 -175 -133 -284t-314 -109q-215 0 -336 121q-118 118 -118 303h295q15 -170 155 -170q62 0 105 35.5t43 93.5q0 42 -22 70.5t-77 66.5q-48 35 -157 80l-113 51q-285 120 -285 340zM354 569q0 -50 54 -104q29 -25 65 -41l70 -33l84 -33q37 -13 59 -26q90 35 90 131 q0 77 -90 127q-88 49 -184 84q-47 17 -58 24q-90 -38 -90 -129z" />
<glyph unicode="&#xa8;" horiz-adv-x="1107" d="M193 1278q0 60 42.5 101.5t104.5 41.5t104.5 -41t42.5 -102q0 -60 -42.5 -100.5t-104.5 -40.5t-104.5 40.5t-42.5 100.5zM618 1278q0 60 44 101.5t106 41.5t104.5 -41t42.5 -102q0 -57 -43.5 -99t-103.5 -42q-61 0 -105.5 42t-44.5 99z" />
<glyph unicode="&#xa9;" horiz-adv-x="1656" d="M70 713q0 304 217 528q217 225 540 225q303 0 533 -219q227 -217 227 -534q0 -303 -221 -529q-218 -225 -539 -225q-195 0 -370 94q-172 94 -281 271q-106 172 -106 389zM279 713q0 -223 159 -387q165 -160 389 -160q227 0 387 160q162 162 162 387q0 227 -162 385 q-159 159 -387 159q-225 0 -389 -159q-159 -159 -159 -385zM422 715q0 171 121 286q124 115 299 115q188 0 319 -149l-160 -156q-71 68 -159 68q-68 0 -117 -48t-49 -116q0 -71 48 -118.5t118 -47.5q96 0 159 69l160 -155q-137 -152 -319 -152q-175 0 -299 115 q-121 115 -121 289z" />
<glyph unicode="&#xaa;" horiz-adv-x="956" d="M88 868q0 111 81.5 173t256.5 81q85 8 114 21t29 47q0 57 -96 57q-127 0 -209 -98l-141 123q125 168 348 168q158 0 247 -70t89 -194v-302q0 -38 20 -47q8 -8 39 -8v-155q-40 -21 -92 -21q-64 0 -108 29q-25 18 -39 53q-70 -88 -256 -88q-128 0 -205.5 63.5t-77.5 167.5z M328 897q0 -57 84 -57q155 0 155 116v41q-17 -12 -137 -28q-102 -12 -102 -72z" />
<glyph unicode="&#xab;" horiz-adv-x="1165" d="M63 518l248 383h316l-254 -383l254 -383h-316zM543 518l248 383h315l-254 -383l254 -383h-315z" />
<glyph unicode="&#xac;" horiz-adv-x="1294" d="M92 793v262h1108v-633h-291v371h-817z" />
<glyph unicode="&#xad;" horiz-adv-x="892" d="M80 432v279h733v-279h-733z" />
<glyph unicode="&#xae;" horiz-adv-x="847" d="M55 1102q0 151 107 252q107 104 262 104t262 -104q109 -106 109 -252q0 -149 -111 -254q-108 -105 -260 -105t-260 105q-109 106 -109 254zM182 1102q0 -101 70 -168q71 -68 172 -68t172 68q70 67 70 168t-70 168t-172 67t-172 -67t-70 -168zM299 946v322h143 q47 0 80 -32t33 -79q0 -65 -49 -92l76 -119h-113l-57 96h-17v-96h-96zM393 1116h39q33 0 33 35q0 33 -29 33h-43v-68z" />
<glyph unicode="&#xaf;" horiz-adv-x="1116" d="M233 1188v196h650v-196h-650z" />
<glyph unicode="&#xb0;" horiz-adv-x="854" d="M78 1102q0 136 102 235t248 99q144 0 246 -99t102 -235q0 -139 -102 -238q-101 -98 -246 -98q-147 0 -248 98q-102 99 -102 238zM297 1102q0 -56 38 -94.5t93 -38.5q54 0 91.5 39.5t37.5 93.5t-37.5 91.5t-91.5 37.5q-55 0 -93 -37.5t-38 -91.5z" />
<glyph unicode="&#xb1;" horiz-adv-x="1087" d="M94 0v262h899v-262h-899zM94 717v262h303v324h293v-324h303v-262h-303v-322h-293v322h-303z" />
<glyph unicode="&#xb2;" horiz-adv-x="686" d="M49 672v153l330 279q43 37 43 74q0 35 -20.5 57t-51.5 22q-35 0 -58.5 -28.5t-23.5 -69.5h-196q0 118 80 201q82 82 196 82t191 -74q79 -70 79 -178q0 -95 -79 -174l-158 -146h260v-198h-592z" />
<glyph unicode="&#xb3;" horiz-adv-x="690" d="M18 809l166 113q48 -66 121 -66q48 0 79.5 22.5t31.5 59.5t-31 59.5t-82 22.5q-60 0 -104 -23l-58 103l189 131h-244v196h504v-147l-158 -121q17 0 29 -4q81 -23 127.5 -83t46.5 -136q0 -119 -90.5 -198t-237.5 -79q-195 0 -289 150z" />
<glyph unicode="&#xb4;" horiz-adv-x="1062" d="M360 1130l103 297h330l-205 -297h-228z" />
<glyph unicode="&#xb6;" horiz-adv-x="1464" d="M37 934q0 204 147 348q148 145 355 145h903v-286h-139v-1141h-312v1141h-162v-1141h-313v446q-199 9 -340 150q-139 142 -139 338z" />
<glyph unicode="&#xb7;" horiz-adv-x="440" d="M51 518q0 67 50 116.5t118 49.5t118 -49.5t50 -116.5q0 -69 -50 -118.5t-118 -49.5t-118 49.5t-50 118.5z" />
<glyph unicode="&#xb8;" horiz-adv-x="1056" d="M297 -391l61 127q50 -29 97 -29q33 0 54 17.5t21 46.5q0 41 -28 57t-92 16l65 156h170l-43 -94q58 0 96.5 -42t38.5 -110q0 -97 -65.5 -148.5t-182.5 -51.5q-113 0 -192 55z" />
<glyph unicode="&#xb9;" horiz-adv-x="491" d="M53 1231v196h336v-755h-207v559h-129z" />
<glyph unicode="&#xba;" horiz-adv-x="958" d="M55 1047q0 162 123 282q125 119 299 119t299 -119q127 -121 127 -282q0 -166 -125 -285t-301 -119q-174 0 -299 119q-123 120 -123 285zM326 1047q0 -60 45 -105t106 -45t106.5 45t45.5 105q0 58 -45.5 102.5t-106.5 44.5t-106 -44.5t-45 -102.5z" />
<glyph unicode="&#xbb;" horiz-adv-x="1165" d="M61 135l252 383l-252 383h316l246 -383l-246 -383h-316zM541 135l252 383l-252 383h315l246 -383l-246 -383h-315z" />
<glyph unicode="&#xbc;" horiz-adv-x="1507" d="M68 1231v196h335v-755h-206v559h-129zM106 0l932 1427h275l-932 -1427h-275zM815 129v150l238 479h209l-228 -449h185v148h198v-457h-198v129h-404z" />
<glyph unicode="&#xbd;" horiz-adv-x="1499" d="M68 1231v196h335v-755h-206v559h-129zM80 0l932 1427h274l-932 -1427h-274zM850 0v154l330 278q43 37 43 74q0 35 -20.5 57.5t-51.5 22.5q-35 0 -58.5 -28.5t-23.5 -70.5h-197q0 118 80 201q82 82 197 82q113 0 190 -74q80 -71 80 -178q0 -94 -80 -174l-157 -145h260 v-199h-592z" />
<glyph unicode="&#xbe;" horiz-adv-x="1591" d="M25 809l165 113q48 -66 121 -66q48 0 79.5 22.5t31.5 59.5t-31 59.5t-82 22.5q-60 0 -104 -23l-58 103l189 131h-244v196h504v-147l-158 -121q17 0 29 -4q81 -23 127.5 -83t46.5 -136q0 -119 -90.5 -198t-237.5 -79q-193 0 -288 150zM203 0l932 1427h276l-932 -1427h-276 zM899 129v150l238 479h209l-228 -449h185v148h198v-457h-198v129h-404z" />
<glyph unicode="&#xbf;" horiz-adv-x="894" d="M59 -111q0 128 56 205q61 79 204 154q49 25 67.5 36t34.5 30t21 46q0 64 -88 64q-91 0 -153 -39v236q93 43 209 43q147 0 237 -82.5t90 -216.5q0 -183 -217 -306q-1 -1 -24 -13t-29 -17q-40 -24 -43 -27q-51 -33 -51 -84q0 -28 28 -49t84 -21q164 0 316 146v-322 q-141 -108 -332 -108q-188 0 -301 96q-109 95 -109 229zM287 891q0 66 48 112t116 46t115.5 -46t47.5 -112q0 -67 -47.5 -113.5t-115.5 -46.5t-116 46.5t-48 113.5z" />
<glyph unicode="&#xc0;" horiz-adv-x="1531" d="M31 0l590 1427h280l590 -1427h-336l-96 240h-596l-96 -240h-336zM477 1823h330l102 -297h-227zM553 492h416l-207 518z" />
<glyph unicode="&#xc1;" horiz-adv-x="1531" d="M31 0l590 1427h280l590 -1427h-336l-96 240h-596l-96 -240h-336zM553 492h416l-207 518zM623 1526l102 297h330l-205 -297h-227z" />
<glyph unicode="&#xc2;" horiz-adv-x="1531" d="M31 0l590 1427h280l590 -1427h-336l-96 240h-596l-96 -240h-336zM377 1556l297 248h176l297 -248h-277l-108 109l-111 -109h-274zM553 492h416l-207 518z" />
<glyph unicode="&#xc3;" horiz-adv-x="1531" d="M31 0l590 1427h280l590 -1427h-336l-96 240h-596l-96 -240h-336zM346 1559q19 122 88.5 194t177.5 72q73 0 166 -43t140 -43q72 0 90 86l170 -27q-37 -278 -271 -278q-75 0 -168 43t-139 43q-72 0 -84 -72zM553 492h416l-207 518z" />
<glyph unicode="&#xc4;" horiz-adv-x="1531" d="M31 0l590 1427h280l590 -1427h-336l-96 240h-596l-96 -240h-336zM346 1585q-3 43 24.5 78t67.5 51t86 10t76 -38q34 -29 41 -73t-10 -82.5t-54 -65t-81 -23.5q-62 0 -106 41.5t-44 101.5zM553 492h416l-207 518zM885 1585.5q0 59.5 43 100.5t104.5 41t104.5 -41 t43 -100.5t-43 -102.5q-43 -41 -104.5 -41t-104.5 41q-43 43 -43 102.5z" />
<glyph unicode="&#xc5;" horiz-adv-x="1521" d="M31 0l557 1350q-72 69 -72 166q0 94 74 165q75 72 178 72q100 0 172 -72q74 -71 74 -165q0 -101 -78 -173l555 -1343h-336l-96 240h-596l-96 -240h-336zM553 492h416l-207 518zM688 1515.5q0 -32.5 23 -55.5q25 -23 57.5 -23t52.5 23q23 23 23 55.5t-23 55.5 q-20 23 -52.5 23t-57.5 -23q-23 -23 -23 -55.5z" />
<glyph unicode="&#xc6;" horiz-adv-x="1921" d="M-74 0l1149 1427h737v-286h-505v-273h467v-272h-467v-309h522v-287h-830v240h-520l-192 -240h-361zM678 492h321v403z" />
<glyph unicode="&#xc7;" horiz-adv-x="1458" d="M72 713q0 316 223 526q224 211 545 211q168 0 317.5 -70t259.5 -196l-215 -183q-143 162 -362 162q-190 0 -322 -129q-131 -128 -131 -321t129 -322q133 -127 324 -127q220 0 364 164l215 -182q-214 -254 -549 -266h-2l-30 -74q58 0 96.5 -42t38.5 -110 q0 -97 -65.5 -148.5t-182.5 -51.5q-114 0 -193 55l62 127q50 -29 96 -29q33 0 54.5 17.5t21.5 46.5q0 41 -28.5 57t-92.5 16l60 146q-276 44 -455 241q-178 199 -178 482z" />
<glyph unicode="&#xc8;" horiz-adv-x="1222" d="M139 0v1427h975v-286h-659v-269h616v-280h-616v-305h673v-287h-989zM373 1823h301l108 -297h-219z" />
<glyph unicode="&#xc9;" horiz-adv-x="1222" d="M139 0v1427h975v-286h-659v-269h616v-280h-616v-305h673v-287h-989zM496 1526l102 297h330l-205 -297h-227z" />
<glyph unicode="&#xca;" horiz-adv-x="1222" d="M139 0v1427h975v-286h-659v-269h616v-280h-616v-305h673v-287h-989zM246 1556l297 248h176l297 -248h-275l-110 109l-109 -109h-276z" />
<glyph unicode="&#xcb;" horiz-adv-x="1222" d="M139 0v1427h975v-286h-659v-269h616v-280h-616v-305h673v-287h-989zM266 1663q0 60 44 101.5t106 41.5t104.5 -41t42.5 -102q0 -57 -43.5 -99t-103.5 -42q-61 0 -105.5 42t-44.5 99zM694 1663q0 60 44 101.5t104 41.5q62 0 105.5 -41t43.5 -102q0 -57 -44 -99t-105 -42 q-60 0 -104 42t-44 99z" />
<glyph unicode="&#xcc;" horiz-adv-x="612" d="M20 1823h328l105 -297h-230zM147 0v1427h316v-1427h-316z" />
<glyph unicode="&#xcd;" horiz-adv-x="612" d="M147 0v1427h316v-1427h-316zM160 1526l102 297h330l-205 -297h-227z" />
<glyph unicode="&#xce;" horiz-adv-x="612" d="M-78 1556l297 248h174l297 -248h-274l-111 109l-108 -109h-275zM147 0v1427h316v-1427h-316z" />
<glyph unicode="&#xcf;" horiz-adv-x="612" d="M-49 1663q0 60 43.5 101.5t103.5 41.5q62 0 106 -41t44 -102q0 -57 -44.5 -99t-105.5 -42q-60 0 -103.5 42t-43.5 99zM147 0v1427h316v-1427h-316zM365 1663q0 60 43.5 101.5t103.5 41.5q62 0 106 -41t44 -102q0 -57 -44.5 -99t-105.5 -42q-60 0 -103.5 42t-43.5 99z" />
<glyph unicode="&#xd0;" horiz-adv-x="1527" d="M14 575v285h144v567h540q364 0 559 -198q199 -196 199 -518q0 -325 -196 -518q-193 -193 -560 -193h-542v575h-144zM473 287h207q243 0 351 109t108 315q0 201 -105 315q-103 115 -356 115h-205v-281h279v-285h-279v-288z" />
<glyph unicode="&#xd1;" horiz-adv-x="1548" d="M139 0v1427h281l684 -886v886h305v-1427h-258l-707 911v-911h-305zM356 1559q19 121 89 193.5t178 72.5q72 0 165 -43t140 -43q72 0 90 86l170 -27q-37 -278 -270 -278q-75 0 -168 43t-140 43q-72 0 -84 -72z" />
<glyph unicode="&#xd2;" d="M72 711q0 309 221 524q226 215 541 215q317 0 538 -215q223 -213 223 -524q0 -312 -221 -527q-222 -213 -540 -213q-314 0 -541 213q-221 215 -221 527zM387 711q0 -192 129 -324q129 -129 318 -129q187 0 315 131q131 131 131 322q0 187 -129 319q-130 133 -317 133 q-188 0 -318 -133q-129 -132 -129 -319zM526 1823h328l104 -297h-229z" />
<glyph unicode="&#xd3;" d="M72 711q0 309 221 524q226 215 541 215q317 0 538 -215q223 -213 223 -524q0 -312 -221 -527q-222 -213 -540 -213q-314 0 -541 213q-221 215 -221 527zM387 711q0 -192 129 -324q129 -129 318 -129q187 0 315 131q131 131 131 322q0 187 -129 319q-130 133 -317 133 q-188 0 -318 -133q-129 -132 -129 -319zM721 1526l102 297h330l-205 -297h-227z" />
<glyph unicode="&#xd4;" d="M72 711q0 309 221 524q226 215 541 215q317 0 538 -215q223 -213 223 -524q0 -312 -221 -527q-222 -213 -540 -213q-314 0 -541 213q-221 215 -221 527zM387 711q0 -192 129 -324q129 -129 318 -129q187 0 315 131q131 131 131 322q0 187 -129 319q-130 133 -317 133 q-188 0 -318 -133q-129 -132 -129 -319zM461 1556l297 248h174l297 -248h-275l-110 109l-109 -109h-274z" />
<glyph unicode="&#xd5;" d="M72 711q0 309 221 524q226 215 541 215q317 0 538 -215q223 -213 223 -524q0 -312 -221 -527q-222 -213 -540 -213q-314 0 -541 213q-221 215 -221 527zM387 711q0 -192 129 -324q129 -129 318 -129q187 0 315 131q131 131 131 322q0 187 -129 319q-130 133 -317 133 q-188 0 -318 -133q-129 -132 -129 -319zM432 1559q18 121 87 193.5t177 72.5q73 0 166 -43t139 -43q72 0 93 86l168 -27q-37 -278 -269 -278q-77 0 -170 43t-139 43q-72 0 -84 -72z" />
<glyph unicode="&#xd6;" d="M72 711q0 309 221 524q226 215 541 215q317 0 538 -215q223 -213 223 -524q0 -312 -221 -527q-222 -213 -540 -213q-314 0 -541 213q-221 215 -221 527zM387 711q0 -192 129 -324q129 -129 318 -129q187 0 315 131q131 131 131 322q0 187 -129 319q-130 133 -317 133 q-188 0 -318 -133q-129 -132 -129 -319zM485 1650.5q0 59.5 43 100.5q43 43 104.5 43t104.5 -43q43 -41 43 -100.5t-43 -100.5t-104.5 -41t-104.5 41t-43 100.5zM911 1651q0 60 44 101.5t106 41.5q60 0 103.5 -41.5t43.5 -101.5q0 -57 -43.5 -99.5t-103.5 -42.5 q-61 0 -105.5 42.5t-44.5 99.5z" />
<glyph unicode="&#xd7;" horiz-adv-x="956" d="M78 467l215 217l-215 215l182 184l217 -217l217 217l185 -184l-215 -215l215 -217l-185 -184l-217 217l-217 -217z" />
<glyph unicode="&#xd8;" d="M72 711q0 309 221 524q226 215 541 215q184 0 358 -86l131 168l209 -162l-129 -166q192 -207 192 -493q0 -312 -221 -527q-222 -213 -540 -213q-172 0 -334 72l-125 -162l-207 162l117 152q-213 213 -213 516zM387 711q0 -155 90 -277l535 692q-87 37 -178 37 q-188 0 -318 -133q-129 -132 -129 -319zM682 283q73 -25 152 -25q187 0 315 131q131 131 131 322q0 132 -74 247z" />
<glyph unicode="&#xd9;" horiz-adv-x="1464" d="M125 578v849h315v-817q0 -346 293 -346q291 0 291 346v817h315v-849q0 -289 -172 -445q-173 -156 -434 -156q-262 0 -436 154q-172 156 -172 447zM442 1823h328l104 -297h-229z" />
<glyph unicode="&#xda;" horiz-adv-x="1464" d="M125 578v849h315v-817q0 -346 293 -346q291 0 291 346v817h315v-849q0 -289 -172 -445q-173 -156 -434 -156q-262 0 -436 154q-172 156 -172 447zM610 1526l103 297h329l-204 -297h-228z" />
<glyph unicode="&#xdb;" horiz-adv-x="1464" d="M125 578v849h315v-817q0 -346 293 -346q291 0 291 346v817h315v-849q0 -289 -172 -445q-173 -156 -434 -156q-262 0 -436 154q-172 156 -172 447zM350 1556l297 248h174l297 -248h-274l-111 109l-108 -109h-275z" />
<glyph unicode="&#xdc;" horiz-adv-x="1464" d="M125 578v849h315v-817q0 -346 293 -346q291 0 291 346v817h315v-849q0 -289 -172 -445q-173 -156 -434 -156q-262 0 -436 154q-172 156 -172 447zM371 1651q0 60 43.5 101.5t103.5 41.5q62 0 106 -41.5t44 -101.5q0 -57 -44.5 -99.5t-105.5 -42.5q-60 0 -103.5 42.5 t-43.5 99.5zM797 1651q0 60 43.5 101.5t105.5 41.5q60 0 104 -41.5t44 -101.5q0 -57 -44 -99.5t-104 -42.5q-61 0 -105 42.5t-44 99.5z" />
<glyph unicode="&#xdd;" horiz-adv-x="1409" d="M23 1427h342l340 -593l339 593h342l-524 -895v-532h-315v532zM578 1526l102 297h330l-205 -297h-227z" />
<glyph unicode="&#xde;" horiz-adv-x="1132" d="M139 0v1427h316v-256h129q213 0 352 -133t139 -329q0 -195 -139 -328q-137 -131 -348 -131h-133v-250h-316zM455 535h129q80 0 130 49t50 127q0 76 -50.5 126t-131.5 50h-127v-352z" />
<glyph unicode="&#xdf;" horiz-adv-x="1228" d="M102 0v1075q0 163 119 273t295 110q173 0 293 -108q121 -109 121 -265q0 -88 -53 -153q130 -45 212 -164t82 -272q0 -224 -149 -373q-147 -150 -375 -150q-69 0 -133 11v278q40 -12 104 -12q104 0 179 72q73 70 73 174q0 98 -73 168q-74 71 -179 71q-49 0 -104 -14v203 q133 15 133 135q0 50 -35 86.5t-84 36.5q-51 0 -85.5 -37.5t-34.5 -93.5v-1051h-306z" />
<glyph unicode="&#xe0;" horiz-adv-x="1341" d="M57 516q0 224 146 379q147 156 366 156q116 0 200 -43t108 -111v135h305v-670q0 -62 17 -88t58 -26q16 0 52 4v-254q-53 -16 -138 -16q-105 0 -167 36q-72 48 -93 111q-101 -149 -342 -149q-219 0 -366 153q-146 158 -146 383zM362 516q0 -108 76 -184q77 -74 187 -74 q113 0 190 74q80 77 80 184q0 108 -80 182q-76 76 -190 76q-111 0 -187 -76q-76 -73 -76 -182zM375 1427h330l102 -297h-227z" />
<glyph unicode="&#xe1;" horiz-adv-x="1341" d="M57 516q0 224 146 379q147 156 366 156q116 0 200 -43t108 -111v135h305v-670q0 -62 17 -88t58 -26q16 0 52 4v-254q-53 -16 -138 -16q-105 0 -167 36q-72 48 -93 111q-101 -149 -342 -149q-219 0 -366 153q-146 158 -146 383zM362 516q0 -108 76 -184q77 -74 187 -74 q113 0 190 74q80 77 80 184q0 108 -80 182q-76 76 -190 76q-111 0 -187 -76q-76 -73 -76 -182zM541 1130l102 297h330l-205 -297h-227z" />
<glyph unicode="&#xe2;" horiz-adv-x="1341" d="M57 516q0 224 146 379q147 156 366 156q116 0 200 -43t108 -111v135h305v-670q0 -62 17 -88t58 -26q16 0 52 4v-254q-53 -16 -138 -16q-105 0 -167 36q-72 48 -93 111q-101 -149 -342 -149q-219 0 -366 153q-146 158 -146 383zM297 1147l297 248h174l297 -248h-274 l-111 106l-109 -106h-274zM362 516q0 -108 76 -184q77 -74 187 -74q113 0 190 74q80 77 80 184q0 108 -80 182q-76 76 -190 76q-111 0 -187 -76q-76 -73 -76 -182z" />
<glyph unicode="&#xe3;" horiz-adv-x="1341" d="M57 516q0 224 146 379q147 156 366 156q116 0 200 -43t108 -111v135h305v-670q0 -62 17 -88t58 -26q16 0 52 4v-254q-53 -16 -138 -16q-105 0 -167 36q-72 48 -93 111q-101 -149 -342 -149q-219 0 -366 153q-146 158 -146 383zM246 1190q18 118 88 189t178 71 q75 0 166 -45q93 -43 139 -43q69 0 90 86l170 -25q-38 -274 -270 -274q-75 0 -168 43q-91 45 -139 45q-72 0 -84 -72zM362 516q0 -108 76 -184q77 -74 187 -74q113 0 190 74q80 77 80 184q0 108 -80 182q-76 76 -190 76q-111 0 -187 -76q-76 -73 -76 -182z" />
<glyph unicode="&#xe4;" horiz-adv-x="1341" d="M57 516q0 224 146 379q147 156 366 156q116 0 200 -43t108 -111v135h305v-670q0 -62 17 -88t58 -26q16 0 52 4v-254q-53 -16 -138 -16q-105 0 -167 36q-72 48 -93 111q-101 -149 -342 -149q-219 0 -366 153q-146 158 -146 383zM313 1278q0 60 44 101.5t104 41.5 q62 0 105.5 -41t43.5 -102q0 -57 -44 -99t-105 -42q-60 0 -104 42t-44 99zM362 516q0 -108 76 -184q77 -74 187 -74q113 0 190 74q80 77 80 184q0 108 -80 182q-76 76 -190 76q-111 0 -187 -76q-76 -73 -76 -182zM741 1278q0 60 44 101.5t104 41.5q62 0 105.5 -41t43.5 -102 q0 -57 -44 -99t-105 -42q-60 0 -104 42t-44 99z" />
<glyph unicode="&#xe5;" horiz-adv-x="1341" d="M57 516q0 224 146 379q147 156 366 156q116 0 200 -43t108 -111v135h305v-670q0 -62 17 -88t58 -26q16 0 52 4v-254q-53 -16 -138 -16q-105 0 -167 36q-72 48 -93 111q-101 -149 -342 -149q-219 0 -366 153q-146 158 -146 383zM362 516q0 -108 76 -184q77 -74 187 -74 q113 0 190 74q80 77 80 184q0 108 -80 182q-76 76 -190 76q-111 0 -187 -76q-76 -73 -76 -182zM426 1358q0 95 74 166q72 69 176 69q105 0 174 -69q74 -71 74 -166q0 -97 -74 -168q-70 -70 -174 -70q-103 0 -176 70q-74 71 -74 168zM595 1358q0 -32 23 -55q34 -35 78 -19.5 t55 54.5t-20 75q-23 23 -55.5 23t-57.5 -23q-23 -23 -23 -55z" />
<glyph unicode="&#xe6;" horiz-adv-x="2105" d="M57 516q0 224 146 379q147 156 366 156q124 0 214.5 -43t113.5 -111v135h285v-125q41 66 122.5 105t178.5 39q226 0 375 -152q149 -149 149 -377q0 -30 -4 -88h-789q6 -88 79 -139t194 -51q161 0 262 98l180 -174q-186 -186 -456 -186q-209 0 -291 129v-111h-285v135 q-23 -68 -113.5 -110.5t-214.5 -42.5q-219 0 -366 153q-146 158 -146 381zM362 516q0 -108 76 -184q77 -74 187 -74q113 0 190 74q80 77 80 184q0 108 -80 182q-76 76 -190 76q-111 0 -187 -76q-76 -73 -76 -182zM1221 633h479q-11 73 -78 121.5t-160 48.5t-161 -48 t-80 -122z" />
<glyph unicode="&#xe7;" horiz-adv-x="1091" d="M57 518q0 233 164 389q169 158 406 158q255 0 430 -193l-193 -190q-100 106 -237 106q-113 0 -189 -77t-76 -193t76.5 -192t188.5 -76q137 0 237 106l193 -190q-156 -176 -381 -191h-2l-29 -69q58 0 96.5 -42t38.5 -110q0 -97 -65.5 -148.5t-182.5 -51.5q-113 0 -192 55 l61 127q50 -29 97 -29q33 0 54 17.5t21 46.5q0 41 -28 57t-92 16l57 140q-197 38 -326 182q-127 148 -127 352z" />
<glyph unicode="&#xe8;" horiz-adv-x="1196" d="M57 510v8q0 242 158 391q156 150 401 150q234 0 383 -152q148 -151 148 -372q0 -37 -4 -99h-781q5 -92 79.5 -147.5t195.5 -55.5q145 0 252 101l178 -170q-183 -189 -444 -189q-252 0 -410 146q-156 147 -156 389zM322 1427h327l105 -297h-230zM367 635h473 q0 72 -65.5 122t-158.5 50q-99 0 -171 -50t-78 -122z" />
<glyph unicode="&#xe9;" horiz-adv-x="1196" d="M57 510v8q0 242 158 391q156 150 401 150q234 0 383 -152q148 -151 148 -372q0 -37 -4 -99h-781q5 -92 79.5 -147.5t195.5 -55.5q145 0 252 101l178 -170q-183 -189 -444 -189q-252 0 -410 146q-156 147 -156 389zM367 635h473q0 72 -65.5 122t-158.5 50q-99 0 -171 -50 t-78 -122zM473 1130l102 297h330l-205 -297h-227z" />
<glyph unicode="&#xea;" horiz-adv-x="1196" d="M57 510v8q0 242 158 391q156 150 401 150q234 0 383 -152q148 -151 148 -372q0 -37 -4 -99h-781q5 -92 79.5 -147.5t195.5 -55.5q145 0 252 101l178 -170q-183 -189 -444 -189q-252 0 -410 146q-156 147 -156 389zM250 1147l297 248h174l297 -248h-275l-110 106 l-109 -106h-274zM367 635h473q0 72 -65.5 122t-158.5 50q-99 0 -171 -50t-78 -122z" />
<glyph unicode="&#xeb;" horiz-adv-x="1196" d="M57 510v8q0 242 158 391q156 150 401 150q234 0 383 -152q148 -151 148 -372q0 -37 -4 -99h-781q5 -92 79.5 -147.5t195.5 -55.5q145 0 252 101l178 -170q-183 -189 -444 -189q-252 0 -410 146q-156 147 -156 389zM254 1278q0 60 43.5 101.5t105.5 41.5t105 -41t43 -102 q0 -57 -44 -99t-104 -42q-61 0 -105 42t-44 99zM367 635h473q0 72 -65.5 122t-158.5 50q-99 0 -171 -50t-78 -122zM682 1278q0 60 43.5 101.5t103.5 41.5q62 0 106 -41t44 -102q0 -57 -44.5 -99t-105.5 -42q-60 0 -103.5 42t-43.5 99z" />
<glyph unicode="&#xec;" horiz-adv-x="550" d="M-37 1427h330l94 -297h-227zM102 272v760h306v-670q0 -58 15.5 -83t53.5 -25q25 0 37 4v-260q-43 -16 -141 -16q-271 0 -271 290z" />
<glyph unicode="&#xed;" horiz-adv-x="550" d="M102 272v760h306v-670q0 -58 15.5 -83t53.5 -25q25 0 37 4v-260q-43 -16 -141 -16q-271 0 -271 290zM109 1130l94 297h329l-196 -297h-227z" />
<glyph unicode="&#xee;" horiz-adv-x="593" d="M-39 1147l252 248h176l252 -248h-260l-80 117l-82 -117h-258zM145 272v760h306v-670q0 -58 15.5 -83t53.5 -25q25 0 37 4v-260q-43 -16 -141 -16q-271 0 -271 290z" />
<glyph unicode="&#xef;" horiz-adv-x="587" d="M-31 1282q0 57 43 98t102.5 41t100.5 -41q43 -41 43 -98t-43 -98q-41 -38 -100.5 -38t-102.5 38q-43 41 -43 98zM139 272v760h305v-670q0 -59 15 -83.5t55 -24.5q21 0 37 4v-260q-53 -16 -143 -16q-269 0 -269 290zM324 1282q0 57 41 98q43 41 102 41t100 -41 q43 -41 43 -98t-43 -98q-41 -38 -100 -38t-102 38q-41 41 -41 98z" />
<glyph unicode="&#xf0;" horiz-adv-x="1112" d="M57 453q0 192 136 325t329 133q160 0 232 -90q-70 159 -181 234l-116 -121l-176 156l94 102q-73 39 -213 76l80 241q159 -35 309 -123l139 148l176 -160l-123 -129q206 -184 275 -426q39 -133 39 -260q0 -269 -142 -426q-138 -156 -372 -156q-203 0 -344 138 q-142 139 -142 338zM354 453q0 -84 58 -142q57 -57 145 -57q86 0 143 57q60 60 60 142t-60 139q-57 57 -143 57q-88 0 -145 -57q-58 -55 -58 -139z" />
<glyph unicode="&#xf1;" horiz-adv-x="1236" d="M102 0v1032h306v-129q33 68 113.5 110t183.5 42q185 0 288 -113t103 -315v-260q0 -61 14.5 -85t52.5 -24h21l12 2v-258q-35 -14 -133 -14q-272 0 -272 295v307q0 92 -47.5 143t-137.5 51q-87 0 -142.5 -57t-55.5 -147v-580h-306zM195 1190q18 118 87 189t177 71 q75 0 166 -45q93 -43 139 -43q71 0 92 86l168 -25q-38 -274 -268 -274q-79 0 -172 43q-91 45 -138 45q-72 0 -84 -72z" />
<glyph unicode="&#xf2;" horiz-adv-x="1261" d="M57 516q0 231 166 387q171 160 408 160q234 0 405 -160q168 -155 168 -387q0 -231 -168 -389q-172 -158 -405 -158q-236 0 -408 158q-166 159 -166 389zM330 1427h329l103 -297h-227zM362 516q0 -114 78 -192t191 -78q112 0 190 78q78 81 78 192q0 113 -78 191 q-76 79 -190 79q-115 0 -191 -79q-78 -78 -78 -191z" />
<glyph unicode="&#xf3;" horiz-adv-x="1261" d="M57 516q0 231 166 387q171 160 408 160q234 0 405 -160q168 -155 168 -387q0 -231 -168 -389q-172 -158 -405 -158q-236 0 -408 158q-166 159 -166 389zM362 516q0 -114 78 -192t191 -78q112 0 190 78q78 81 78 192q0 113 -78 191q-76 79 -190 79q-115 0 -191 -79 q-78 -78 -78 -191zM508 1130l102 297h330l-205 -297h-227z" />
<glyph unicode="&#xf4;" horiz-adv-x="1261" d="M57 516q0 231 166 387q171 160 408 160q234 0 405 -160q168 -155 168 -387q0 -231 -168 -389q-172 -158 -405 -158q-236 0 -408 158q-166 159 -166 389zM248 1147l297 248h174l297 -248h-275l-110 106l-109 -106h-274zM362 516q0 -114 78 -192t191 -78q112 0 190 78 q78 81 78 192q0 113 -78 191q-76 79 -190 79q-115 0 -191 -79q-78 -78 -78 -191z" />
<glyph unicode="&#xf5;" horiz-adv-x="1261" d="M57 516q0 231 166 387q171 160 408 160q234 0 405 -160q168 -155 168 -387q0 -231 -168 -389q-172 -158 -405 -158q-236 0 -408 158q-166 159 -166 389zM211 1190q19 119 88.5 189.5t177.5 70.5q75 0 166 -45q93 -43 139 -43q69 0 90 86l170 -25q-38 -274 -270 -274 q-75 0 -168 43q-91 45 -139 45q-72 0 -84 -72zM362 516q0 -114 78 -192t191 -78q112 0 190 78q78 81 78 192q0 113 -78 191q-76 79 -190 79q-115 0 -191 -79q-78 -78 -78 -191z" />
<glyph unicode="&#xf6;" horiz-adv-x="1261" d="M57 516q0 231 166 387q171 160 408 160q234 0 405 -160q168 -155 168 -387q0 -231 -168 -389q-172 -158 -405 -158q-236 0 -408 158q-166 159 -166 389zM266 1278q0 60 44 101.5t106 41.5t104.5 -41t42.5 -102q0 -57 -43.5 -99t-103.5 -42q-61 0 -105.5 42t-44.5 99z M362 516q0 -114 78 -192t191 -78q112 0 190 78q78 81 78 192q0 113 -78 191q-76 79 -190 79q-115 0 -191 -79q-78 -78 -78 -191zM694 1278q0 60 44 101.5t104 41.5q62 0 105.5 -41t43.5 -102q0 -57 -44 -99t-105 -42q-60 0 -104 42t-44 99z" />
<glyph unicode="&#xf7;" horiz-adv-x="1099" d="M88 582v264h926v-264h-926zM383 340q0 69 49.5 117.5t118.5 48.5q68 0 118 -49.5t50 -116.5q0 -69 -50 -118.5t-118 -49.5q-69 0 -118.5 49.5t-49.5 118.5zM383 1087q0 69 49.5 118.5t118.5 49.5q68 0 118 -49.5t50 -118.5q0 -67 -50 -116t-118 -49q-69 0 -118.5 48 t-49.5 117z" />
<glyph unicode="&#xf8;" horiz-adv-x="1261" d="M57 516q0 231 166 387q171 160 408 160q124 0 237 -49l86 114l172 -129l-82 -106q160 -160 160 -377q0 -231 -168 -389q-172 -158 -405 -158q-127 0 -240 49l-94 -127l-172 129l88 117q-156 159 -156 379zM358 516q0 -75 43 -139l289 391q-20 14 -59 14q-115 0 -195 -77 q-78 -78 -78 -189zM567 262q27 -12 64 -12q116 0 192 76q80 77 80 190q0 73 -43 137z" />
<glyph unicode="&#xf9;" horiz-adv-x="1230" d="M92 406v626h305v-590q0 -92 46 -143t132 -51q85 0 138 57t53 148v579h305v-670q0 -62 17.5 -88t58.5 -26q15 0 51 4v-254q-53 -16 -137 -16q-106 0 -168 36q-71 47 -92 111q-78 -152 -303 -152q-194 0 -300 113.5t-106 315.5zM293 1427h330l102 -297h-227z" />
<glyph unicode="&#xfa;" horiz-adv-x="1230" d="M92 406v626h305v-590q0 -92 46 -143t132 -51q85 0 138 57t53 148v579h305v-670q0 -62 17.5 -88t58.5 -26q15 0 51 4v-254q-53 -16 -137 -16q-106 0 -168 36q-71 47 -92 111q-78 -152 -303 -152q-194 0 -300 113.5t-106 315.5zM446 1130l105 297h330l-205 -297h-230z" />
<glyph unicode="&#xfb;" horiz-adv-x="1230" d="M92 406v626h305v-590q0 -92 46 -143t132 -51q85 0 138 57t53 148v579h305v-670q0 -62 17.5 -88t58.5 -26q15 0 51 4v-254q-53 -16 -137 -16q-106 0 -168 36q-71 47 -92 111q-78 -152 -303 -152q-194 0 -300 113.5t-106 315.5zM207 1147l297 248h176l297 -248h-275 l-110 106l-109 -106h-276z" />
<glyph unicode="&#xfc;" horiz-adv-x="1230" d="M92 406v626h305v-590q0 -92 46 -143t132 -51q85 0 138 57t53 148v579h305v-670q0 -62 17.5 -88t58.5 -26q15 0 51 4v-254q-53 -16 -137 -16q-106 0 -168 36q-71 47 -92 111q-78 -152 -303 -152q-194 0 -300 113.5t-106 315.5zM229 1278q0 60 44 101.5t104 41.5 q62 0 105.5 -41t43.5 -102q0 -57 -44 -99t-105 -42q-60 0 -104 42t-44 99zM657 1278q0 60 44 101.5t104 41.5q62 0 105.5 -41t43.5 -102q0 -57 -44 -99t-105 -42q-60 0 -104 42t-44 99z" />
<glyph unicode="&#xfd;" horiz-adv-x="1191" d="M16 1032h312l280 -717l254 717h312l-459 -1196q-53 -133 -119 -190q-104 -90 -277 -90q-75 0 -135 14v264q53 -16 125 -16q57 0 88 22q32 22 43 66l17 45zM463 1130l102 297h330l-205 -297h-227z" />
<glyph unicode="&#xfe;" horiz-adv-x="1282" d="M102 -395v1822h306v-530q24 68 107.5 111t199.5 43q220 0 364 -156q148 -154 148 -379q0 -224 -148 -381q-144 -153 -364 -153q-116 0 -200 42.5t-107 110.5v-530h-306zM389 516q0 -106 78 -184q80 -74 192 -74q110 0 187 74q76 76 76 184q0 109 -76 182q-76 76 -187 76 q-113 0 -192 -76q-78 -75 -78 -182z" />
<glyph unicode="&#xff;" horiz-adv-x="1191" d="M16 1032h312l280 -717l254 717h312l-459 -1196q-53 -133 -119 -190q-104 -90 -277 -90q-75 0 -135 14v264q53 -16 125 -16q57 0 88 22q32 22 43 66l17 45zM246 1278q0 60 43.5 101.5t103.5 41.5q62 0 106 -41t44 -102q0 -57 -44.5 -99t-105.5 -42q-60 0 -103.5 42 t-43.5 99zM674 1278q0 60 42.5 101.5t104.5 41.5t105 -41t43 -102q0 -60 -43 -100.5t-105 -40.5t-104.5 40.5t-42.5 100.5z" />
<glyph unicode="&#x152;" horiz-adv-x="2189" d="M72 713q0 310 221 522q221 215 536 215q281 0 437 -178v155h817v-284h-506v-279h467v-264h-467v-319h520v-281h-831v156q-150 -179 -437 -179q-314 0 -536 213q-221 212 -221 523zM393 713q0 -191 131 -322t322 -131q190 0 321 131q133 133 133 322q0 186 -133 319 t-321 133q-189 0 -322 -133q-131 -131 -131 -319z" />
<glyph unicode="&#x153;" horiz-adv-x="2009" d="M57 516q0 231 166 387q171 160 408 160q254 0 399 -189q145 189 416 189q228 0 375 -156q149 -155 149 -385q0 -30 -4 -88h-788q6 -94 78.5 -148.5t193.5 -54.5q160 0 262 99l180 -174q-187 -187 -456 -187q-276 0 -408 181q-144 -181 -397 -181q-236 0 -408 158 q-166 159 -166 389zM362 516q0 -114 78 -192t191 -78q112 0 190 78q78 81 78 192q0 113 -78 191q-76 79 -190 79q-115 0 -191 -79q-78 -78 -78 -191zM1184 633h479q-11 78 -78.5 130t-159.5 52q-93 0 -161 -52t-80 -130z" />
<glyph unicode="&#x178;" horiz-adv-x="1409" d="M23 1427h342l340 -593l339 593h342l-524 -895v-532h-315v532zM340 1651q0 60 43.5 101.5t105.5 41.5q60 0 104 -41.5t44 -101.5t-44 -102t-104 -42q-62 0 -105.5 42t-43.5 102zM768 1651q0 57 43.5 100t103.5 43q62 0 106 -41.5t44 -101.5t-44 -102t-106 -42 q-60 0 -103.5 42t-43.5 102z" />
<glyph unicode="&#x2c6;" horiz-adv-x="1110" d="M166 1147l293 248h192l295 -248h-274l-117 113l-115 -113h-274z" />
<glyph unicode="&#x2dc;" horiz-adv-x="1091" d="M131 1204q18 118 87 189t177 71q75 0 166 -45q93 -43 139 -43q72 0 93 86l168 -24q-37 -273 -269 -273q-77 0 -170 43t-139 43q-69 0 -84 -71z" />
<glyph unicode="&#x2000;" horiz-adv-x="912" />
<glyph unicode="&#x2001;" horiz-adv-x="1825" />
<glyph unicode="&#x2002;" horiz-adv-x="912" />
<glyph unicode="&#x2003;" horiz-adv-x="1825" />
<glyph unicode="&#x2004;" horiz-adv-x="608" />
<glyph unicode="&#x2005;" horiz-adv-x="456" />
<glyph unicode="&#x2006;" horiz-adv-x="304" />
<glyph unicode="&#x2007;" horiz-adv-x="304" />
<glyph unicode="&#x2008;" horiz-adv-x="228" />
<glyph unicode="&#x2009;" horiz-adv-x="365" />
<glyph unicode="&#x200a;" horiz-adv-x="101" />
<glyph unicode="&#x2010;" horiz-adv-x="892" d="M80 432v279h733v-279h-733z" />
<glyph unicode="&#x2011;" horiz-adv-x="892" d="M80 432v279h733v-279h-733z" />
<glyph unicode="&#x2012;" horiz-adv-x="892" d="M80 432v279h733v-279h-733z" />
<glyph unicode="&#x2013;" horiz-adv-x="1116" d="M78 432v279h960v-279h-960z" />
<glyph unicode="&#x2014;" horiz-adv-x="1499" d="M78 432v279h1343v-279h-1343z" />
<glyph unicode="&#x2018;" horiz-adv-x="528" d="M33 930l262 497h225l-184 -497h-303z" />
<glyph unicode="&#x2019;" horiz-adv-x="534" d="M29 930l182 497h303l-262 -497h-223z" />
<glyph unicode="&#x201a;" horiz-adv-x="493" d="M-55 -262l180 489h303l-258 -489h-225z" />
<glyph unicode="&#x201c;" horiz-adv-x="905" d="M33 930l262 497h225l-184 -497h-303zM412 930l260 497h225l-184 -497h-301z" />
<glyph unicode="&#x201d;" horiz-adv-x="911" d="M29 930l182 497h303l-262 -497h-223zM408 930l182 497h303l-262 -497h-223z" />
<glyph unicode="&#x201e;" horiz-adv-x="872" d="M-55 -262l180 489h303l-258 -489h-225zM322 -262l180 489h303l-258 -489h-225z" />
<glyph unicode="&#x2022;" horiz-adv-x="737" d="M125 516q0 100 72 172t172 72t172 -72q71 -71 71 -172q0 -103 -71 -174q-70 -70 -172 -70q-97 0 -172 72q-72 72 -72 172z" />
<glyph unicode="&#x2026;" horiz-adv-x="1329" d="M50 147q0 67 50 117q51 50 118.5 50t117.5 -50q51 -50 51 -117t-51 -116q-50 -49 -117.5 -49t-118.5 49q-50 49 -50 116zM496 147q0 67 50 116.5t118 49.5q69 0 118 -48.5t49 -117.5t-49 -117t-118 -48q-68 0 -118 49t-50 116zM942 147q0 69 49.5 117.5t118.5 48.5 q68 0 118 -49.5t50 -116.5t-50 -116t-118 -49q-69 0 -118.5 48t-49.5 117z" />
<glyph unicode="&#x202f;" horiz-adv-x="365" />
<glyph unicode="&#x2039;" horiz-adv-x="686" d="M63 518l248 383h316l-254 -383l254 -383h-316z" />
<glyph unicode="&#x203a;" horiz-adv-x="686" d="M61 135l252 383l-252 383h316l246 -383l-246 -383h-316z" />
<glyph unicode="&#x205f;" horiz-adv-x="456" />
<glyph unicode="&#x20ac;" horiz-adv-x="1558" d="M10 510l70 152h131q-2 14 -2 51q0 44 4 80h-164l68 151h127q71 229 258 367q189 139 428 139q320 0 534 -258l-215 -182q-128 155 -319 155q-112 0 -203.5 -59t-142.5 -162h489l-67 -151h-476q-6 -24 -6 -80q0 -37 2 -51h422l-69 -152h-312q50 -116 146 -183t217 -67 q196 0 323 160l217 -182q-218 -261 -540 -261q-245 0 -441 146q-188 145 -253 387h-226z" />
<glyph unicode="&#x2122;" horiz-adv-x="1855" d="M49 1165v262h717v-262h-215v-497h-281v497h-221zM868 668v759h166l293 -329l295 329h162v-759h-262v327l-195 -217l-197 217v-327h-262z" />
<glyph unicode="&#x25fc;" horiz-adv-x="1034" d="M0 0v1034h1034v-1034h-1034z" />
<glyph unicode="&#xfb01;" horiz-adv-x="1257" d="M51 756v276h170v29q0 228 121 317q107 78 326 78q138 0 211 -12v-252q-65 10 -150 10q-113 0 -164 -28.5t-51 -94.5v-47h600v-670q0 -58 16 -83t54 -25q25 0 37 4v-260q-43 -16 -142 -16q-270 0 -270 290v484h-293v-756h-295v756h-170z" />
<glyph unicode="&#xfb02;" horiz-adv-x="1398" d="M49 756v276h170v29q0 224 121 319q88 76 285 76q55 0 123 -10v-254q-30 10 -93 10q-74 0 -107.5 -28.5t-33.5 -94.5v-47h207v-276h-207v-756h-295v756h-170zM866 336v1091h305v-1044q0 -69 28 -101t91 -32q47 0 74 8v-270q-52 -15 -145 -15q-353 0 -353 363z" />
<glyph unicode="&#xfb03;" horiz-adv-x="1843" d="M49 756v276h170v29q0 222 107 307q107 88 284 88q55 0 123 -10v-254q-27 10 -84 10q-73 0 -106 -29t-33 -94v-47h309v29q0 228 121 317q107 78 326 78q138 0 211 -12v-252q-65 10 -150 10q-113 0 -164 -28.5t-51 -94.5v-47h588v-670q0 -58 15.5 -83t53.5 -25q25 0 37 4 v-260q-43 -16 -141 -16q-270 0 -270 290v484h-281v-756h-295v756h-305v-756h-295v756h-170z" />
<glyph unicode="&#xfb04;" horiz-adv-x="1978" d="M49 756v276h170v29q0 222 107 307q107 88 284 88q55 0 123 -10v-254q-27 10 -84 10q-73 0 -106 -29t-33 -94v-47h309v29q0 221 109 307q110 88 297 88q55 0 123 -10v-254q-30 10 -91 10q-76 0 -111.5 -29t-35.5 -94v-47h211v-276h-207v-756h-295v756h-305v-756h-295v756 h-170zM1446 336v1091h305v-1044q0 -69 28 -101t91 -32q47 0 74 8v-270q-52 -15 -146 -15q-352 0 -352 363z" />
</font>
</defs>
</svg>
