<?xml version="1.0" standalone="no"?>
<!DOCTYPE svg PUBLIC "-//W3C//DTD SVG 1.1//EN" "http://www.w3.org/Graphics/SVG/1.1/DTD/svg11.dtd" >
<svg xmlns="http://www.w3.org/2000/svg">
<metadata></metadata>
<defs>
<font id="hurme_geometric_sans_hairline" horiz-adv-x="1157" >
<font-face units-per-em="2048" ascent="1591" descent="-457" />
<missing-glyph horiz-adv-x="843" />
<glyph horiz-adv-x="0" />
<glyph horiz-adv-x="682" />
<glyph unicode=" "  horiz-adv-x="843" />
<glyph unicode="&#x09;" horiz-adv-x="843" />
<glyph unicode="&#xa0;" horiz-adv-x="843" />
<glyph unicode="!" horiz-adv-x="393" d="M177 14.5q0 20.5 20 20.5t20 -20.5t-20 -20.5t-20 20.5zM190 317v1110h13v-1110h-13z" />
<glyph unicode="&#x22;" horiz-adv-x="370" d="M111 1427h22l-6 -516h-10zM238 1427h22l-6 -516h-10z" />
<glyph unicode="#" horiz-adv-x="1034" d="M80 514v12h192l93 363h-193v12h197l51 207h12l-51 -207h371l51 207h12l-51 -207h194v-12h-198l-92 -363h200v-12h-204l-56 -211h-12l55 211h-370l-56 -211h-12l55 211h-188zM285 526h370l93 363h-371z" />
<glyph unicode="$" horiz-adv-x="1036" d="M59 295l13 4q51 -143 163 -223t267 -84v774q-171 79 -250 158q-76 79 -76 225q0 130 92 213q93 84 234 84v207h12v-207q219 -6 313 -178l-10 -6q-94 166 -303 172v-660q213 -94 305 -186q90 -90 90 -252q0 -164 -106 -260t-289 -96v-199h-12v199q-159 5 -275.5 86.5 t-167.5 228.5zM188 1149q0 -140 74 -217q72 -75 240 -152v654q-137 0 -225.5 -80.5t-88.5 -204.5zM514 -8q174 0 278.5 93t104.5 251q0 153 -86 239q-84 90 -297 185v-768z" />
<glyph unicode="%" horiz-adv-x="1433" d="M94 1114q0 131 94 225q95 95 226 95q130 0 225 -95q94 -94 94 -225t-94 -225t-225 -94q-132 0 -226 94t-94 225zM106 1114q0 -126 91 -217q90 -90 217 -90t217 90t90 217t-90 217t-217 90t-217 -90q-91 -91 -91 -217zM248 0l923 1427h15l-924 -1427h-14zM700 313 q0 134 95 226q94 94 225 94t225 -94q94 -91 94 -226q0 -133 -94 -227q-95 -92 -225 -92t-225 92q-95 95 -95 227zM713 313q0 -127 90 -217t217 -90t217 90t90 217q0 125 -90 215q-90 93 -217 93q-126 0 -217 -91q-90 -90 -90 -217z" />
<glyph unicode="&#x26;" horiz-adv-x="1472" d="M109 438q0 323 362 449q-70 116 -70 237q0 139 86 228q88 88 220 88q133 0 215 -82q86 -83 86 -209q0 -90 -50 -158t-127 -92h584v-12h-297v-156q0 -251 -80 -446l281 -285h-16l-269 272q-141 -284 -446 -284q-216 0 -348 123q-131 122 -131 327zM121 438 q0 -198 127 -319q125 -119 340 -119q304 0 436 283l-145 143l-164 162q-87 91 -131 143q-63 73 -107 146q-356 -120 -356 -439zM414 1124q0 -148 100 -284q57 -77 88 -113q13 -15 51 -55.5t56 -59.5l319 -317q78 185 78 436v156h-338v12q84 0 156 72q71 71 71 178 q0 122 -80.5 200t-207.5 78q-118 0 -205 -81q-88 -79 -88 -222z" />
<glyph unicode="'" horiz-adv-x="243" d="M111 1427h22l-6 -516h-10z" />
<glyph unicode="(" horiz-adv-x="503" d="M117 633q0 555 444 944l8 -8q-440 -387 -440 -936q0 -550 440 -934l-8 -10q-444 395 -444 944z" />
<glyph unicode=")" horiz-adv-x="503" d="M-66 -301q441 385 441 934q0 548 -441 936l9 8q444 -389 444 -944q0 -549 -444 -944z" />
<glyph unicode="*" horiz-adv-x="917" d="M172 1219l4 10l277 -96v294h12v-294l276 96l4 -10l-278 -99l184 -229l-10 -6l-182 227l-183 -227l-10 6l185 229z" />
<glyph unicode="+" horiz-adv-x="827" d="M106 711v12h302v313h12v-313h301v-12h-301v-322h-12v322h-302z" />
<glyph unicode="," horiz-adv-x="321" d="M-25 -262l209 489h23l-221 -489h-11z" />
<glyph unicode="-" horiz-adv-x="595" d="M104 530v13h388v-13h-388z" />
<glyph unicode="." horiz-adv-x="290" d="M125 14.5q0 20.5 20 20.5t20 -20.5t-20 -20.5t-20 20.5z" />
<glyph unicode="/" horiz-adv-x="776" d="M23 -279l643 1760h12l-643 -1760h-12z" />
<glyph unicode="0" horiz-adv-x="1132" d="M102 715q0 244 7 319q18 186 149 299t307 113t307 -113q132 -114 150 -299q6 -65 6 -319q0 -257 -6 -322q-18 -184 -148 -299q-127 -112 -309 -112t-309 112q-129 114 -147 299q-7 75 -7 322zM115 715q0 -257 6 -322q15 -173 141 -287q124 -112 303 -112q177 0 301 112 q129 117 144 287q6 64 6 322q0 255 -6 319q-15 170 -144 287q-125 113 -301 113q-178 0 -303 -113q-126 -114 -141 -287q-6 -64 -6 -319z" />
<glyph unicode="1" horiz-adv-x="509" d="M57 1415v12h250v-1427h-12v1415h-238z" />
<glyph unicode="2" horiz-adv-x="999" d="M51 0v10l699 778q70 78 94 140.5t24 148.5q0 145 -108 250q-107 107 -260 107q-151 0 -260 -109t-109 -258h-12q0 156 110 266q113 113 271 113q156 0 268 -109q113 -107 113 -260q0 -82 -23.5 -147t-91.5 -142l-696 -776h839v-12h-858z" />
<glyph unicode="3" horiz-adv-x="1110" d="M43 295l12 4q47 -140 174 -221q134 -84 295 -84q205 0 338 127q131 125 131 328q0 190 -125 309q-126 123 -317 123q-91 0 -158 -23l-8 12l516 545h-725v12h746v-10l-514 -543q43 19 143 19q201 0 326 -125q129 -126 129 -319q0 -213 -136 -340t-346 -127q-168 0 -301 86 q-134 90 -180 227z" />
<glyph unicode="4" horiz-adv-x="1120" d="M98 381v10l510 1036h17l-510 -1034h805v383h12v-776h-12v381h-822z" />
<glyph unicode="5" horiz-adv-x="1110" d="M70 281l12 4q54 -134 173.5 -212.5t268.5 -78.5q201 0 334 133q135 135 135 334q0 203 -131 334q-130 133 -323 133q-206 0 -344 -144l-15 4l115 639h596v-12h-586l-110 -614q136 139 344 139q197 0 331 -137q136 -136 136 -342q0 -202 -140 -342q-137 -137 -342 -137 q-153 0 -276.5 81.5t-177.5 217.5z" />
<glyph unicode="6" horiz-adv-x="1148" d="M102 461q0 141 70 260l481 706h15l-420 -616q124 127 327 127q204 0 338 -137q138 -135 138 -340q0 -204 -138 -342q-134 -137 -338 -137q-202 0 -337 135q-136 139 -136 344zM115 461q0 -200 131 -334q133 -133 329 -133q197 0 330 133t133 334q0 199 -133 332t-330 133 q-196 0 -329 -133q-131 -131 -131 -332z" />
<glyph unicode="7" horiz-adv-x="1087" d="M74 1415v12h956v-12l-678 -1415h-14l678 1415h-942z" />
<glyph unicode="8" horiz-adv-x="1064" d="M94 403q0 163 105 277q106 118 268 139q-118 21 -191 109t-73 202q0 136 94 224q95 92 235 92q138 0 234 -90t96 -226q0 -116 -76 -204q-74 -89 -188 -107q156 -15 264 -135q109 -118 109 -281q0 -177 -127 -301q-126 -120 -312 -120q-185 0 -311 120q-127 124 -127 301z M106 403q0 -170 123 -290q122 -119 303 -119q182 0 304 119t122 290q0 172 -122 291t-304 119q-181 0 -303 -119q-123 -120 -123 -291zM215 1130q0 -128 92 -217q91 -88 225 -88q135 0 226 88q92 89 92 217q0 130 -92 216q-88 88 -226 88q-136 0 -227 -88q-90 -87 -90 -216z " />
<glyph unicode="9" horiz-adv-x="1146" d="M100 967q0 204 138 342q137 137 337 137q197 0 336 -139q138 -138 138 -340q0 -141 -70 -260l-485 -707h-15l424 616q-133 -127 -328 -127q-200 0 -339 136q-136 139 -136 342zM113 967q0 -201 131 -332q133 -133 331 -133q195 0 328 133t133 332q0 198 -133 331 q-133 136 -328 136q-197 0 -331 -134q-131 -131 -131 -333z" />
<glyph unicode=":" horiz-adv-x="290" d="M125 233q0 20 20.5 20t20.5 -20t-20.5 -20t-20.5 20zM125 799q0 20 20.5 20t20.5 -20t-20.5 -20t-20.5 20z" />
<glyph unicode=";" horiz-adv-x="311" d="M-20 -229l194 456h23l-205 -456h-12zM166 799q0 20 20.5 20t20.5 -20t-20.5 -20t-20.5 20z" />
<glyph unicode="&#x3c;" horiz-adv-x="817" d="M94 723v12l617 398v-15l-607 -389l607 -391v-14z" />
<glyph unicode="=" horiz-adv-x="913" d="M106 612v13h701v-13h-701zM106 827v13h701v-13h-701z" />
<glyph unicode="&#x3e;" horiz-adv-x="823" d="M106 324v14l607 391l-607 389v15l617 -398v-12z" />
<glyph unicode="?" horiz-adv-x="782" d="M106 1311v18q115 109 265 109q101 0 173 -33t99 -86q47 -80 47 -139q0 -147 -82 -232q-43 -47 -80 -71l-98 -72q-41 -27 -96 -70q-133 -106 -133 -219q0 -94 58 -144t167 -50q81 0 119 32v-14q-48 -31 -119 -31q-111 0 -174.5 54.5t-63.5 152.5q0 112 134 225 q56 45 122 90q86 59 123 93q44 37 77.5 106.5t33.5 149.5q0 39 -23 90q-62 155 -284 155q-154 0 -265 -114zM363 12.5q0 20.5 20 20.5t20 -20.5t-20 -20.5t-20 20.5z" />
<glyph unicode="@" horiz-adv-x="1650" d="M98 598q0 289 207 508q208 217 520 217q293 0 510 -199t217 -491q0 -397 -221 -397q-180 0 -180 253q-20 -120 -111 -194t-215 -74q-150 0 -252 105t-102 258q0 151 102 256q103 106 252 106q122 0 213 -76q92 -74 113 -192v250h12v-434q0 -246 168 -246q209 0 209 385 q0 280 -211 479q-208 199 -504 199q-297 0 -506 -209q-208 -208 -208 -504q0 -298 208 -506q209 -209 506 -209q191 0 359 97l6 -11q-165 -98 -365 -98q-301 0 -514 213t-213 514zM483 584q0 -148 99 -250q98 -101 243 -101q140 0 234 97q92 100 92 254q0 158 -94 252 q-91 98 -232 98q-140 0 -243 -103q-99 -102 -99 -247z" />
<glyph unicode="A" horiz-adv-x="1269" d="M72 0l557 1427h12l557 -1427h-12l-178 455h-746l-178 -455h-12zM266 467h738l-369 944z" />
<glyph unicode="B" horiz-adv-x="1187" d="M209 0v1427h409q147 0 238 -94q94 -91 94 -239q0 -118 -66.5 -205t-178.5 -113q159 -19 252.5 -127t93.5 -270q0 -156 -109 -268q-108 -111 -266 -111h-467zM221 12h455q152 0 256 107q106 106 106 260q0 172 -106 278q-109 109 -275 109h-436v-754zM221 778h397 q142 0 230 88q90 90 90 228q0 141 -89.5 231t-230.5 90h-397v-637z" />
<glyph unicode="C" horiz-adv-x="1501" d="M117 713q0 311 211 522t524 211q328 0 543 -238l-9 -8q-98 110 -237 172t-297 62q-306 0 -516 -207q-207 -207 -207 -514t207 -514q208 -205 516 -205q336 0 541 239l8 -8q-217 -243 -549 -243q-313 0 -524 211t-211 520z" />
<glyph unicode="D" horiz-adv-x="1456" d="M209 0v1427h387q335 0 534 -196q203 -194 203 -518t-200 -518q-201 -195 -535 -195h-389zM221 12h377q329 0 526 191t197 510q0 320 -199 510q-195 192 -526 192h-375v-1403z" />
<glyph unicode="E" horiz-adv-x="1091" d="M209 0v1427h733v-12h-721v-653h682v-12h-682v-738h735v-12h-747z" />
<glyph unicode="F" horiz-adv-x="964" d="M209 0v1427h633v-12h-621v-653h570v-12h-570v-750h-12z" />
<glyph unicode="G" horiz-adv-x="1499" d="M115 711q0 313 209 522q208 211 516 211q217 0 397 -101l-6 -10q-175 99 -391 99q-303 0 -510 -207q-203 -206 -203 -514t203 -514q205 -205 510 -205q297 0 501 174v551h-522v12h535v-567q-212 -182 -514 -182q-310 0 -518 208q-207 213 -207 523z" />
<glyph unicode="H" horiz-adv-x="1382" d="M209 0v1427h12v-663h940v663h13v-1427h-13v752h-940v-752h-12z" />
<glyph unicode="I" horiz-adv-x="446" d="M217 0v1427h12v-1427h-12z" />
<glyph unicode="J" horiz-adv-x="667" d="M49 4v14q50 -20 133 -20q152 0 212.5 78.5t60.5 269.5v1081h12v-1081q0 -197 -63.5 -278.5t-221.5 -81.5q-68 0 -133 18z" />
<glyph unicode="K" horiz-adv-x="1218" d="M209 0v1427h12v-940l862 940h17l-580 -632l619 -795h-17l-610 784l-291 -313v-471h-12z" />
<glyph unicode="L" horiz-adv-x="983" d="M209 0v1427h12v-1415h662v-12h-674z" />
<glyph unicode="M" horiz-adv-x="1652" d="M209 0v1427h10l608 -1159l607 1159h10v-1427h-12v1397l-605 -1157l-606 1157v-1397h-12z" />
<glyph unicode="N" horiz-adv-x="1431" d="M209 0v1427h10l991 -1404v1404h13v-1427h-13l-989 1405v-1405h-12z" />
<glyph unicode="O" horiz-adv-x="1683" d="M117 713q0 308 209 520q213 213 516 213q304 0 514 -213q211 -211 211 -520q0 -311 -209 -523q-208 -208 -516 -208t-516 208q-209 212 -209 523zM129 713q0 -308 203 -514q205 -205 510 -205q306 0 508 205q204 204 204 514q0 303 -206 512t-506 209t-506 -209 q-207 -210 -207 -512z" />
<glyph unicode="P" horiz-adv-x="1079" d="M209 0v1427h340q199 0 307 -120q111 -120 111 -281q0 -176 -113 -289q-114 -114 -305 -114h-328v-623h-12zM221 635h328q196 0 301 117q104 116 104 274q0 157 -106 272q-105 117 -299 117h-328v-780z" />
<glyph unicode="Q" horiz-adv-x="1683" d="M117 713q0 308 209 520q213 213 516 213q304 0 514 -213q211 -211 211 -520q0 -166 -68 -316.5t-182 -242.5l156 -193l-11 -8l-153 194q-192 -165 -467 -165q-308 0 -516 208q-209 212 -209 523zM129 713q0 -308 203 -514q205 -205 510 -205q269 0 461 162l-312 387l10 8 l310 -389q116 99 179.5 242.5t63.5 308.5q0 303 -206 512t-506 209t-506 -209q-207 -210 -207 -512z" />
<glyph unicode="R" horiz-adv-x="1155" d="M209 0v1427h407q172 0 285 -110q115 -109 115 -277q0 -140 -82 -242t-221 -134l356 -664h-14l-355 662q-40 -9 -84 -9h-395v-653h-12zM221 666h395q168 0 277 106q111 108 111 268q0 159 -111 267t-277 108h-395v-749z" />
<glyph unicode="S" horiz-adv-x="1103" d="M98 326l13 4q60 -162 188 -250t305 -88q174 0 278.5 92.5t104.5 247.5t-86 241q-82 85 -297 181q-191 84 -274 164q-84 84 -84 231q0 130 92 213q93 84 233 84q224 0 326 -178l-10 -6q-99 172 -316 172q-137 0 -225 -80.5t-88 -204.5q0 -146 82 -225q86 -79 268 -158 q212 -95 301 -184q90 -90 90 -250q0 -162 -106 -257t-289 -95q-180 0 -312 90.5t-194 255.5z" />
<glyph unicode="T" horiz-adv-x="1101" d="M82 1415v12h938v-12h-463v-1415h-12v1415h-463z" />
<glyph unicode="U" horiz-adv-x="1318" d="M199 438v989h12v-989q0 -204 120.5 -322t327.5 -118t328 118t121 322v989h12v-989q0 -209 -125 -330.5t-336 -121.5t-335.5 121t-124.5 331z" />
<glyph unicode="V" horiz-adv-x="1253" d="M92 1427h12l523 -1409l522 1409h12l-528 -1427h-12z" />
<glyph unicode="W" horiz-adv-x="1896" d="M76 1427h12l444 -1411l408 1411h16l408 -1411l444 1411h13l-449 -1427h-16l-408 1411l-407 -1411h-17z" />
<glyph unicode="X" horiz-adv-x="1259" d="M106 0l517 739l-494 688h14l488 -677l487 677h15l-494 -688l514 -739h-14l-508 729l-510 -729h-15z" />
<glyph unicode="Y" horiz-adv-x="1130" d="M68 1427h14l483 -782l484 782h14l-492 -796v-631h-12v631z" />
<glyph unicode="Z" horiz-adv-x="1241" d="M45 0v10l1094 1405h-975v12h991v-10l-1094 -1405h1072v-12h-1088z" />
<glyph unicode="[" horiz-adv-x="509" d="M193 -395v1822h301v-12h-289v-1798h289v-12h-301z" />
<glyph unicode="\" horiz-adv-x="778" d="M74 1481h12l643 -1760h-12z" />
<glyph unicode="]" horiz-adv-x="509" d="M16 -383h289v1798h-289v12h301v-1822h-301v12z" />
<glyph unicode="^" horiz-adv-x="1105" d="M70 717l477 753h12l477 -753h-14l-469 741l-469 -741h-14z" />
<glyph unicode="_" horiz-adv-x="647" d="M16 -383h615v-12h-615v12z" />
<glyph unicode="`" horiz-adv-x="1142" d="M434 1427h15l147 -297h-14z" />
<glyph unicode="a" horiz-adv-x="1320" d="M92 516q0 226 150 379q150 156 368 156q186 0 319 -110t171 -298v389h12v-907q0 -123 100 -123q37 0 64 10v-12q-30 -10 -64 -10q-112 0 -112 135v264q-38 -188 -171 -297.5t-319 -109.5q-220 0 -370 153q-148 154 -148 381zM104 516q0 -221 146 -373q143 -149 360 -149 q212 0 351 145t139 377t-139 377t-351 145q-215 0 -360 -151q-146 -152 -146 -371z" />
<glyph unicode="b" horiz-adv-x="1251" d="M139 0v1427h13v-786q34 186 172 297q137 113 317 113q219 0 369 -156q149 -152 149 -379q0 -226 -149 -381q-150 -153 -369 -153q-180 0 -317 110q-138 114 -172 299v-391h-13zM152 516q0 -232 139 -377t350 -145q217 0 360 149q146 152 146 373q0 219 -146 371 q-145 151 -360 151q-211 0 -350 -145t-139 -377z" />
<glyph unicode="c" horiz-adv-x="1097" d="M92 516q0 230 154 381q154 154 381 154q241 0 391 -172l-8 -9q-143 168 -383 168q-224 0 -373 -149q-150 -150 -150 -373t150 -373q149 -149 373 -149q237 0 387 172l8 -8q-71 -83 -177 -129.5t-218 -46.5q-228 0 -381 153q-154 154 -154 381z" />
<glyph unicode="d" horiz-adv-x="1320" d="M92 516q0 226 150 379q150 156 368 156q186 0 319 -110t171 -298v784h12v-1302q0 -123 100 -123q37 0 64 10v-12q-30 -10 -64 -10q-112 0 -112 135v264q-34 -185 -170 -297q-134 -110 -320 -110q-220 0 -370 153q-148 154 -148 381zM104 516q0 -221 146 -373 q143 -149 360 -149q212 0 351 145t139 377t-139 377t-351 145q-215 0 -360 -151q-146 -152 -146 -371z" />
<glyph unicode="e" d="M92 518v2q0 227 141 377q142 154 351 154q205 0 344 -154q139 -151 139 -379v-2h-963q0 -223 138 -373q137 -149 342 -149q233 0 374 172l9 -8q-68 -84 -170.5 -130t-212.5 -46q-211 0 -353 151q-139 154 -139 385zM104 528h951q-3 219 -140 365q-133 145 -331 145 q-201 0 -340 -145q-137 -146 -140 -365z" />
<glyph unicode="f" horiz-adv-x="589" d="M66 1020v12h147v115q0 122 39 190q58 105 205 105q61 0 80 -8v-13q-27 9 -80 9q-232 0 -232 -283v-115h289v-12h-289v-1020h-12v1020h-147z" />
<glyph unicode="g" horiz-adv-x="1249" d="M92 516q0 226 150 379q150 156 368 156q186 0 320 -113q136 -112 170 -297v391h12v-911q0 -297 -145 -424q-128 -107 -353 -107q-323 0 -467 164l11 8q138 -159 456 -159q218 0 344 102q142 121 142 416v270q-34 -184 -170 -299q-134 -110 -320 -110q-220 0 -370 153 q-148 154 -148 381zM104 516q0 -221 146 -373q143 -149 360 -149q212 0 351 145t139 377t-139 377t-351 145q-215 0 -360 -151q-146 -152 -146 -371z" />
<glyph unicode="h" horiz-adv-x="1169" d="M137 0v1427h13v-778q21 185 129.5 293.5t283.5 108.5q179 0 293 -123q115 -121 115 -332v-453q0 -135 96 -135q26 0 47 6v-12q-21 -6 -47 -6q-109 0 -109 147v453q0 205 -110 324q-109 118 -285 118q-196 0 -304.5 -138t-108.5 -376v-524h-13z" />
<glyph unicode="i" horiz-adv-x="352" d="M125 1315q0 20 20.5 20t20.5 -20t-20.5 -20t-20.5 20zM139 121v911h13v-911q0 -123 100 -123q36 0 63 10v-12q-30 -10 -63 -10q-113 0 -113 135z" />
<glyph unicode="j" horiz-adv-x="286" d="M-111 -395q40 -6 91 -6q86 0 121.5 44.5t35.5 147.5v1241h13v-1241q0 -111 -39 -158t-131 -47q-50 0 -91 6v13zM123 1315q0 20 20.5 20t20.5 -20t-20.5 -20t-20.5 20z" />
<glyph unicode="k" horiz-adv-x="851" d="M137 0v1427h13v-1060l612 665h16l-413 -450l452 -582h-16l-445 571l-206 -221v-350h-13z" />
<glyph unicode="l" horiz-adv-x="518" d="M139 260v1167h13v-1167q0 -266 202 -266q46 0 105 12v-12q-59 -12 -105 -12q-215 0 -215 278z" />
<glyph unicode="m" horiz-adv-x="1816" d="M137 0v1032h13v-377q18 181 119 288.5t263 107.5q148 0 242 -99.5t113 -277.5q20 178 115.5 277.5t244.5 99.5q182 0 276.5 -117t94.5 -338v-453q0 -135 96 -135q23 0 47 6v-12q-21 -6 -47 -6q-108 0 -108 147v453q0 215 -91 328.5t-268 113.5q-166 0 -260 -123t-94 -340 v-575h-12v575q0 216 -93.5 339.5t-255.5 123.5q-182 0 -282 -138t-100 -376v-524h-13z" />
<glyph unicode="n" horiz-adv-x="1171" d="M137 0v1032h13v-383q24 186 135 294t288 108q181 0 290.5 -127.5t109.5 -354.5v-426q0 -135 96 -135q23 0 47 6v-12q-21 -6 -47 -6q-108 0 -108 147v426q0 221 -106.5 345t-281.5 124q-200 0 -311.5 -138t-111.5 -376v-524h-13z" />
<glyph unicode="o" horiz-adv-x="1243" d="M92 516q0 229 152 381q151 154 377 154q227 0 378 -154q152 -155 152 -381q0 -227 -154 -381q-150 -153 -376 -153q-224 0 -377 153q-152 155 -152 381zM104 516q0 -222 148 -373q149 -149 369 -149q222 0 368 149q150 150 150 373t-150 373q-146 149 -368 149 q-220 0 -369 -149q-148 -151 -148 -373z" />
<glyph unicode="p" horiz-adv-x="1249" d="M137 -395v1427h13v-391q34 186 169 297q137 113 320 113q219 0 369 -156q149 -152 149 -379q0 -226 -149 -381q-150 -153 -369 -153q-180 0 -317 110q-134 110 -172 299v-786h-13zM150 516q0 -232 139 -377t350 -145q215 0 360 151q146 152 146 371q0 221 -146 373 q-143 149 -360 149q-211 0 -350 -145t-139 -377z" />
<glyph unicode="q" horiz-adv-x="1249" d="M92 516q0 226 150 379q150 156 368 156q184 0 318 -113q138 -111 172 -297v391h12v-1427h-12v786q-34 -185 -172 -299q-134 -110 -318 -110q-218 0 -368 153q-150 156 -150 381zM104 516q0 -219 146 -371q145 -151 360 -151q212 0 351 145t139 377t-139 377t-351 145 q-217 0 -360 -149q-146 -152 -146 -373z" />
<glyph unicode="r" horiz-adv-x="638" d="M137 0v1032h13v-368q19 183 126 285t302 102h2v-13h-2q-428 0 -428 -522v-516h-13z" />
<glyph unicode="s" horiz-adv-x="780" d="M57 233l13 5q94 -246 356 -246q128 0 203.5 67t75.5 179t-62 174q-56 59 -215 131q-137 61 -201 119q-63 57 -63 172q0 96 67.5 156.5t171.5 60.5q160 0 234 -133l-12 -7q-68 127 -222 127q-99 0 -163 -57t-64 -147q0 -104 60 -164q64 -58 196 -115q157 -71 221 -135 t64 -182q0 -117 -79 -187.5t-212 -70.5q-271 0 -369 253z" />
<glyph unicode="t" horiz-adv-x="671" d="M82 1020v12h121v395h12v-395h377v-12h-377v-739q0 -153 58.5 -220t193.5 -67q79 0 125 14v-14q-70 -12 -125 -12q-141 0 -202.5 70t-61.5 229v739h-121z" />
<glyph unicode="u" d="M125 436v596h12v-596q0 -203 111 -323q110 -119 284 -119q207 0 310.5 133.5t103.5 380.5v524h12v-911q0 -123 101 -123q36 0 63 10v-12q-30 -10 -63 -10q-113 0 -113 135v262q-19 -189 -123 -295t-291 -106q-178 0 -292 120q-115 124 -115 334z" />
<glyph unicode="v" horiz-adv-x="1007" d="M51 1032h12l441 -1022l440 1022h12l-444 -1032h-16z" />
<glyph unicode="w" horiz-adv-x="1531" d="M51 1032h12l361 -1018l334 1018h16l334 -1018l360 1018h13l-365 -1032h-16l-334 1016l-334 -1016h-16z" />
<glyph unicode="x" horiz-adv-x="925" d="M74 0l381 547l-349 485h15l342 -475l342 475h14l-348 -485l381 -547h-14l-375 537l-375 -537h-14z" />
<glyph unicode="y" horiz-adv-x="958" d="M51 1032h12l400 -1016l432 1016h12l-520 -1225q-62 -143 -104 -176q-51 -45 -129 -45q-37 0 -78 13v12q40 -12 78 -12q70 0 120 41q43 37 99 163l84 199z" />
<glyph unicode="z" horiz-adv-x="987" d="M23 0v10l837 1010h-737v12h756v-10l-836 -1010h831v-12h-851z" />
<glyph unicode="{" horiz-adv-x="565" d="M78 510v12q39 0 84 25q82 49 82 180v502q0 86 53 142t133 56h33v-12h-33q-75 0 -124.5 -53t-49.5 -133v-502q0 -138 -88 -190q-33 -18 -66 -21q35 -3 66 -20q88 -52 88 -191v-502q0 -81 49.5 -133.5t124.5 -52.5h33v-12h-33q-80 0 -133 56t-53 142v502q0 131 -82 180 q-45 25 -84 25z" />
<glyph unicode="|" horiz-adv-x="409" d="M199 -51v1530h12v-1530h-12z" />
<glyph unicode="}" horiz-adv-x="565" d="M102 -383h33q75 0 124.5 52.5t49.5 133.5v496q0 145 88 197q31 17 66 20q-33 3 -66 21q-88 52 -88 190v502q0 80 -49.5 133t-124.5 53h-33v12h33q80 0 133.5 -56t53.5 -142v-502q0 -131 81 -180q45 -25 84 -25v-12q-39 0 -84 -25q-81 -49 -81 -180v-502q0 -86 -53.5 -142 t-133.5 -56h-33v12z" />
<glyph unicode="~" horiz-adv-x="800" d="M78 670q27 104 160 104q62 0 161 -57q101 -58 164 -58q127 0 148 95l12 -2q-27 -105 -160 -105q-67 0 -168 58q-99 57 -157 57q-127 0 -148 -96z" />
<glyph unicode="&#xa1;" horiz-adv-x="393" d="M176 1001q0 20 20.5 20t20.5 -20t-20.5 -20t-20.5 20zM190 -412v1110h13v-1110h-13z" />
<glyph unicode="&#xa2;" horiz-adv-x="1132" d="M111 719q0 231 153 381q153 153 381 153q45 0 88 -6l39 180h12l-39 -182q161 -30 277 -149l-8 -9q-110 116 -273 146l-231 -1020q75 -16 135 -16q225 0 373 157l8 -10q-151 -160 -381 -160q-57 0 -137 17l-47 -201h-12l47 205q-169 46 -279 186q-106 138 -106 328z M123 719q0 -182 102 -320q103 -135 273 -182l231 1018q-43 6 -84 6q-224 0 -373 -149t-149 -373z" />
<glyph unicode="&#xa3;" horiz-adv-x="1169" d="M106 0v12h3q182 0 301 101q118 100 118 260q0 55 -22 116q-16 48 -45 99q-19 34 -68 102h-221v12h213l-74 109q-29 50 -51 117.5t-22 128.5q0 158 112 270q113 113 271 113q157 0 270 -113t113 -270h-13q0 154 -108 262t-262 108q-155 0 -263 -108t-108 -262 q0 -65 24 -135q18 -48 50 -109l75 -111h342v-12h-333q52 -78 65 -102q27 -42 47.5 -102t20.5 -113q0 -135 -92 -238q-88 -98 -232 -123h827v-12h-938z" />
<glyph unicode="&#xa4;" horiz-adv-x="1374" d="M223 209l150 156q-127 127 -127 317q0 192 127 319l-150 158l8 8l150 -157q126 120 307 120t305 -118l152 159l8 -8l-152 -159q132 -132 132 -322q0 -191 -129 -320l149 -157l-8 -8l-150 157q-127 -118 -307 -118q-181 0 -307 120l-150 -155zM258 682q0 -185 123 -311 q123 -123 307 -123t307 123q125 125 125 311t-125 311q-122 125 -307 125t-307 -125q-123 -126 -123 -311z" />
<glyph unicode="&#xa5;" horiz-adv-x="1130" d="M68 1427h14l483 -782l484 782h14l-363 -587h308v-13h-316l-119 -192h435v-12h-437v-623h-12v623h-436v12h434l-119 192h-315v13h307z" />
<glyph unicode="&#xa6;" horiz-adv-x="409" d="M199 0v602h12v-602h-12zM199 850v577h12v-577h-12z" />
<glyph unicode="&#xa7;" horiz-adv-x="1038" d="M84 614q0 109 69 186t224 105q-89 54 -131.5 116.5t-42.5 156.5q0 123 87 201.5t222 78.5q139 0 225 -85t86 -220h-12q0 115 -78 205q-76 88 -221 88q-131 0 -214 -75t-83 -193q0 -44 25 -127q10 -22 67 -86q26 -23 96 -62l58 -31q34 -18 55 -26q244 -125 322 -203 q98 -98 98 -225q0 -240 -293 -293q91 -54 132.5 -115t41.5 -155q0 -125 -88 -201q-89 -80 -221 -80q-137 0 -224 85t-87 220h12q0 -117 76 -205t223 -88q131 0 214 75.5t83 193.5q0 94 -49 163q-22 33 -64 60q-50 34 -69 45q-60 33 -88 47q-249 125 -345 211 q-106 93 -106 233zM96 614q0 -139 105 -227q117 -96 338 -205l88 -47q143 20 220 93t77 190q0 77 -32 137.5t-106 114.5q-62 49 -131 90q-51 30 -178 92l-84 43q-297 -46 -297 -281z" />
<glyph unicode="&#xa8;" horiz-adv-x="1282" d="M410 1315q0 20 20.5 20t20.5 -20t-20.5 -20t-20.5 20zM831 1315q0 20 20.5 20t20.5 -20t-20.5 -20t-20.5 20z" />
<glyph unicode="&#xa9;" horiz-adv-x="1646" d="M106 713q0 308 205 516q206 209 512 209q304 0 510 -209q207 -210 207 -516q0 -311 -207 -518q-205 -205 -510 -205t-512 207q-205 208 -205 516zM119 713q0 -302 200 -508q203 -203 504 -203q302 0 502 203q203 206 203 508q0 305 -203 508q-198 204 -502 204 q-303 0 -504 -204q-200 -203 -200 -508zM422 715q0 177 119 293q118 118 297 118q182 0 309 -127l-8 -8q-126 123 -301 123q-174 0 -289 -115t-115 -284q0 -172 115 -287t289 -115q180 0 301 121l8 -8q-125 -125 -309 -125q-177 0 -297 117q-119 119 -119 297z" />
<glyph unicode="&#xaa;" horiz-adv-x="1204" d="M270 864q0 200 293 215q115 8 170 29q36 17 51 48.5t15 86.5q0 75 -59.5 126.5t-161.5 51.5q-74 0 -125 -32q-49 -29 -71 -55.5t-36 -61.5l-10 6q15 34 33 57q28 37 85.5 68t123.5 31q109 0 171 -55t62 -136v-498q0 -65 53 -65q15 0 35 4v-12q-20 -4 -35 -4q-65 0 -65 77 v66q-27 -73 -97.5 -116.5t-187.5 -43.5q-114 0 -179 57.5t-65 155.5zM283 864q0 -89 58.5 -144.5t172.5 -55.5q140 0 212.5 62.5t72.5 158.5v278q-19 -52 -71 -70.5t-165 -25.5q-280 -15 -280 -203z" />
<glyph unicode="&#xab;" horiz-adv-x="598" d="M92 518l225 359h15l-226 -359l226 -358h-15zM266 518l226 359h14l-225 -359l225 -358h-14z" />
<glyph unicode="&#xac;" horiz-adv-x="1060" d="M106 782v13h848v-363h-12v350h-836z" />
<glyph unicode="&#xad;" horiz-adv-x="595" d="M104 530v13h388v-13h-388z" />
<glyph unicode="&#xae;" horiz-adv-x="847" d="M111 1118q0 135 90 225q91 91 221 91q132 0 223 -91q90 -90 90 -225t-90 -225t-223 -90t-223 90q-88 88 -88 225zM123 1118q0 -131 86 -217t213 -86q129 0 215 86t86 217q0 129 -86 215q-85 88 -215 88q-128 0 -213 -88q-86 -86 -86 -215zM317 936v375h127q49 0 80 -33.5 t31 -79.5q0 -41 -23.5 -72.5t-60.5 -42.5l90 -147h-14l-86 143h-131v-143h-13zM330 1092h114q41 0 70 31t29 75q0 42 -28.5 71t-70.5 29h-114v-206z" />
<glyph unicode="&#xaf;" horiz-adv-x="1310" d="M354 1415v12h602v-12h-602z" />
<glyph unicode="&#xb0;" horiz-adv-x="677" d="M119 1214q0 91 63 154q66 66 156 66t156 -66q65 -65 65 -154q0 -91 -64.5 -154t-156.5 -63q-91 0 -155 63t-64 154zM131 1214q0 -84 61 -144t146 -60q86 0 147.5 59.5t61.5 144.5q0 86 -61.5 146.5t-147.5 60.5q-85 0 -146 -60.5t-61 -146.5z" />
<glyph unicode="&#xb1;" horiz-adv-x="827" d="M106 129v12h615v-12h-615zM106 711v12h302v313h12v-313h301v-12h-301v-322h-12v322h-302z" />
<glyph unicode="&#xb2;" horiz-adv-x="718" d="M119 672v10l373 416q57 63 57 145q0 78 -56.5 133.5t-136.5 55.5q-79 0 -135.5 -55.5t-56.5 -133.5h-12q0 82 59 141q63 60 145 60q84 0 144 -60q61 -58 61 -141q0 -88 -59 -153l-365 -406h441v-12h-459z" />
<glyph unicode="&#xb3;" horiz-adv-x="751" d="M115 819l12 4q31 -69 92.5 -111t134.5 -42q111 0 182.5 66.5t71.5 170.5q0 89 -65 154t-158 65q-62 0 -121 -16l-6 12l299 293h-397v12h415v-12l-296 -289q50 13 106 13q100 0 168 -68t68 -164q0 -113 -76 -181.5t-191 -68.5q-77 0 -142.5 44.5t-96.5 117.5z" />
<glyph unicode="&#xb4;" horiz-adv-x="1142" d="M545 1130l147 297h15l-148 -297h-14z" />
<glyph unicode="&#xb6;" horiz-adv-x="798" d="M78 1034q0 164 115 279q114 114 278 114h289v-12h-139v-1415h-13v1415h-147v-1415h-12v641q-157 9 -265 123q-106 112 -106 270z" />
<glyph unicode="&#xb7;" horiz-adv-x="262" d="M111 516q0 20 20.5 20t20.5 -20t-20.5 -20t-20.5 20z" />
<glyph unicode="&#xb8;" horiz-adv-x="1124" d="M471 -279l8 9q43 -37 101 -37q37 0 60.5 19t23.5 50q0 37 -27.5 59.5t-71.5 22.5q-31 0 -55 -8l72 164h12l-64 -147q16 4 35 4q51 0 81 -25.5t30 -69.5q0 -35 -27.5 -58t-68.5 -23q-63 0 -109 40z" />
<glyph unicode="&#xb9;" horiz-adv-x="473" d="M143 1415v12h111v-755h-12v743h-99z" />
<glyph unicode="&#xba;" horiz-adv-x="974" d="M88 1049q0 163 117 280t282 117q169 0 283 -117q117 -117 117 -280q0 -166 -117 -283q-118 -115 -283 -115q-164 0 -282 115q-117 117 -117 283zM100 1049q0 -160 113 -273q112 -112 274 -112q161 0 273 112q114 114 114 273q0 156 -114 270q-115 115 -273 115 q-159 0 -274 -115q-113 -113 -113 -270z" />
<glyph unicode="&#xbb;" horiz-adv-x="598" d="M92 160l225 358l-225 359h14l226 -359l-226 -358h-14zM266 160l226 358l-226 359h15l225 -359l-225 -358h-15z" />
<glyph unicode="&#xbc;" horiz-adv-x="1304" d="M127 0l924 1427h14l-924 -1427h-14zM143 1415v12h111v-755h-12v743h-99zM678 199v10l268 547h15l-269 -545h451v199h12v-410h-12v199h-465z" />
<glyph unicode="&#xbd;" horiz-adv-x="1300" d="M51 0l924 1427h14l-923 -1427h-15zM143 1415v12h111v-755h-12v743h-99zM700 0v10l373 416q57 63 57 145q0 78 -56.5 133.5t-135.5 55.5q-80 0 -136.5 -55.5t-56.5 -133.5h-12q0 82 60 142q62 59 145 59q84 0 143 -59q62 -59 62 -142q0 -87 -60 -153l-364 -406h440v-12 h-459z" />
<glyph unicode="&#xbe;" horiz-adv-x="1488" d="M117 819l12 4q31 -69 92.5 -111t134.5 -42q111 0 182.5 66.5t71.5 170.5q0 89 -65 154t-158 65q-62 0 -121 -16l-6 12l299 293h-397v12h416v-12l-297 -289q50 13 106 13q100 0 168 -68t68 -164q0 -113 -76 -181.5t-191 -68.5q-77 0 -142.5 44.5t-96.5 117.5zM332 0 l923 1427h15l-924 -1427h-14zM862 199v10l268 547h15l-268 -545h450v199h12v-410h-12v199h-465z" />
<glyph unicode="&#xbf;" horiz-adv-x="782" d="M92 -162q0 147 80 230q44 47 80 73q11 7 44 31t56 39q52 37 97 72q133 106 133 219q0 94 -58.5 144t-167.5 50q-80 0 -118 -32v14q48 31 118 31q111 0 174.5 -54.5t63.5 -152.5q0 -114 -133 -226q-50 -40 -123 -90q-86 -59 -125 -92q-42 -37 -75.5 -107t-33.5 -149 q0 -40 21 -90q71 -156 287 -156q152 0 264 115v-18q-115 -109 -264 -109q-101 0 -172.5 33t-102.5 86q-45 85 -45 139zM379 1006q0 20 20.5 20t20.5 -20t-20.5 -20t-20.5 20z" />
<glyph unicode="&#xc0;" horiz-adv-x="1269" d="M72 0l557 1427h12l557 -1427h-12l-178 455h-746l-178 -455h-12zM266 467h738l-369 944zM485 1823h15l147 -297h-14z" />
<glyph unicode="&#xc1;" horiz-adv-x="1269" d="M72 0l557 1427h12l557 -1427h-12l-178 455h-746l-178 -455h-12zM266 467h738l-369 944zM608 1526l148 297h14l-147 -297h-15z" />
<glyph unicode="&#xc2;" horiz-adv-x="1269" d="M72 0l557 1427h12l557 -1427h-12l-178 455h-746l-178 -455h-12zM266 467h738l-369 944zM352 1575l277 260h12l277 -260h-19l-264 250l-264 -250h-19z" />
<glyph unicode="&#xc3;" horiz-adv-x="1269" d="M72 0l557 1427h12l557 -1427h-12l-178 455h-746l-178 -455h-12zM266 467h738l-369 944zM360 1595q7 51 45 82t89 31q62 0 141 -55q85 -54 141 -54q50 0 83 32t40 87l12 -2q-7 -60 -44 -94.5t-91 -34.5q-63 0 -143 53q-80 56 -139 56q-47 0 -80 -28t-41 -73h-13z" />
<glyph unicode="&#xc4;" horiz-adv-x="1269" d="M72 0l557 1427h12l557 -1427h-12l-178 455h-746l-178 -455h-12zM266 467h738l-369 944zM403 1616q0 20 20.5 20t20.5 -20t-20.5 -20t-20.5 20zM825 1616q0 20 20.5 20t20.5 -20t-20.5 -20t-20.5 20z" />
<glyph unicode="&#xc5;" horiz-adv-x="1273" d="M72 0l563 1446q-43 0 -75 32.5t-32 75.5t32.5 75t76.5 32q43 0 74.5 -32t31.5 -75q0 -44 -31 -76t-73 -32l563 -1446h-12l-178 455h-750l-178 -455h-12zM266 467h742l-371 950zM540 1555q0 -39 29 -68t68 -29t65 29q29 29 29 68t-29 65q-26 29 -65 29t-68 -29 q-29 -26 -29 -65z" />
<glyph unicode="&#xc6;" horiz-adv-x="2002" d="M70 0l1097 1427h688v-12h-681v-653h643v-12h-643v-738h696v-12h-709v414h-758l-319 -414h-14zM412 426h749v973z" />
<glyph unicode="&#xc7;" horiz-adv-x="1501" d="M117 713q0 311 211 522t524 211q328 0 543 -238l-9 -8q-98 110 -237 172t-297 62q-306 0 -516 -207q-207 -207 -207 -514t207 -514q208 -205 516 -205q336 0 541 239l8 -8q-217 -243 -549 -243q-35 0 -51 2l-58 -131q16 4 35 4q51 0 81 -25.5t30 -69.5q0 -35 -27.5 -58 t-68.5 -23q-63 0 -109 40l8 9q43 -37 101 -37q37 0 60.5 19t23.5 50q0 37 -27.5 59.5t-71.5 22.5q-31 0 -55 -8l65 150q-283 15 -479 223q-192 207 -192 504z" />
<glyph unicode="&#xc8;" horiz-adv-x="1091" d="M209 0v1427h733v-12h-721v-653h682v-12h-682v-738h735v-12h-747zM463 1823h14l148 -297h-15z" />
<glyph unicode="&#xc9;" horiz-adv-x="1091" d="M209 0v1427h733v-12h-721v-653h682v-12h-682v-738h735v-12h-747zM553 1526l147 297h15l-148 -297h-14z" />
<glyph unicode="&#xca;" horiz-adv-x="1091" d="M209 0v1427h733v-12h-721v-653h682v-12h-682v-738h735v-12h-747zM293 1575l276 260h13l276 -260h-18l-265 250l-264 -250h-18z" />
<glyph unicode="&#xcb;" horiz-adv-x="1091" d="M209 0v1427h733v-12h-721v-653h682v-12h-682v-738h735v-12h-747zM346 1616q0 20 20.5 20t20.5 -20t-20.5 -20t-20.5 20zM768 1616q0 20 20.5 20t20.5 -20t-20.5 -20t-20.5 20z" />
<glyph unicode="&#xcc;" horiz-adv-x="446" d="M70 1823h14l147 -297h-14zM217 0v1427h12v-1427h-12z" />
<glyph unicode="&#xcd;" horiz-adv-x="446" d="M217 0v1427h12v-1427h-12zM221 1526l148 297h14l-147 -297h-15z" />
<glyph unicode="&#xce;" horiz-adv-x="446" d="M-16 1575l233 260h12l234 -260h-17l-223 250l-223 -250h-16zM217 0v1427h12v-1427h-12z" />
<glyph unicode="&#xcf;" horiz-adv-x="446" d="M43 1616q0 20 20.5 20t20.5 -20t-20.5 -20t-20.5 20zM217 0v1427h12v-1427h-12zM362 1616q0 20 20.5 20t20.5 -20t-20.5 -20t-20.5 20z" />
<glyph unicode="&#xd0;" horiz-adv-x="1456" d="M100 729v12h109v686h387q335 0 534 -196q203 -194 203 -518t-200 -518q-201 -195 -535 -195h-389v729h-109zM221 12h377q329 0 526 191t197 510q0 320 -199 510q-195 192 -526 192h-375v-674h297v-12h-297v-717z" />
<glyph unicode="&#xd1;" horiz-adv-x="1431" d="M209 0v1427h10l991 -1404v1404h13v-1427h-13l-989 1405v-1405h-12zM442 1595q7 51 44.5 82t88.5 31q63 0 142 -55q85 -54 141 -54q50 0 83 32t40 87l12 -2q-7 -60 -44 -94.5t-91 -34.5q-63 0 -143 53q-80 56 -140 56q-47 0 -79.5 -28t-40.5 -73h-13z" />
<glyph unicode="&#xd2;" horiz-adv-x="1683" d="M117 713q0 308 209 520q213 213 516 213q304 0 514 -213q211 -211 211 -520q0 -311 -209 -523q-208 -208 -516 -208t-516 208q-209 212 -209 523zM129 713q0 -308 203 -514q205 -205 510 -205q306 0 508 205q204 204 204 514q0 303 -206 512t-506 209t-506 -209 q-207 -210 -207 -512zM700 1823h15l147 -297h-14z" />
<glyph unicode="&#xd3;" horiz-adv-x="1683" d="M117 713q0 308 209 520q213 213 516 213q304 0 514 -213q211 -211 211 -520q0 -311 -209 -523q-208 -208 -516 -208t-516 208q-209 212 -209 523zM129 713q0 -308 203 -514q205 -205 510 -205q306 0 508 205q204 204 204 514q0 303 -206 512t-506 209t-506 -209 q-207 -210 -207 -512zM813 1526l148 297h14l-148 -297h-14z" />
<glyph unicode="&#xd4;" horiz-adv-x="1683" d="M117 713q0 308 209 520q213 213 516 213q304 0 514 -213q211 -211 211 -520q0 -311 -209 -523q-208 -208 -516 -208t-516 208q-209 212 -209 523zM129 713q0 -308 203 -514q205 -205 510 -205q306 0 508 205q204 204 204 514q0 303 -206 512t-506 209t-506 -209 q-207 -210 -207 -512zM569 1575l277 260h12l277 -260h-19l-264 250l-264 -250h-19z" />
<glyph unicode="&#xd5;" horiz-adv-x="1683" d="M117 713q0 308 209 520q213 213 516 213q304 0 514 -213q211 -211 211 -520q0 -311 -209 -523q-208 -208 -516 -208t-516 208q-209 212 -209 523zM129 713q0 -308 203 -514q205 -205 510 -205q306 0 508 205q204 204 204 514q0 303 -206 512t-506 209t-506 -209 q-207 -210 -207 -512zM565 1595q7 51 44.5 82t88.5 31q63 0 142 -55q85 -54 141 -54q50 0 83 32t40 87l12 -2q-7 -60 -44 -94.5t-91 -34.5q-63 0 -143 53q-80 56 -140 56q-47 0 -79.5 -28t-40.5 -73h-13z" />
<glyph unicode="&#xd6;" horiz-adv-x="1683" d="M117 713q0 308 209 520q213 213 516 213q304 0 514 -213q211 -211 211 -520q0 -311 -209 -523q-208 -208 -516 -208t-516 208q-209 212 -209 523zM129 713q0 -308 203 -514q205 -205 510 -205q306 0 508 205q204 204 204 514q0 303 -206 512t-506 209t-506 -209 q-207 -210 -207 -512zM604 1616q0 20 20.5 20t20.5 -20t-20.5 -20t-20.5 20zM1026 1616q0 20 20.5 20t20.5 -20t-20.5 -20t-20.5 20z" />
<glyph unicode="&#xd7;" horiz-adv-x="827" d="M143 420l263 262l-261 264l9 8l260 -264l262 262l8 -8l-262 -262l260 -264l-8 -8l-260 264l-262 -262z" />
<glyph unicode="&#xd8;" horiz-adv-x="1683" d="M117 713q0 308 209 520q213 213 516 213q250 0 444 -150l125 168l10 -6l-125 -168q129 -104 200 -253t71 -324q0 -311 -209 -523q-208 -208 -516 -208q-240 0 -428 135l-121 -160l-10 8l120 158q-135 101 -210.5 255t-75.5 335zM129 713q0 -355 281 -582l868 1155 q-192 148 -436 148q-300 0 -506 -209q-207 -210 -207 -512zM420 125q180 -131 422 -131q306 0 508 205q204 204 204 514q0 170 -70 318t-196 249z" />
<glyph unicode="&#xd9;" horiz-adv-x="1318" d="M199 438v989h12v-989q0 -204 120.5 -322t327.5 -118t328 118t121 322v989h12v-989q0 -209 -125 -330.5t-336 -121.5t-335.5 121t-124.5 331zM535 1823h14l147 -297h-14z" />
<glyph unicode="&#xda;" horiz-adv-x="1318" d="M199 438v989h12v-989q0 -204 120.5 -322t327.5 -118t328 118t121 322v989h12v-989q0 -209 -125 -330.5t-336 -121.5t-335.5 121t-124.5 331zM637 1526l147 297h15l-148 -297h-14z" />
<glyph unicode="&#xdb;" horiz-adv-x="1318" d="M199 438v989h12v-989q0 -204 120.5 -322t327.5 -118t328 118t121 322v989h12v-989q0 -209 -125 -330.5t-336 -121.5t-335.5 121t-124.5 331zM375 1575l276 260h13l276 -260h-18l-265 250l-264 -250h-18z" />
<glyph unicode="&#xdc;" horiz-adv-x="1318" d="M199 438v989h12v-989q0 -204 120.5 -322t327.5 -118t328 118t121 322v989h12v-989q0 -209 -125 -330.5t-336 -121.5t-335.5 121t-124.5 331zM428 1616q0 20 20.5 20t20.5 -20t-20.5 -20t-20.5 20zM850 1616q0 20 20.5 20t20.5 -20t-20.5 -20t-20.5 20z" />
<glyph unicode="&#xdd;" horiz-adv-x="1130" d="M76 1427h14l483 -782l484 782h14l-491 -796v-631h-13v631zM543 1526l147 297h15l-148 -297h-14z" />
<glyph unicode="&#xde;" horiz-adv-x="868" d="M209 0v1427h12v-337h162q164 0 272 -111q109 -112 109 -272q0 -164 -111 -275q-107 -110 -270 -110h-162v-322h-12zM221 334h162q156 0 262 106q107 107 107 267q0 157 -107 264q-103 106 -262 106h-162v-743z" />
<glyph unicode="&#xdf;" horiz-adv-x="1097" d="M135 0v1135q0 125 90 215t215 90q127 0 215 -88q90 -87 90 -217q0 -92 -47.5 -166t-128.5 -113q199 -9 322 -129q125 -119 125 -311q0 -189 -133 -316t-332 -127q-54 0 -111 13v12q52 -12 111 -12q194 0 323 123q130 124 130 307q0 188 -127 309t-332 121 q-55 -19 -105 -19v13q121 0 207 86t86 209q0 122 -84 206q-83 86 -209 86q-121 0 -207 -86t-86 -206v-1135h-12z" />
<glyph unicode="&#xe0;" horiz-adv-x="1320" d="M92 516q0 226 150 379q150 156 368 156q186 0 319 -110t171 -298v389h12v-907q0 -123 100 -123q37 0 64 10v-12q-30 -10 -64 -10q-112 0 -112 135v264q-38 -188 -171 -297.5t-319 -109.5q-220 0 -370 153q-148 154 -148 381zM104 516q0 -221 146 -373q143 -149 360 -149 q212 0 351 145t139 377t-139 377t-351 145q-215 0 -360 -151q-146 -152 -146 -371zM473 1427h14l148 -297h-14z" />
<glyph unicode="&#xe1;" horiz-adv-x="1320" d="M92 516q0 226 150 379q150 156 368 156q186 0 319 -110t171 -298v389h12v-907q0 -123 100 -123q37 0 64 10v-12q-30 -10 -64 -10q-112 0 -112 135v264q-38 -188 -171 -297.5t-319 -109.5q-220 0 -370 153q-148 154 -148 381zM104 516q0 -221 146 -373q143 -149 360 -149 q212 0 351 145t139 377t-139 377t-351 145q-215 0 -360 -151q-146 -152 -146 -371zM592 1130l147 297h15l-148 -297h-14z" />
<glyph unicode="&#xe2;" horiz-adv-x="1320" d="M92 516q0 226 150 379q150 156 368 156q186 0 319 -110t171 -298v389h12v-907q0 -123 100 -123q37 0 64 10v-12q-30 -10 -64 -10q-112 0 -112 135v264q-38 -188 -171 -297.5t-319 -109.5q-220 0 -370 153q-148 154 -148 381zM104 516q0 -221 146 -373q143 -149 360 -149 q212 0 351 145t139 377t-139 377t-351 145q-215 0 -360 -151q-146 -152 -146 -371zM338 1180l276 260h13l276 -260h-18l-264 250l-265 -250h-18z" />
<glyph unicode="&#xe3;" horiz-adv-x="1320" d="M92 516q0 226 150 379q150 156 368 156q186 0 319 -110t171 -298v389h12v-907q0 -123 100 -123q37 0 64 10v-12q-30 -10 -64 -10q-112 0 -112 135v264q-38 -188 -171 -297.5t-319 -109.5q-220 0 -370 153q-148 154 -148 381zM104 516q0 -221 146 -373q143 -149 360 -149 q212 0 351 145t139 377t-139 377t-351 145q-215 0 -360 -151q-146 -152 -146 -371zM348 1239q7 51 44.5 82t88.5 31q62 0 142 -56q83 -53 141 -53q50 0 83 32t40 87l12 -2q-7 -60 -44 -94.5t-91 -34.5q-63 0 -143 53q-79 55 -140 55q-47 0 -80 -27.5t-41 -72.5h-12z" />
<glyph unicode="&#xe4;" horiz-adv-x="1320" d="M92 516q0 226 150 379q150 156 368 156q186 0 319 -110t171 -298v389h12v-907q0 -123 100 -123q37 0 64 10v-12q-30 -10 -64 -10q-112 0 -112 135v264q-38 -188 -171 -297.5t-319 -109.5q-220 0 -370 153q-148 154 -148 381zM104 516q0 -221 146 -373q143 -149 360 -149 q212 0 351 145t139 377t-139 377t-351 145q-215 0 -360 -151q-146 -152 -146 -371zM393 1315q0 20 20.5 20t20.5 -20t-20.5 -20t-20.5 20zM815 1315q0 20 20.5 20t20.5 -20t-20.5 -20t-20.5 20z" />
<glyph unicode="&#xe5;" horiz-adv-x="1320" d="M92 516q0 226 150 379q150 156 368 156q186 0 319 -110t171 -298v389h12v-907q0 -123 100 -123q37 0 64 10v-12q-30 -10 -64 -10q-112 0 -112 135v264q-38 -188 -171 -297.5t-319 -109.5q-220 0 -370 153q-148 154 -148 381zM104 516q0 -221 146 -373q143 -149 360 -149 q212 0 351 145t139 377t-139 377t-351 145q-215 0 -360 -151q-146 -152 -146 -371zM517 1257q-5 32 6.5 59.5t38 46.5t61.5 19q43 0 74.5 -31.5t31.5 -74.5q0 -35 -19 -61.5t-46.5 -38t-59.5 -6.5t-57 30t-30 57zM526 1276q0 -39 29 -68t68 -29t65 29q29 29 29 68t-29 65 q-26 29 -65 29t-68 -29q-29 -26 -29 -65z" />
<glyph unicode="&#xe6;" horiz-adv-x="2185" d="M92 516q0 226 150 379q150 156 368 156q186 0 320 -113q136 -112 170 -297v391h12v-401q30 179 162 299q133 121 319 121q214 0 359 -154q143 -149 143 -379v-2h-983q0 -224 137 -373t344 -149q242 0 392 172l8 -8q-71 -83 -178.5 -129.5t-221.5 -46.5q-187 0 -319 120 q-136 123 -162 295v-397h-12v391q-34 -184 -170 -299q-134 -110 -320 -110q-220 0 -370 153q-148 154 -148 381zM104 516q0 -221 146 -373q143 -149 360 -149q212 0 351 145t139 377t-139 377t-351 145q-215 0 -360 -151q-146 -152 -146 -371zM1112 528h971q-3 219 -146 365 q-139 145 -344 145q-201 0 -340 -145q-138 -144 -141 -365z" />
<glyph unicode="&#xe7;" horiz-adv-x="1099" d="M92 516q0 230 154 381q154 154 381 154q241 0 391 -172l-8 -9q-143 168 -383 168q-224 0 -373 -149q-150 -150 -150 -373t150 -373q149 -149 373 -149q237 0 387 172l8 -8q-71 -83 -177 -129.5t-218 -46.5q-23 0 -37 2l-58 -131q16 4 35 4q51 0 81 -25.5t30 -69.5 q0 -35 -27.5 -58t-68.5 -23q-63 0 -109 40l8 9q43 -37 101 -37q37 0 60.5 19t23.5 50q0 37 -27.5 59.5t-71.5 22.5q-31 0 -55 -8l66 148q-211 18 -349 168q-137 149 -137 364z" />
<glyph unicode="&#xe8;" d="M92 518v2q0 227 141 377q142 154 351 154q205 0 344 -154q139 -151 139 -379v-2h-963q0 -223 138 -373q137 -149 342 -149q233 0 374 172l9 -8q-68 -84 -170.5 -130t-212.5 -46q-211 0 -353 151q-139 154 -139 385zM104 528h951q-3 219 -140 365q-133 145 -331 145 q-201 0 -340 -145q-137 -146 -140 -365zM451 1427h14l147 -297h-14z" />
<glyph unicode="&#xe9;" d="M92 518v2q0 227 141 377q142 154 351 154q205 0 344 -154q139 -151 139 -379v-2h-963q0 -223 138 -373q137 -149 342 -149q233 0 374 172l9 -8q-68 -84 -170.5 -130t-212.5 -46q-211 0 -353 151q-139 154 -139 385zM104 528h951q-3 219 -140 365q-133 145 -331 145 q-201 0 -340 -145q-137 -146 -140 -365zM551 1130l147 297h15l-148 -297h-14z" />
<glyph unicode="&#xea;" d="M92 518v2q0 227 141 377q142 154 351 154q205 0 344 -154q139 -151 139 -379v-2h-963q0 -223 138 -373q137 -149 342 -149q233 0 374 172l9 -8q-68 -84 -170.5 -130t-212.5 -46q-211 0 -353 151q-139 154 -139 385zM104 528h951q-3 219 -140 365q-133 145 -331 145 q-201 0 -340 -145q-137 -146 -140 -365zM303 1180l277 260h12l276 -260h-18l-264 250l-264 -250h-19z" />
<glyph unicode="&#xeb;" d="M92 518v2q0 227 141 377q142 154 351 154q205 0 344 -154q139 -151 139 -379v-2h-963q0 -223 138 -373q137 -149 342 -149q233 0 374 172l9 -8q-68 -84 -170.5 -130t-212.5 -46q-211 0 -353 151q-139 154 -139 385zM104 528h951q-3 219 -140 365q-133 145 -331 145 q-201 0 -340 -145q-137 -146 -140 -365zM348 1315q0 20 20.5 20t20.5 -20t-20.5 -20t-20.5 20zM770 1315q0 20 20.5 20t20.5 -20t-20.5 -20t-20.5 20z" />
<glyph unicode="&#xec;" horiz-adv-x="352" d="M-10 1427h14l148 -297h-15zM139 121v911h13v-911q0 -123 100 -123q36 0 63 10v-12q-30 -10 -63 -10q-113 0 -113 135z" />
<glyph unicode="&#xed;" horiz-adv-x="352" d="M139 121v911h13v-911q0 -123 100 -123q36 0 63 10v-12q-30 -10 -63 -10q-113 0 -113 135zM141 1130l148 297h14l-147 -297h-15z" />
<glyph unicode="&#xee;" horiz-adv-x="352" d="M-82 1180l221 260h13l219 -260h-15l-211 250l-213 -250h-14zM139 121v911h13v-911q0 -123 100 -123q36 0 63 10v-12q-30 -10 -63 -10q-113 0 -113 135z" />
<glyph unicode="&#xef;" horiz-adv-x="352" d="M27 1315q0 20 20.5 20t20.5 -20t-20.5 -20t-20.5 20zM139 121v911h13v-911q0 -123 100 -123q36 0 63 10v-12q-30 -10 -63 -10q-113 0 -113 135zM219 1315q0 20 20.5 20t20.5 -20t-20.5 -20t-20.5 20z" />
<glyph unicode="&#xf0;" horiz-adv-x="1085" d="M92 442q0 193 129 322q131 131 322 131q165 0 284 -98q119 -93 154 -250q-9 192 -107 371q-101 186 -260 311l-202 -195l-9 8l201 195q-140 111 -317 168l4 12q171 -55 321 -172l189 182l10 -8l-188 -180q221 -194 315 -432q55 -140 55 -365q0 -195 -131 -323 q-129 -129 -319 -129t-322 129q-129 129 -129 323zM104 442q0 -190 125 -315t314 -125q188 0 313 125t125 315q0 189 -125 314q-127 127 -313 127q-187 0 -314 -127q-125 -125 -125 -314z" />
<glyph unicode="&#xf1;" horiz-adv-x="1171" d="M137 0v1032h13v-383q24 186 135 294t288 108q181 0 290.5 -127.5t109.5 -354.5v-426q0 -135 96 -135q23 0 47 6v-12q-21 -6 -47 -6q-108 0 -108 147v426q0 221 -106.5 345t-281.5 124q-200 0 -311.5 -138t-111.5 -376v-524h-13zM307 1239q7 51 44.5 82t88.5 31 q62 0 142 -56q83 -53 141 -53q50 0 83 32t40 87l12 -2q-7 -60 -44 -94.5t-91 -34.5q-63 0 -143 53q-79 55 -140 55q-47 0 -80 -27.5t-41 -72.5h-12z" />
<glyph unicode="&#xf2;" horiz-adv-x="1243" d="M92 516q0 229 152 381q151 154 377 154q227 0 378 -154q152 -155 152 -381q0 -227 -154 -381q-150 -153 -376 -153q-224 0 -377 153q-152 155 -152 381zM104 516q0 -222 148 -373q149 -149 369 -149q222 0 368 149q150 150 150 373t-150 373q-146 149 -368 149 q-220 0 -369 -149q-148 -151 -148 -373zM473 1427h14l148 -297h-14z" />
<glyph unicode="&#xf3;" horiz-adv-x="1243" d="M92 516q0 229 152 381q151 154 377 154q227 0 378 -154q152 -155 152 -381q0 -227 -154 -381q-150 -153 -376 -153q-224 0 -377 153q-152 155 -152 381zM104 516q0 -222 148 -373q149 -149 369 -149q222 0 368 149q150 150 150 373t-150 373q-146 149 -368 149 q-220 0 -369 -149q-148 -151 -148 -373zM592 1130l147 297h15l-148 -297h-14z" />
<glyph unicode="&#xf4;" horiz-adv-x="1243" d="M92 516q0 229 152 381q151 154 377 154q227 0 378 -154q152 -155 152 -381q0 -227 -154 -381q-150 -153 -376 -153q-224 0 -377 153q-152 155 -152 381zM104 516q0 -222 148 -373q149 -149 369 -149q222 0 368 149q150 150 150 373t-150 373q-146 149 -368 149 q-220 0 -369 -149q-148 -151 -148 -373zM338 1180l276 260h13l276 -260h-18l-264 250l-265 -250h-18z" />
<glyph unicode="&#xf5;" horiz-adv-x="1243" d="M92 516q0 229 152 381q151 154 377 154q227 0 378 -154q152 -155 152 -381q0 -227 -154 -381q-150 -153 -376 -153q-224 0 -377 153q-152 155 -152 381zM104 516q0 -222 148 -373q149 -149 369 -149q222 0 368 149q150 150 150 373t-150 373q-146 149 -368 149 q-220 0 -369 -149q-148 -151 -148 -373zM352 1239q7 51 44.5 82t88.5 31q62 0 142 -56q83 -53 141 -53q50 0 83 32t40 87l12 -2q-7 -60 -44 -94.5t-91 -34.5q-63 0 -143 53q-79 55 -140 55q-47 0 -79.5 -27.5t-40.5 -72.5h-13z" />
<glyph unicode="&#xf6;" horiz-adv-x="1243" d="M92 516q0 229 152 381q151 154 377 154q227 0 378 -154q152 -155 152 -381q0 -227 -154 -381q-150 -153 -376 -153q-224 0 -377 153q-152 155 -152 381zM104 516q0 -222 148 -373q149 -149 369 -149q222 0 368 149q150 150 150 373t-150 373q-146 149 -368 149 q-220 0 -369 -149q-148 -151 -148 -373zM389 1315q0 20 20.5 20t20.5 -20t-20.5 -20t-20.5 20zM811 1315q0 20 20.5 20t20.5 -20t-20.5 -20t-20.5 20z" />
<glyph unicode="&#xf7;" horiz-adv-x="913" d="M106 711v12h701v-12h-701zM436 520q0 20 20.5 20t20.5 -20t-20.5 -20t-20.5 20zM436 913q0 20 20.5 20t20.5 -20t-20.5 -20t-20.5 20z" />
<glyph unicode="&#xf8;" horiz-adv-x="1243" d="M92 516q0 229 152 381q151 154 377 154q182 0 319 -101l82 111l10 -6l-82 -113q201 -157 201 -426q0 -227 -154 -381q-150 -153 -376 -153q-171 0 -308 96l-90 -121l-8 8l88 119q-211 156 -211 432zM104 516q0 -130 54 -240t151 -182l623 846q-131 98 -311 98 q-220 0 -369 -149q-148 -151 -148 -373zM319 88q131 -94 302 -94q222 0 368 149q150 150 150 373q0 263 -197 416z" />
<glyph unicode="&#xf9;" d="M125 436v596h12v-596q0 -203 111 -323q110 -119 284 -119q207 0 310.5 133.5t103.5 380.5v524h12v-911q0 -123 101 -123q36 0 63 10v-12q-30 -10 -63 -10q-113 0 -113 135v262q-19 -189 -123 -295t-291 -106q-178 0 -292 120q-115 124 -115 334zM430 1427h14l148 -297 h-14z" />
<glyph unicode="&#xfa;" d="M125 436v596h12v-596q0 -203 111 -323q110 -119 284 -119q207 0 310.5 133.5t103.5 380.5v524h12v-911q0 -123 101 -123q36 0 63 10v-12q-30 -10 -63 -10q-113 0 -113 135v262q-19 -189 -123 -295t-291 -106q-178 0 -292 120q-115 124 -115 334zM477 1130l148 297h14 l-147 -297h-15z" />
<glyph unicode="&#xfb;" d="M125 436v596h12v-596q0 -203 111 -323q110 -119 284 -119q207 0 310.5 133.5t103.5 380.5v524h12v-911q0 -123 101 -123q36 0 63 10v-12q-30 -10 -63 -10q-113 0 -113 135v262q-19 -189 -123 -295t-291 -106q-178 0 -292 120q-115 124 -115 334zM254 1180l276 260h13 l276 -260h-18l-264 250l-265 -250h-18z" />
<glyph unicode="&#xfc;" d="M125 436v596h12v-596q0 -203 111 -323q110 -119 284 -119q207 0 310.5 133.5t103.5 380.5v524h12v-911q0 -123 101 -123q36 0 63 10v-12q-30 -10 -63 -10q-113 0 -113 135v262q-19 -189 -123 -295t-291 -106q-178 0 -292 120q-115 124 -115 334zM305 1315q0 20 20.5 20 t20.5 -20t-20.5 -20t-20.5 20zM727 1315q0 20 20.5 20t20.5 -20t-20.5 -20t-20.5 20z" />
<glyph unicode="&#xfd;" horiz-adv-x="1069" d="M51 1032h12l400 -1016l432 1016h12l-520 -1225q-62 -143 -104 -176q-51 -45 -129 -45q-37 0 -78 13v12q40 -12 78 -12q70 0 120 41q43 37 99 163l84 199zM436 1130l148 297h14l-147 -297h-15z" />
<glyph unicode="&#xfe;" horiz-adv-x="1249" d="M137 -395v1822h13v-786q30 184 167 297t322 113q219 0 369 -156q149 -152 149 -379q0 -226 -149 -381q-150 -153 -369 -153q-186 0 -322 112q-137 113 -167 297v-786h-13zM150 516q0 -232 139 -377t350 -145q217 0 360 149q146 152 146 373q0 219 -146 371 q-145 151 -360 151q-211 0 -350 -145t-139 -377z" />
<glyph unicode="&#xff;" horiz-adv-x="1069" d="M51 1032h12l400 -1016l432 1016h12l-520 -1225q-62 -143 -104 -176q-51 -45 -129 -45q-37 0 -78 13v12q40 -12 78 -12q70 0 120 41q43 37 99 163l84 199zM244 1315q0 20 20.5 20t20.5 -20t-20.5 -20t-20.5 20zM666 1315q0 20 20.5 20t20.5 -20t-20.5 -20t-20.5 20z" />
<glyph unicode="&#x152;" horiz-adv-x="2377" d="M117 713q0 308 209 520q213 213 516 213q262 0 456 -170q196 -172 236 -432v583h694v-12h-682v-653h643v-12h-643v-738h697v-12h-709v582q-43 -264 -238 -435q-192 -165 -454 -165q-308 0 -516 208q-209 212 -209 523zM129 713q0 -308 203 -514q205 -205 510 -205 q294 0 493 205t199 514q0 302 -201 512q-200 209 -491 209q-300 0 -506 -209q-207 -210 -207 -512z" />
<glyph unicode="&#x153;" horiz-adv-x="2215" d="M92 516q0 229 152 381q151 154 377 154q210 0 356 -140q143 -137 158 -331q15 197 151 333q138 138 336 138q213 0 358 -154q144 -150 144 -379v-2h-983q0 -224 137 -373t344 -149q241 0 391 172l8 -8q-71 -83 -178 -129.5t-221 -46.5q-201 0 -340 139q-138 141 -147 334 q-9 -190 -156 -334q-145 -139 -358 -139q-224 0 -377 153q-152 155 -152 381zM104 516q0 -222 148 -373q149 -149 369 -149q219 0 362 149q145 151 145 373t-145 373q-143 149 -362 149q-220 0 -369 -149q-148 -151 -148 -373zM1141 528h970q-3 220 -145 365 q-139 145 -344 145q-201 0 -340 -145q-138 -144 -141 -365z" />
<glyph unicode="&#x178;" horiz-adv-x="1130" d="M76 1427h14l483 -782l484 782h14l-491 -796v-631h-13v631zM344 1616q0 20 20.5 20t20.5 -20t-20.5 -20t-20.5 20zM766 1616q0 20 20.5 20t20.5 -20t-20.5 -20t-20.5 20z" />
<glyph unicode="&#x2c6;" horiz-adv-x="1290" d="M362 1180l277 260h12l277 -260h-19l-264 250l-264 -250h-19z" />
<glyph unicode="&#x2dc;" horiz-adv-x="1232" d="M348 1327q7 51 44.5 82t88.5 31q62 0 142 -56q83 -53 141 -53q50 0 83 32t40 87l12 -2q-7 -60 -44 -94.5t-91 -34.5q-63 0 -143 53q-79 55 -140 55q-47 0 -80 -27.5t-41 -72.5h-12z" />
<glyph unicode="&#x2000;" horiz-adv-x="917" />
<glyph unicode="&#x2001;" horiz-adv-x="1835" />
<glyph unicode="&#x2002;" horiz-adv-x="917" />
<glyph unicode="&#x2003;" horiz-adv-x="1835" />
<glyph unicode="&#x2004;" horiz-adv-x="611" />
<glyph unicode="&#x2005;" horiz-adv-x="458" />
<glyph unicode="&#x2006;" horiz-adv-x="305" />
<glyph unicode="&#x2007;" horiz-adv-x="305" />
<glyph unicode="&#x2008;" horiz-adv-x="229" />
<glyph unicode="&#x2009;" horiz-adv-x="367" />
<glyph unicode="&#x200a;" horiz-adv-x="101" />
<glyph unicode="&#x2010;" horiz-adv-x="595" d="M104 530v13h388v-13h-388z" />
<glyph unicode="&#x2011;" horiz-adv-x="595" d="M104 530v13h388v-13h-388z" />
<glyph unicode="&#x2012;" horiz-adv-x="595" d="M104 530v13h388v-13h-388z" />
<glyph unicode="&#x2013;" horiz-adv-x="974" d="M104 530v13h766v-13h-766z" />
<glyph unicode="&#x2014;" horiz-adv-x="1515" d="M104 530v13h1307v-13h-1307z" />
<glyph unicode="&#x2018;" horiz-adv-x="323" d="M82 911l233 516h11l-220 -516h-24z" />
<glyph unicode="&#x2019;" horiz-adv-x="323" d="M6 911l219 516h25l-234 -516h-10z" />
<glyph unicode="&#x201a;" horiz-adv-x="321" d="M-25 -262l209 489h23l-221 -489h-11z" />
<glyph unicode="&#x201c;" horiz-adv-x="540" d="M82 911l233 516h11l-220 -516h-24zM299 911l233 516h11l-219 -516h-25z" />
<glyph unicode="&#x201d;" horiz-adv-x="540" d="M6 911l219 516h25l-234 -516h-10zM223 911l219 516h25l-234 -516h-10z" />
<glyph unicode="&#x201e;" horiz-adv-x="538" d="M-25 -262l209 489h23l-221 -489h-11zM193 -262l208 489h23l-221 -489h-10z" />
<glyph unicode="&#x2022;" horiz-adv-x="319" d="M121 516q0 39 39 39t39 -39t-39 -39t-39 39z" />
<glyph unicode="&#x2026;" horiz-adv-x="745" d="M125 14.5q0 20.5 20 20.5t20 -20.5t-20 -20.5t-20 20.5zM353 14.5q0 20.5 20 20.5t20 -20.5t-20 -20.5t-20 20.5zM580 14.5q0 20.5 20 20.5t20 -20.5t-20 -20.5t-20 20.5z" />
<glyph unicode="&#x202f;" horiz-adv-x="367" />
<glyph unicode="&#x2039;" horiz-adv-x="423" d="M92 518l225 359h15l-226 -359l226 -358h-15z" />
<glyph unicode="&#x203a;" horiz-adv-x="423" d="M92 160l225 358l-225 359h14l226 -359l-226 -358h-14z" />
<glyph unicode="&#x205f;" horiz-adv-x="458" />
<glyph unicode="&#x20ac;" horiz-adv-x="1560" d="M104 559l7 12h161q-12 67 -12 142q0 77 16 168h-120l6 12h117q56 248 241 399q189 154 434 154q288 0 492 -207l-10 -8q-197 203 -482 203q-242 0 -426 -152q-182 -150 -237 -389h647l-6 -12h-643q-17 -97 -17 -168q0 -69 13 -142h520l-6 -12h-512q47 -251 231 -407 q190 -158 436 -158q289 0 486 203l10 -9q-203 -206 -496 -206q-259 0 -444 161q-190 166 -236 416h-170z" />
<glyph unicode="&#x2122;" horiz-adv-x="1556" d="M66 1415v12h555v-12h-273v-747h-12v747h-270zM715 668v759h8l342 -530l342 530h8v-759h-12v733l-338 -527l-338 527v-733h-12z" />
<glyph unicode="&#x25fc;" horiz-adv-x="1034" d="M0 0v1034h1034v-1034h-1034z" />
<glyph unicode="&#xfb01;" horiz-adv-x="905" d="M66 1020v12h147v115q0 122 39 190q58 105 205 105q61 0 80 -8v-13q-27 9 -80 9q-232 0 -232 -283v-115h480v-911q0 -123 100 -123q36 0 63 10v-12q-30 -10 -63 -10q-113 0 -113 135v899h-467v-1020h-12v1020h-147z" />
<glyph unicode="&#xfb02;" horiz-adv-x="1013" d="M66 1020v12h147v115q0 122 39 190q58 105 205 105q61 0 80 -8v-13q-27 9 -80 9q-232 0 -232 -283v-115h289v-12h-289v-1020h-12v1020h-147zM604 260v1167h12v-1167q0 -266 203 -266q47 0 105 12v-12q-58 -12 -105 -12q-215 0 -215 278z" />
<glyph unicode="&#xfb03;" horiz-adv-x="1384" d="M66 1020v12h147v115q0 295 244 295q61 0 80 -8v-13q-27 9 -80 9q-232 0 -232 -283v-115h467v115q0 122 39 190q58 105 205 105q61 0 80 -8v-13q-27 9 -80 9q-231 0 -231 -283v-115h479v-911q0 -123 100 -123q37 0 64 10v-12q-30 -10 -64 -10q-113 0 -113 135v899h-466 v-1020h-13v1020h-467v-1020h-12v1020h-147z" />
<glyph unicode="&#xfb04;" horiz-adv-x="1611" d="M66 1020v12h147v115q0 295 244 295q61 0 80 -8v-13q-27 9 -80 9q-232 0 -232 -283v-115h467v115q0 295 244 295q61 0 80 -8v-13q-27 9 -80 9q-231 0 -231 -283v-115h288v-12h-288v-1020h-13v1020h-467v-1020h-12v1020h-147zM1202 260v1167h12v-1167q0 -266 203 -266 q47 0 105 12v-12q-58 -12 -105 -12q-215 0 -215 278z" />
</font>
</defs>
</svg>
