<?xml version="1.0" standalone="no"?>
<!DOCTYPE svg PUBLIC "-//W3C//DTD SVG 1.1//EN" "http://www.w3.org/Graphics/SVG/1.1/DTD/svg11.dtd" >
<svg xmlns="http://www.w3.org/2000/svg">
<metadata></metadata>
<defs>
<font id="hurme_geometric_sans_4light" horiz-adv-x="1300" >
<font-face units-per-em="2048" ascent="1575" descent="-473" />
<missing-glyph horiz-adv-x="843" />
<glyph horiz-adv-x="0" />
<glyph horiz-adv-x="682" />
<glyph unicode=" "  horiz-adv-x="843" />
<glyph unicode="&#x09;" horiz-adv-x="843" />
<glyph unicode="&#xa0;" horiz-adv-x="843" />
<glyph unicode="!" horiz-adv-x="456" d="M156 53q0 31 21 52.5t52 21.5q30 0 52 -22t22 -52t-22 -51.5t-52 -21.5t-51.5 21.5t-21.5 51.5zM164 1427h129l-21 -1110h-86z" />
<glyph unicode="&#x22;" horiz-adv-x="512" d="M98 1427h107l-19 -516h-71zM309 1427h107l-19 -516h-69z" />
<glyph unicode="#" horiz-adv-x="1089" d="M63 479v86h205l74 285h-186v86h209l53 215h96l-55 -215h286l56 215h94l-53 -215h184v-86h-207l-71 -285h188v-86h-211l-55 -219h-97l56 219h-287l-55 -219h-97l56 219h-183zM365 565h286l74 285h-289z" />
<glyph unicode="$" horiz-adv-x="1085" d="M80 309l100 45q43 -119 125.5 -190t196.5 -84v651q-172 79 -252 162t-80 231q0 137 92 226q96 93 240 102v201h90v-203q210 -24 305 -203l-90 -47q-70 129 -215 150v-547q213 -94 305 -189q92 -92 92 -258t-106.5 -269t-290.5 -110v-196h-90v201q-309 27 -422 327z M276 1124q0 -100 51.5 -160t174.5 -120v510q-101 -8 -163.5 -70.5t-62.5 -159.5zM592 78q145 7 218 85.5t73 192.5q0 118 -64 189t-227 145v-612z" />
<glyph unicode="%" horiz-adv-x="1476" d="M82 1130q0 132 94 226t225 94q132 0 226 -94t94 -226q0 -131 -94 -225t-226 -94q-131 0 -225 94t-94 225zM174 1130q0 -93 66 -165q68 -68 161 -68t158 68q68 71 68 165q0 96 -68 164q-64 70 -158 70t-161 -70q-66 -69 -66 -164zM223 0l924 1427h110l-923 -1427h-111z M756 297q0 133 92 225q94 94 227 94q134 0 225 -94q95 -92 95 -225q0 -132 -95 -227q-93 -93 -225 -93q-131 0 -227 93q-92 95 -92 227zM848 297q0 -95 65 -166q68 -68 162 -68q93 0 158 68q67 70 67 166q0 97 -67 164q-63 69 -158 69q-96 0 -162 -69q-65 -68 -65 -164z" />
<glyph unicode="&#x26;" horiz-adv-x="1499" d="M94 451q0 303 312 436q-62 115 -62 225q0 148 94 242q96 96 248 96q145 0 238 -90q94 -88 94 -223q0 -133 -94 -203h518v-96h-283v-109q0 -273 -82 -453l264 -276h-133l-184 190q-170 -215 -430 -215q-226 0 -363 131t-137 345zM197 451q0 -174 107 -276.5t290 -102.5 q239 0 356 194q-106 115 -205 217l-135 142q-76 79 -145 176q-268 -105 -268 -350zM446 1112q0 -172 226 -410l323 -342q62 148 62 369v109h-322v65q75 11 127.5 73.5t52.5 147.5q0 100 -65.5 165t-167.5 65q-97 0 -166.5 -65.5t-69.5 -176.5z" />
<glyph unicode="'" horiz-adv-x="301" d="M98 1427h107l-19 -516h-71z" />
<glyph unicode="(" horiz-adv-x="567" d="M102 633q0 567 457 969l53 -56q-405 -384 -405 -913q0 -530 405 -914l-53 -55q-457 402 -457 969z" />
<glyph unicode=")" horiz-adv-x="567" d="M-45 -281q405 384 405 914q0 529 -405 913l53 56q457 -402 457 -969t-457 -969z" />
<glyph unicode="*" horiz-adv-x="837" d="M121 1188l29 76l235 -93l-6 256h82l-6 -256l235 93l29 -76l-244 -80l164 -197l-66 -49l-153 205l-154 -205l-65 49l164 197z" />
<glyph unicode="+" horiz-adv-x="800" d="M94 666v96h254v274h105v-274h254v-96h-254v-277h-105v277h-254z" />
<glyph unicode="," horiz-adv-x="385" d="M-49 -262l192 489h138l-244 -489h-86z" />
<glyph unicode="-" horiz-adv-x="716" d="M92 489v97h535v-97h-535z" />
<glyph unicode="." horiz-adv-x="350" d="M102 63q0 30 22 52t52 22t52 -22t22 -52t-22 -51.5t-52 -21.5q-31 0 -52.5 21t-21.5 52z" />
<glyph unicode="/" horiz-adv-x="831" d="M10 -279l639 1760h101l-644 -1760h-96z" />
<glyph unicode="0" horiz-adv-x="1134" d="M90 715q0 245 6 309q18 187 152 309q136 121 319 121q185 0 318 -121q135 -120 153 -309q6 -64 6 -309q0 -247 -6 -312q-18 -186 -153 -309q-133 -121 -318 -121q-183 0 -319 121q-134 125 -152 309q-6 65 -6 312zM197 715q0 -243 6 -305q12 -149 116 -242 q107 -96 248 -96t248 96q105 94 117 242q6 62 6 305q0 241 -6 303q-12 148 -117 242q-107 96 -248 96t-248 -96q-104 -93 -116 -242q-6 -62 -6 -303z" />
<glyph unicode="1" horiz-adv-x="577" d="M70 1329v98h319v-1427h-106v1329h-213z" />
<glyph unicode="2" horiz-adv-x="1017" d="M35 0v72l661 741q105 120 105 250q0 121 -88 203q-86 86 -207 86t-209 -88q-86 -86 -86 -207h-105q0 163 117 280t283 117q165 0 282 -117q119 -113 119 -276q0 -167 -135 -320l-577 -643h745v-98h-905z" />
<glyph unicode="3" horiz-adv-x="1134" d="M31 276l92 43q44 -112 157.5 -177.5t262.5 -65.5q175 0 286 102q113 104 113 271q0 157 -113 258q-111 102 -290 102q-89 0 -162 -25l-39 72l479 473h-653v98h817v-71l-475 -465q19 8 76 8q197 0 329 -129q133 -127 133 -321q0 -214 -143 -345q-140 -131 -358 -131 q-180 0 -318.5 82t-193.5 221z" />
<glyph unicode="4" horiz-adv-x="1150" d="M104 340v72l502 1015h117l-490 -987h644v336h108v-776h-108v340h-773z" />
<glyph unicode="5" horiz-adv-x="1120" d="M61 268l95 43q44 -106 146 -170.5t224 -64.5q168 0 283 112q119 113 119 277q0 162 -111 276q-112 115 -272 115q-173 0 -293 -111l-78 19l119 663h637v-98h-547l-80 -444q101 73 242 73q213 0 352 -145t139 -340q0 -219 -147 -360q-149 -140 -363 -140q-154 0 -279.5 80 t-185.5 215z" />
<glyph unicode="6" horiz-adv-x="1150" d="M90 467q0 36 10 88q12 52 22.5 81.5t39.5 80.5l43 74l57 86q13 18 57 84l312 466h127l-361 -532q68 53 193 53q197 0 336 -139q141 -138 141 -340q0 -209 -143 -352q-141 -144 -344 -144q-204 0 -349 142q-141 144 -141 352zM199 463q0 -165 108 -279q110 -110 273 -110 q161 0 270 112q113 113 113 277q0 162 -113 272q-110 113 -270 113q-165 0 -273 -111t-108 -274z" />
<glyph unicode="7" horiz-adv-x="1110" d="M74 1329v98h968v-75l-657 -1352h-119l647 1329h-839z" />
<glyph unicode="8" horiz-adv-x="1093" d="M84 422q0 146 80 254.5t207 146.5q-80 35 -129 112t-49 169q0 146 102 248q105 102 252 102q148 0 250 -102q104 -101 104 -248q0 -92 -49 -169t-131 -112q127 -38 208 -147t81 -254q0 -185 -136 -318q-134 -131 -327 -131q-194 0 -328 131q-135 132 -135 318zM190 422 q0 -145 103 -248q103 -100 254 -100q152 0 252 100q104 101 104 248q0 145 -104 246q-100 100 -252 100q-151 0 -254 -100q-103 -103 -103 -246zM297 1104q0 -101 72 -176q75 -72 178 -72q101 0 176 72q74 74 74 176q0 105 -74 176q-71 74 -176 74q-104 0 -178 -74 q-72 -72 -72 -176z" />
<glyph unicode="9" horiz-adv-x="1136" d="M88 965q0 206 139 348q141 141 342 141q206 0 344 -141q138 -138 138 -342q0 -98 -39.5 -189.5t-132.5 -230.5l-373 -551h-127l369 543q-65 -47 -187 -47q-190 0 -332 133q-141 132 -141 336zM193 971q0 -158 108 -269q110 -110 268 -110q169 0 273 110t104 269 q0 162 -110 272q-108 111 -267 111q-157 0 -268 -111q-108 -111 -108 -272z" />
<glyph unicode=":" horiz-adv-x="352" d="M102 233q0 30 22 52t52 22t52 -22t22 -52t-22 -51.5t-52 -21.5q-31 0 -52.5 21t-21.5 52zM102 799q0 30 22 51.5t52 21.5t52 -21.5t22 -51.5t-22 -52t-52 -22q-31 0 -52.5 21.5t-21.5 52.5z" />
<glyph unicode=";" horiz-adv-x="411" d="M-35 -262l193 489h137l-244 -489h-86zM143 799q0 30 22 51.5t52 21.5t52 -21.5t22 -51.5t-22 -52t-52 -22q-31 0 -52.5 21.5t-21.5 52.5z" />
<glyph unicode="&#x3c;" horiz-adv-x="837" d="M92 692v74l639 401v-108l-530 -330l530 -328v-108z" />
<glyph unicode="=" horiz-adv-x="886" d="M94 532v97h701v-97h-701zM94 823v97h701v-97h-701z" />
<glyph unicode="&#x3e;" horiz-adv-x="837" d="M106 293v108l531 328l-531 330v108l639 -401v-74z" />
<glyph unicode="?" horiz-adv-x="800" d="M102 1225v123q120 102 281 102q96 0 168.5 -30t105.5 -81q64 -90 64 -170q0 -59 -14 -102q-10 -41 -15 -56t-20 -39t-41 -50l-58 -56l-79 -61l-80 -60q-135 -102 -135 -194q0 -137 155 -137q79 0 137 37v-107q-63 -29 -137 -29q-119 0 -189.5 64t-70.5 172q0 142 164 262 q16 13 74 53l71 52l52 47q37 34 47 57q34 80 34 143q0 12 -2 26.5t-14.5 45.5t-35 54.5t-70 42t-111.5 18.5q-148 0 -281 -127zM318 72.5q15 41.5 52 51.5t70 -20q35 -29 20 -70t-52 -52t-70 18q-35 31 -20 72.5z" />
<glyph unicode="@" horiz-adv-x="1648" d="M86 598q0 296 211 516q212 221 526 221q300 0 520 -202q222 -201 222 -500q0 -207 -75 -315.5t-210 -108.5q-159 0 -203 164q-84 -146 -258 -146q-149 0 -252 103q-102 102 -102 256t102 256q104 104 252 104q162 0 244 -131v113h98v-459q0 -82 31.5 -123t87.5 -41 q182 0 182 328q0 251 -188 430q-186 180 -451 180q-263 0 -450 -190q-187 -187 -187 -455q0 -267 187 -457q188 -188 450 -188q154 0 307 84l48 -88q-166 -88 -355 -88q-140 -4 -275.5 53t-237.5 155t-164 237.5t-60 291.5zM565 586q0 -109 72 -187q73 -73 182 -73 q106 0 178 74t72 186q0 115 -71.5 189.5t-178.5 74.5q-109 0 -182 -76q-72 -78 -72 -188z" />
<glyph unicode="A" horiz-adv-x="1402" d="M72 0l587 1427h84l588 -1427h-114l-160 389h-713l-158 -389h-114zM385 487h631l-316 777z" />
<glyph unicode="B" horiz-adv-x="1204" d="M197 0v1427h426q157 0 260 -100q104 -101 104 -254q0 -107 -51.5 -187t-142.5 -110q134 -19 215.5 -121.5t81.5 -246.5q0 -175 -119 -291q-120 -117 -295 -117h-479zM303 98h367q135 0 223 88q90 90 90 222t-90 219q-88 88 -231 88h-359v-617zM303 813h311q115 0 191 73 t76 183q0 113 -75 186.5t-190 73.5h-313v-516z" />
<glyph unicode="C" horiz-adv-x="1472" d="M104 713q0 313 213 526q216 213 527 213q334 0 545 -240l-72 -67q-182 209 -473 209q-271 0 -453 -185q-180 -180 -180 -456q0 -277 180 -457q182 -182 453 -182q298 0 475 213l74 -68q-100 -117 -242.5 -180.5t-306.5 -63.5q-313 0 -527 211q-213 213 -213 527z" />
<glyph unicode="D" horiz-adv-x="1476" d="M197 0v1427h432q339 0 538 -196t199 -518t-199 -518q-198 -195 -536 -195h-434zM303 98h320q303 0 469 166q165 168 165 449t-167 448q-165 168 -469 168h-318v-1231z" />
<glyph unicode="E" horiz-adv-x="1112" d="M197 0v1427h778v-98h-672v-524h633v-100h-633v-607h686v-98h-792z" />
<glyph unicode="F" horiz-adv-x="1009" d="M197 0v1427h704v-98h-598v-530h547v-99h-547v-700h-106z" />
<glyph unicode="G" horiz-adv-x="1509" d="M102 713q0 313 213 526q211 211 525 211q261 0 456 -154l-63 -75q-168 131 -393 131q-269 0 -451 -185q-180 -180 -180 -454q0 -275 178 -459q182 -182 453 -182q255 0 432 157v433h-469v98h575v-570q-220 -217 -538 -217q-314 0 -525 211q-213 213 -213 529z" />
<glyph unicode="H" horiz-adv-x="1452" d="M197 0v1427h106v-620h846v620h106v-1427h-106v709h-846v-709h-106z" />
<glyph unicode="I" horiz-adv-x="514" d="M205 0v1427h106v-1427h-106z" />
<glyph unicode="J" horiz-adv-x="651" d="M39 -8v104q49 -18 117 -18q112 0 156 70.5t44 224.5v1054h107v-1050q0 -97 -11.5 -162t-41.5 -123q-60 -117 -250 -117q-68 0 -121 17z" />
<glyph unicode="K" horiz-adv-x="1273" d="M197 0v1427h106v-817l750 817h133l-576 -630l598 -797h-129l-540 721l-236 -258v-463h-106z" />
<glyph unicode="L" horiz-adv-x="1005" d="M197 0v1427h106v-1329h615v-98h-721z" />
<glyph unicode="M" horiz-adv-x="1720" d="M197 0v1427h98l565 -993l567 993h99v-1427h-107v1212l-559 -968l-559 966v-1210h-104z" />
<glyph unicode="N" horiz-adv-x="1501" d="M197 0v1427h92l909 -1234v1234h107v-1427h-88l-914 1243v-1243h-106z" />
<glyph unicode="O" horiz-adv-x="1683" d="M104 713q0 313 213 526t525 213q309 0 522 -213q215 -212 215 -526q0 -315 -215 -527q-211 -211 -522 -211q-314 0 -525 211q-213 213 -213 527zM209 713q0 -275 180 -455q182 -182 453 -182q269 0 448 182q180 180 180 455q0 274 -180 454q-182 185 -448 185 q-269 0 -451 -185q-182 -182 -182 -454z" />
<glyph unicode="P" horiz-adv-x="1140" d="M197 0v1427h413q189 0 308 -122q120 -123 120 -299q0 -184 -120 -304t-308 -120h-307v-582h-106zM303 680h303q148 0 236 94q90 96 90 232q0 133 -90 229q-88 94 -236 94h-303v-649z" />
<glyph unicode="Q" horiz-adv-x="1681" d="M104 713q0 313 213 526t525 213q309 0 522 -213q215 -212 215 -526q0 -325 -225 -537l153 -188l-75 -64l-154 189q-188 -138 -436 -138q-314 0 -525 211q-213 213 -213 527zM209 713q0 -275 180 -455q182 -182 453 -182q208 0 372 117l-262 321l78 64l256 -324 q184 184 184 459q0 274 -180 454q-182 185 -448 185q-269 0 -451 -185q-182 -182 -182 -454z" />
<glyph unicode="R" horiz-adv-x="1210" d="M197 0v1427h456q179 0 297 -118q121 -118 121 -293q0 -141 -76 -250t-204 -150l346 -616h-117l-336 600q-8 -2 -43 -2h-338v-598h-106zM303 696h340q139 0 229 90q93 93 93 230q0 132 -91 223q-90 90 -225 90h-346v-633z" />
<glyph unicode="S" horiz-adv-x="1118" d="M90 317l92 43q55 -137 158 -211.5t244 -74.5q170 0 247 86q78 87 78 198q0 129 -78 201q-79 72 -264 154q-188 80 -280 166q-88 82 -88 233q0 150 104 244q107 96 262 96q251 0 365 -209l-92 -47q-84 158 -273 158q-113 0 -186.5 -67t-73.5 -171q0 -64 20 -109.5 t68 -82.5q63 -45 94 -60l131 -61q119 -54 180 -89.5t113 -86.5q56 -50 80.5 -114.5t24.5 -154.5q0 -174 -116 -278.5t-316 -104.5q-173 0 -302.5 88t-191.5 254z" />
<glyph unicode="T" horiz-adv-x="1075" d="M70 1329v98h936v-98h-416v-1329h-107v1329h-413z" />
<glyph unicode="U" horiz-adv-x="1386" d="M186 473v954h107v-944q0 -195 106.5 -302t294.5 -107t295 107t107 302v944h106v-954q0 -236 -139 -369q-138 -129 -369 -129q-230 0 -368 129q-140 134 -140 369z" />
<glyph unicode="V" horiz-adv-x="1382" d="M80 1427h115l497 -1249l496 1249h115l-572 -1427h-80z" />
<glyph unicode="W" horiz-adv-x="1888" d="M63 1427h107l365 -1200l370 1200h78l371 -1200l362 1200h109l-428 -1427h-74l-379 1214l-379 -1214h-73z" />
<glyph unicode="X" horiz-adv-x="1310" d="M94 0l490 739l-463 688h123l413 -610l414 610h123l-463 -688l490 -739h-121l-443 664l-442 -664h-121z" />
<glyph unicode="Y" horiz-adv-x="1224" d="M61 1427h119l432 -718l432 718h119l-497 -825v-602h-107v602z" />
<glyph unicode="Z" horiz-adv-x="1271" d="M74 0v68l954 1261h-848v98h991v-71l-948 -1258h951v-98h-1100z" />
<glyph unicode="[" horiz-adv-x="585" d="M180 -395v1822h404v-98h-297v-1626h297v-98h-404z" />
<glyph unicode="\" horiz-adv-x="833" d="M61 1481h99l641 -1760h-96z" />
<glyph unicode="]" horiz-adv-x="585" d="M4 -297h297v1626h-297v98h404v-1822h-404v98z" />
<glyph unicode="^" horiz-adv-x="1079" d="M55 717l445 725h80l444 -725h-109l-374 618l-377 -618h-109z" />
<glyph unicode="_" horiz-adv-x="620" d="M-4 -299h629v-96h-629v96z" />
<glyph unicode="`" horiz-adv-x="1116" d="M360 1427h134l122 -297h-81z" />
<glyph unicode="a" d="M80 516q0 232 149 387q150 156 371 156q146 0 262 -72q114 -71 148 -170v215h102v-839q0 -67 19.5 -96t66.5 -29q36 0 57 6v-80q-28 -14 -86 -14q-155 0 -155 198v35q-52 -111 -160.5 -175.5t-253.5 -64.5q-221 0 -371 156q-149 155 -149 387zM182 516q0 -191 119 -319 q121 -127 299 -127q180 0 299 125q121 127 121 321q0 193 -121 320t-299 127q-179 0 -299 -129q-119 -125 -119 -318z" />
<glyph unicode="b" horiz-adv-x="1234" d="M125 0v1427h102v-610q33 98 146 170q116 72 264 72q219 0 369 -156q151 -157 151 -387t-151 -387q-150 -156 -369 -156q-151 0 -264 70q-112 71 -146 172v-215h-102zM215 516q0 -194 121 -321q119 -125 301 -125q176 0 297 127q121 130 121 319q0 188 -121 318 q-120 129 -297 129q-180 0 -301 -127t-121 -320z" />
<glyph unicode="c" horiz-adv-x="1073" d="M80 516q0 231 156 387t387 156q242 0 391 -162l-62 -70q-130 136 -329 136q-190 0 -316 -129q-125 -125 -125 -318q0 -191 125 -319q127 -127 316 -127q200 0 329 135l62 -70q-149 -162 -391 -162q-231 0 -387 156t-156 387z" />
<glyph unicode="d" d="M80 516q0 232 149 387q150 156 371 156q146 0 262 -72q114 -71 148 -170v610h102v-1234q0 -67 19.5 -96t66.5 -29q36 0 57 6v-80q-28 -14 -86 -14q-155 0 -155 198v35q-52 -111 -160.5 -175.5t-253.5 -64.5q-221 0 -371 156q-149 155 -149 387zM182 516q0 -191 119 -319 q121 -127 299 -127q180 0 299 125q121 127 121 321q0 193 -121 320t-299 127q-179 0 -299 -129q-119 -125 -119 -318z" />
<glyph unicode="e" horiz-adv-x="1138" d="M80 508v6q0 242 143 391q145 154 361 154q207 0 342 -150q137 -149 137 -366q0 -37 -2 -51h-881q3 -187 117 -304q113 -116 291 -116q195 0 338 149l67 -65q-156 -181 -405 -181q-222 0 -367 148q-141 150 -141 385zM184 584h772q-3 158 -110 268q-108 111 -262 111 q-162 0 -279 -111q-115 -109 -121 -268z" />
<glyph unicode="f" horiz-adv-x="622" d="M63 936v96h160v96q0 185 92 265q68 59 195 59q56 0 80 -8v-92q-38 6 -90 6q-91 0 -132.5 -52t-41.5 -165v-109h229v-96h-229v-936h-103v936h-160z" />
<glyph unicode="g" horiz-adv-x="1236" d="M80 516q0 232 149 387q150 156 371 156q146 0 262 -72q114 -71 148 -170v215h102v-878q0 -191 -32.5 -299.5t-125.5 -182.5q-132 -108 -350 -108q-288 0 -483 160l55 79q168 -143 426 -143q183 0 289 86q119 98 119 352v111q-52 -109 -159 -172.5t-251 -63.5 q-221 0 -371 156q-149 155 -149 387zM182 516q0 -191 119 -319q121 -127 299 -127q180 0 299 125q121 127 121 321q0 193 -121 320t-299 127q-179 0 -299 -129q-119 -125 -119 -318z" />
<glyph unicode="h" horiz-adv-x="1138" d="M123 0v1427h102v-593q83 215 350 215q174 0 281 -113q107 -110 107 -299v-434q0 -64 17.5 -90.5t61.5 -26.5q3 0 8 0.5t14.5 1.5t18.5 2v-86q-30 -10 -59 -10q-164 0 -164 201v421q0 153 -83.5 244.5t-223.5 91.5q-149 0 -238.5 -108.5t-89.5 -288.5v-555h-102z" />
<glyph unicode="i" horiz-adv-x="405" d="M105 1308.5q0 31.5 20 51.5q22 24 49 25q12 0 24 -5q42 -14 51 -52q2 -9 2 -19q0 -27 -22 -52q-20 -20 -50.5 -20t-53.5 20q-20 20 -20 51.5zM127 168v864h102v-846q0 -61 18.5 -86.5t65.5 -25.5q22 0 58 4v-86q-34 -12 -84 -12q-160 0 -160 188z" />
<glyph unicode="j" horiz-adv-x="356" d="M-100 -319q44 -7 77 -7q80 0 115 42.5t35 140.5v1175h102v-1175q0 -279 -262 -279q-43 0 -67 6v97zM105 1306.5q0 31.5 20 51.5q22 24 49 24q11 0 24 -4q41 -15 51 -52q3 -10 3 -19q0 -27 -23 -52q-20 -20 -50.5 -20t-53.5 20q-20 20 -20 51.5z" />
<glyph unicode="k" horiz-adv-x="919" d="M125 0v1427h102v-962l502 567h123l-399 -452l446 -580h-125l-387 504l-160 -176v-328h-102z" />
<glyph unicode="l" horiz-adv-x="532" d="M127 260v1167h102v-1161q0 -102 37 -149t117 -47q55 0 86 8v-94q-57 -11 -86 -11q-256 0 -256 287z" />
<glyph unicode="m" horiz-adv-x="1732" d="M125 0v1032h102v-198q80 215 318 215q117 0 203.5 -67.5t113.5 -174.5q36 113 126.5 177.5t221.5 64.5q161 0 253.5 -110t92.5 -302v-434q0 -63 18 -90t62 -27q3 0 8 0.5t15.5 1.5t19.5 2v-86q-27 -10 -59 -10q-166 0 -166 201v421q0 156 -70.5 246t-193.5 90 q-134 0 -213.5 -106.5t-79.5 -280.5v-565h-102v616q0 155 -73 245.5t-198 90.5q-135 0 -216 -108.5t-81 -288.5v-555h-102z" />
<glyph unicode="n" horiz-adv-x="1148" d="M125 0v1032h102v-198q89 215 355 215q178 0 284.5 -112t106.5 -300v-434q0 -63 18 -90t62 -27q3 0 8 0.5t15.5 1.5t19.5 2v-86q-30 -10 -60 -10q-166 0 -166 201v421q0 153 -85 244.5t-226 91.5q-152 0 -242 -109t-90 -288v-555h-102z" />
<glyph unicode="o" horiz-adv-x="1241" d="M78 516q0 232 155 387q156 156 388 156q229 0 385 -156q157 -157 157 -387t-157 -387q-156 -156 -385 -156q-232 0 -388 156q-155 155 -155 387zM180 516q0 -191 125 -319q127 -127 316 -127q186 0 313 127q127 130 127 319q0 191 -127 318q-126 129 -313 129 q-190 0 -316 -129q-125 -125 -125 -318z" />
<glyph unicode="p" horiz-adv-x="1236" d="M125 -395v1427h102v-215q37 102 148 172q113 70 262 70q219 0 369 -156q151 -157 151 -387t-151 -387q-150 -156 -369 -156q-149 0 -262 70q-111 70 -148 172v-610h-102zM217 516q0 -196 119 -321t301 -125q178 0 299 127q119 128 119 319t-121 318q-120 129 -297 129 q-180 0 -301 -127q-119 -125 -119 -320z" />
<glyph unicode="q" horiz-adv-x="1236" d="M80 516q0 232 149 387q150 156 371 156q150 0 260 -70q112 -69 150 -172v215h102v-1427h-102v610q-38 -103 -150 -172q-110 -70 -260 -70q-221 0 -371 156q-149 155 -149 387zM182 516q0 -191 119 -319q121 -127 299 -127q180 0 299 125q121 127 121 321q0 193 -121 320 t-299 127q-179 0 -299 -129q-119 -125 -119 -318z" />
<glyph unicode="r" horiz-adv-x="704" d="M125 0v1032h102v-207q76 224 351 224q39 0 49 -2v-107q-32 4 -66 4q-163 0 -248 -108q-86 -109 -86 -271v-565h-102z" />
<glyph unicode="s" horiz-adv-x="827" d="M45 227l86 33q32 -87 107.5 -136.5t189.5 -49.5q119 0 181.5 52.5t62.5 135.5q0 87 -60 135q-63 50 -204 109q-75 32 -122 59t-84 62t-53 78t-16 100q0 110 81 182t204 72q194 0 276 -162l-84 -43q-62 109 -190 109q-81 0 -132.5 -43.5t-51.5 -114.5q0 -75 51.5 -120 t183.5 -99q166 -68 234.5 -138.5t68.5 -185.5q0 -123 -92.5 -204t-253.5 -81q-143 0 -244.5 66t-138.5 184z" />
<glyph unicode="t" horiz-adv-x="645" d="M70 936v96h120v395h103v-395h287v-96h-287v-649q0 -117 42.5 -168t137.5 -51q55 0 107 10v-92q-54 -13 -103 -13q-139 0 -213 72t-74 242v649h-120z" />
<glyph unicode="u" horiz-adv-x="1132" d="M113 395v637h102v-616q0 -154 82.5 -245t222.5 -91q149 0 238.5 103.5t89.5 271.5v577h102v-833q0 -127 86 -127q37 0 58 6v-80q-32 -14 -86 -14q-66 0 -110 47.5t-44 136.5v29q-34 -94 -128.5 -153.5t-229.5 -59.5q-173 0 -278 111.5t-105 299.5z" />
<glyph unicode="v" horiz-adv-x="1036" d="M39 1032h106l371 -868l373 868h108l-444 -1032h-72z" />
<glyph unicode="w" horiz-adv-x="1531" d="M39 1032h104l299 -842l287 842h74l284 -842l299 842h107l-371 -1032h-69l-287 848l-287 -848h-69z" />
<glyph unicode="x" horiz-adv-x="1009" d="M59 0l387 547l-354 485h117l295 -403l297 403h117l-355 -483l389 -549h-116l-330 465l-330 -465h-117z" />
<glyph unicode="y" horiz-adv-x="1007" d="M39 1032h106l355 -905l360 905h109l-488 -1214q-50 -125 -104 -176q-69 -66 -172 -66q-51 0 -94 16v95q41 -15 94 -15q65 0 110 45q35 35 72 123l62 154z" />
<glyph unicode="z" horiz-adv-x="1009" d="M45 0v61l705 875h-625v96h770v-69l-700 -867h720v-96h-870z" />
<glyph unicode="{" horiz-adv-x="620" d="M66 481v70q44 0 88 27q82 49 82 202v396q0 112 60.5 181.5t164.5 69.5h69v-81h-59q-133 0 -133 -168v-361q0 -184 -64 -248q-38 -38 -88 -53q50 -15 88 -53q64 -64 64 -248v-360q0 -168 133 -168h59v-82h-69q-104 0 -164.5 70t-60.5 182v395q0 154 -82 203q-42 26 -88 26 z" />
<glyph unicode="|" horiz-adv-x="473" d="M186 -51v1530h101v-1530h-101z" />
<glyph unicode="}" horiz-adv-x="620" d="M90 -313h60q133 0 133 168v360q0 185 63 248q38 38 88 53q-50 15 -88 53q-63 63 -63 248v361q0 168 -133 168h-60v81h70q104 0 164.5 -69.5t60.5 -181.5v-396q0 -153 82 -202q43 -27 88 -27v-70q-46 0 -88 -26q-82 -49 -82 -203v-395q0 -112 -60.5 -182t-164.5 -70h-70 v82z" />
<glyph unicode="~" horiz-adv-x="835" d="M74 637q11 72 62 116t126 44q67 0 170 -47q105 -48 154 -48q98 0 125 89l69 -7q-27 -168 -190 -168q-69 0 -174 48q-103 47 -152 47q-100 0 -121 -82z" />
<glyph unicode="&#xa1;" horiz-adv-x="456" d="M156 965q0 31 21 52t52 21q30 0 52 -21.5t22 -51.5t-22 -52t-52 -22q-29 0 -51 21.5t-22 52.5zM164 -412l22 1110h86l21 -1110h-129z" />
<glyph unicode="&#xa2;" horiz-adv-x="1105" d="M90 719q0 252 168 395q171 148 377 148q4 0 23 -1t22 -1l35 167h94l-41 -180q154 -35 260 -141l-63 -72q-90 93 -215 117l-189 -872q41 -9 78 -9q193 0 326 133l63 -71q-153 -156 -395 -156q-45 0 -92 8l-39 -184h-94l45 207q-161 52 -263 190q-100 135 -100 322z M193 719q0 -145 76 -257.5t204 -160.5l186 862q-6 2 -30 2q-187 -3 -312 -131q-124 -124 -124 -315z" />
<glyph unicode="&#xa3;" horiz-adv-x="1189" d="M90 0v92h12q191 3 281 96q94 94 94 228q0 78 -80 223h-217v98h160q-117 182 -117 307q0 168 119 287q121 121 289 121q166 0 287 -121q118 -118 118 -287h-104q0 130 -88 218q-89 92 -211 92q-126 0 -215 -92q-88 -88 -88 -218q0 -110 129 -307h323v-98h-270 q72 -135 72 -227q0 -110 -47.5 -192.5t-128.5 -121.5h679v-98h-997z" />
<glyph unicode="&#xa4;" horiz-adv-x="1341" d="M150 211l167 164q-114 126 -114 307q0 177 114 309l-167 164l69 68l158 -174q125 104 295 104t295 -104l157 174l70 -68l-168 -164q115 -133 115 -309q0 -180 -115 -307l168 -164l-70 -68q-128 140 -155 174q-125 -104 -297 -104t-297 104l-156 -174zM301 682 q0 -158 107 -268q108 -111 264 -111q154 0 262 111t108 268t-108 268q-107 113 -262 113q-157 0 -264 -113q-107 -110 -107 -268z" />
<glyph unicode="&#xa5;" horiz-adv-x="1212" d="M55 1427h119l434 -718l432 718h115l-326 -544h267v-99h-326l-111 -184h437v-100h-434v-500h-107v500h-436v100h436l-111 184h-325v99h266z" />
<glyph unicode="&#xa6;" horiz-adv-x="473" d="M186 0v602h101v-602h-101zM186 850v577h101v-577h-101z" />
<glyph unicode="&#xa7;" horiz-adv-x="1050" d="M72 608q0 109 57.5 185t163.5 108q-119 98 -119 246q0 133 96 223q94 88 244 88q157 0 248.5 -97.5t91.5 -254.5h-106q0 99 -56 176q-57 78 -178 78q-100 0 -166.5 -58.5t-66.5 -154.5q0 -99 65 -156q47 -38 62 -47q7 -4 36 -21t52 -30l88 -47l98 -53q100 -55 160 -109 q121 -112 121 -260q0 -107 -57.5 -184t-164.5 -109q119 -91 119 -246q0 -138 -98 -223q-94 -88 -242 -88q-157 0 -249.5 97.5t-92.5 254.5h107q0 -100 55 -176q57 -78 180 -78q101 0 167.5 58.5t66.5 154.5q0 56 -16 93.5t-56 68.5q-43 36 -72 51q-21 14 -100 56 q-228 114 -315 192q-123 108 -123 262zM178 608q0 -109 82 -182q76 -65 279 -172l96 -51q221 47 221 221q0 108 -84 180q-86 73 -278 176l-95 49q-221 -44 -221 -221z" />
<glyph unicode="&#xa8;" horiz-adv-x="1255" d="M345 1307q0 31 20 51q31 34 72.5 19.5t51.5 -52t-20 -72.5q-20 -20 -50.5 -20t-53.5 20q-20 23 -20 54zM766 1307q0 31 20 51q31 34 72.5 19.5t52 -52t-19.5 -72.5q-20 -20 -51 -20t-54 20q-20 23 -20 54z" />
<glyph unicode="&#xa9;" horiz-adv-x="1660" d="M94 713q0 307 215 522t522 215q306 0 521 -215q217 -214 217 -522q0 -307 -215 -525q-215 -215 -523 -215q-304 0 -522 215q-215 218 -215 525zM166 713q0 -283 192 -475q195 -195 473 -195q274 0 469 195q195 198 195 475q0 280 -195 475q-194 194 -469 194 q-279 0 -473 -194q-192 -192 -192 -475zM428 721q0 177 119 293q119 119 297 119q176 0 309 -127l-66 -72q-109 100 -243 100q-133 0 -223 -90q-89 -89 -89 -223q0 -136 89 -225q90 -90 223 -90q135 0 243 102l66 -76q-125 -125 -309 -125q-178 0 -297 119t-119 295z" />
<glyph unicode="&#xaa;" horiz-adv-x="1001" d="M160 866q0 105 78.5 166.5t224.5 67.5q114 5 157.5 29.5t43.5 91.5q0 65 -52.5 102t-128.5 37q-132 0 -202 -119l-62 47q89 154 264 154q120 0 191 -61t71 -160v-433q0 -55 39 -55q25 0 41 4v-67q-29 -13 -63 -13q-46 0 -70 37q-18 27 -18 60q-70 -107 -256 -107 q-118 0 -188 59.5t-70 159.5zM242 868q0 -64 48 -102.5t134 -38.5q116 0 178 51.5t62 139.5v155q-41 -47 -201 -53q-221 -6 -221 -152z" />
<glyph unicode="&#xab;" horiz-adv-x="757" d="M80 518l225 359h109l-226 -359l226 -358h-109zM346 518l225 359h109l-225 -359l225 -358h-109z" />
<glyph unicode="&#xac;" horiz-adv-x="1126" d="M94 782v97h940v-486h-104v389h-836z" />
<glyph unicode="&#xad;" horiz-adv-x="716" d="M92 489v97h535v-97h-535z" />
<glyph unicode="&#xae;" horiz-adv-x="827" d="M86 1128q0 141 94 232q95 92 232 92q138 0 233 -92q96 -93 96 -232q0 -138 -96 -231q-95 -92 -233 -92q-137 0 -232 92q-94 91 -94 231zM141 1128q0 -118 77 -194t194 -76q119 0 196.5 76t77.5 194q0 121 -77.5 198t-196.5 77q-118 0 -194.5 -77t-76.5 -198zM295 948v375 h131q53 0 86 -33.5t33 -83.5q0 -73 -66 -108l90 -150h-67l-84 137h-66v-137h-57zM352 1137h72q26 0 43.5 19t17.5 48q0 27 -17.5 45.5t-43.5 18.5h-72v-131z" />
<glyph unicode="&#xaf;" horiz-adv-x="1284" d="M342 1331v96h602v-96h-602z" />
<glyph unicode="&#xb0;" horiz-adv-x="716" d="M106 1184q0 102 74 176t178 74q105 0 179 -74q73 -73 73 -176t-73 -176q-74 -74 -179 -74q-104 0 -178 74t-74 176zM205 1184q0 -63 45 -110.5t108 -47.5q61 0 107.5 47.5t46.5 110.5t-46 110t-108 47q-63 0 -108 -45.5t-45 -111.5z" />
<glyph unicode="&#xb1;" horiz-adv-x="800" d="M94 45v96h613v-96h-613zM94 666v96h254v274h105v-274h254v-96h-254v-277h-105v277h-254z" />
<glyph unicode="&#xb2;" horiz-adv-x="686" d="M100 672v57l334 381q51 57 51 121q0 55 -41 94t-98 39q-56 0 -95.5 -42.5t-39.5 -102.5h-82q0 95 64 159q66 66 153 66q92 0 157.5 -62.5t65.5 -150.5q0 -99 -69 -174l-277 -305h361v-80h-484z" />
<glyph unicode="&#xb3;" horiz-adv-x="724" d="M76 834l74 26q23 -57 74 -90t118 -33q88 0 144.5 49t56.5 127q0 74 -55.5 124t-139.5 50q-66 0 -112 -16l-31 45l241 234h-309v77h447v-47l-238 -223q42 0 74 -4q89 -18 146 -83.5t57 -156.5q0 -115 -79 -186.5t-202 -71.5q-92 0 -163.5 48.5t-102.5 130.5z" />
<glyph unicode="&#xb4;" horiz-adv-x="1116" d="M500 1130l123 297h133l-174 -297h-82z" />
<glyph unicode="&#xb6;" horiz-adv-x="993" d="M66 1004q0 177 122 299q121 124 299 124h480v-98h-138v-1329h-106v1329h-152v-1329h-106v580q-166 9 -285 131q-114 123 -114 293z" />
<glyph unicode="&#xb7;" horiz-adv-x="342" d="M98 516q0 31 21.5 52.5t52.5 21.5q29 0 50.5 -21.5t21.5 -52.5t-21.5 -52.5t-50.5 -21.5q-31 0 -52.5 21t-21.5 53z" />
<glyph unicode="&#xb8;" horiz-adv-x="1097" d="M401 -330l31 58q53 -35 103 -35q37 0 61.5 18.5t24.5 48.5q0 82 -119 82q-21 0 -31 -2l70 160h80l-50 -111h13q52 0 87.5 -35.5t35.5 -91.5q0 -137 -170 -137q-79 0 -136 45z" />
<glyph unicode="&#xb9;" horiz-adv-x="460" d="M104 1350v77h183v-755h-84v678h-99z" />
<glyph unicode="&#xba;" horiz-adv-x="948" d="M76 1049q0 166 117 280q117 117 282 117q166 0 283 -117q116 -113 116 -280t-116 -283q-118 -115 -283 -115q-164 0 -282 115q-117 117 -117 283zM168 1049q0 -127 90 -220q89 -92 217 -92q125 0 215 90q90 93 90 222q0 126 -90 219q-89 92 -215 92q-128 0 -217 -92 q-90 -93 -90 -219z" />
<glyph unicode="&#xbb;" horiz-adv-x="757" d="M80 160l225 358l-225 359h108l226 -359l-226 -358h-108zM348 160l225 358l-225 359h107l225 -359l-225 -358h-107z" />
<glyph unicode="&#xbc;" horiz-adv-x="1341" d="M115 1350v77h182v-755h-84v678h-98zM121 0l837 1427h109l-840 -1427h-106zM686 166v55l264 535h88l-254 -512h336v168h84v-412h-84v166h-434z" />
<glyph unicode="&#xbd;" horiz-adv-x="1398" d="M115 1350v77h182v-755h-84v678h-98zM121 0l837 1427h109l-840 -1427h-106zM795 0v57l333 381q50 59 50 121q0 55 -40.5 94t-97.5 39q-56 0 -95.5 -42.5t-39.5 -102.5h-84q0 96 64 160q65 65 155 65q92 0 157 -62.5t65 -150.5q0 -97 -68 -174l-276 -305h360v-80h-483z" />
<glyph unicode="&#xbe;" horiz-adv-x="1587" d="M90 834l74 26q23 -57 74 -90t118 -33q88 0 144.5 49t56.5 127q0 74 -55.5 124t-139.5 50q-66 0 -112 -16l-31 45l242 234h-309v77h446v-47l-238 -223q42 0 74 -4q89 -18 146 -83.5t57 -156.5q0 -115 -79 -186.5t-202 -71.5q-92 0 -163.5 48.5t-102.5 130.5zM377 0 l837 1427h109l-840 -1427h-106zM932 166v55l264 535h88l-254 -512h336v168h84v-412h-84v166h-434z" />
<glyph unicode="&#xbf;" horiz-adv-x="800" d="M80 -154q0 56 12 103q12 42 16.5 56t20 38.5t41.5 50.5q45 45 55 53q16 16 80 62l82 61q135 102 135 195q0 137 -155 137q-80 0 -138 -37v107q61 28 138 28q119 0 189.5 -63.5t70.5 -171.5q0 -142 -164 -262q-16 -13 -74 -53q-33 -23 -72 -54q-6 -4 -51 -45 q-37 -34 -47 -57q-35 -82 -35 -144q0 -11 2 -26t15 -46t35.5 -54t70 -41.5t111.5 -18.5q147 0 280 127v-123q-120 -102 -280 -102q-96 0 -168.5 29.5t-108.5 80.5q-61 94 -61 170zM340.5 983.5q15.5 41.5 52.5 52t70 -19.5q34 -29 19.5 -70t-52 -52.5t-72.5 17.5 q-33 31 -17.5 72.5z" />
<glyph unicode="&#xc0;" horiz-adv-x="1402" d="M72 0l587 1427h84l588 -1427h-114l-160 389h-713l-158 -389h-114zM385 487h631l-316 777zM524 1823h133l123 -297h-82z" />
<glyph unicode="&#xc1;" horiz-adv-x="1402" d="M72 0l587 1427h84l588 -1427h-114l-160 389h-713l-158 -389h-114zM385 487h631l-316 777zM618 1526l123 297h133l-172 -297h-84z" />
<glyph unicode="&#xc2;" horiz-adv-x="1402" d="M72 0l587 1427h84l588 -1427h-114l-160 389h-713l-158 -389h-114zM385 487h631l-316 777zM391 1575l266 252h86l267 -252h-129l-181 174l-182 -174h-127z" />
<glyph unicode="&#xc3;" horiz-adv-x="1402" d="M72 0l587 1427h84l588 -1427h-114l-160 389h-713l-158 -389h-114zM385 487h631l-316 777zM412 1573q11 73 56 117.5t110 44.5q61 0 135 -45q77 -45 121 -45q83 0 104 96l68 -6q-21 -176 -168 -176q-66 0 -140 45t-116 45q-83 0 -101 -82z" />
<glyph unicode="&#xc4;" horiz-adv-x="1402" d="M72 0l587 1427h84l588 -1427h-114l-160 389h-713l-158 -389h-114zM385 487h631l-316 777zM416 1622.5q0 30.5 20 50.5q31 34 72.5 19.5t52 -51.5t-19.5 -72q-20 -20 -51 -20t-54 20q-20 23 -20 53.5zM838 1622q0 31 21 52.5t52 21.5q30 0 52 -22t22 -52t-22 -52t-52 -22 q-31 0 -52 21.5t-21 52.5z" />
<glyph unicode="&#xc5;" horiz-adv-x="1378" d="M72 0l579 1393q-55 12 -92 58t-37 103q0 68 49.5 117t118.5 49t117.5 -49t48.5 -117q0 -60 -37 -104.5t-94 -56.5l580 -1393h-113l-162 389h-684l-164 -389h-110zM389 487h600l-301 738zM598 1554q0 -37 27.5 -64.5t64.5 -27.5q35 0 62.5 27.5t27.5 64.5q0 36 -27 63.5 t-63 27.5q-37 0 -64.5 -27t-27.5 -64z" />
<glyph unicode="&#xc6;" horiz-adv-x="1888" d="M4 0l1096 1427h653v-98h-575v-524h536v-100h-536v-607h589v-98h-696v375h-651l-289 -375h-127zM494 473h577v752z" />
<glyph unicode="&#xc7;" horiz-adv-x="1472" d="M104 713q0 313 213 526q216 213 527 213q334 0 545 -240l-72 -67q-182 209 -473 209q-271 0 -453 -185q-180 -180 -180 -456q0 -277 180 -457q182 -182 453 -182q298 0 475 213l74 -68q-100 -117 -242.5 -180.5t-306.5 -63.5q-4 0 -13 1t-10 1l-39 -88h13 q52 0 87.5 -35.5t35.5 -91.5q0 -137 -170 -137q-79 0 -136 45l31 58q53 -35 102 -35q37 0 61.5 18.5t24.5 48.5q0 82 -118 82q-25 0 -31 -2l61 142q-278 35 -458 239q-181 205 -181 492z" />
<glyph unicode="&#xc8;" horiz-adv-x="1112" d="M197 0v1427h778v-98h-672v-524h633v-100h-633v-607h686v-98h-792zM401 1823h136l120 -297h-82z" />
<glyph unicode="&#xc9;" horiz-adv-x="1112" d="M197 0v1427h778v-98h-672v-524h633v-100h-633v-607h686v-98h-792zM518 1526l123 297h133l-174 -297h-82z" />
<glyph unicode="&#xca;" horiz-adv-x="1112" d="M197 0v1427h778v-98h-672v-524h633v-100h-633v-607h686v-98h-792zM276 1575l267 252h86l266 -252h-129l-180 174l-183 -174h-127z" />
<glyph unicode="&#xcb;" horiz-adv-x="1112" d="M197 0v1427h778v-98h-672v-524h633v-100h-633v-607h686v-98h-792zM305 1646.5q0 30.5 21 51.5q31 34 72.5 19.5t51.5 -52t-20 -72.5q-23 -20 -51 -20t-51 20q-23 23 -23 53.5zM727 1647q0 31 21.5 52t52.5 21q30 0 51.5 -21.5t21.5 -51.5q0 -31 -22 -52.5t-51 -21.5 q-30 0 -52 22t-22 52z" />
<glyph unicode="&#xcc;" horiz-adv-x="514" d="M43 1823h133l123 -297h-82zM205 0v1427h106v-1427h-106z" />
<glyph unicode="&#xcd;" horiz-adv-x="514" d="M205 0v1427h106v-1427h-106zM213 1526l123 297h133l-174 -297h-82z" />
<glyph unicode="&#xce;" horiz-adv-x="516" d="M-45 1575l260 252h86l260 -252h-129l-174 174l-176 -174h-127zM205 0v1427h106v-1427h-106z" />
<glyph unicode="&#xcf;" horiz-adv-x="514" d="M4 1646.5q0 30.5 21 51.5q31 34 72.5 19.5t51.5 -52t-20 -72.5q-23 -20 -51 -20t-51 20q-23 23 -23 53.5zM205 0v1427h106v-1427h-106zM362 1646.5q0 30.5 21 51.5q31 34 72.5 19.5t51.5 -52t-20 -72.5q-23 -20 -51 -20t-51 20q-23 23 -23 53.5z" />
<glyph unicode="&#xd0;" horiz-adv-x="1470" d="M72 684v100h125v643h432q339 0 538 -196t199 -518t-199 -518q-198 -195 -536 -195h-434v684h-125zM303 98h320q304 0 469 168q168 168 168 447q0 280 -168 448q-165 168 -471 168h-318v-545h297v-100h-297v-586z" />
<glyph unicode="&#xd1;" horiz-adv-x="1501" d="M197 0v1427h92l909 -1234v1234h107v-1427h-88l-914 1243v-1243h-106zM453 1573q11 73 55.5 117.5t109.5 44.5q62 0 136 -45t120 -45q84 0 105 96l68 -6q-21 -176 -168 -176q-64 0 -138 45t-118 45q-86 0 -101 -82z" />
<glyph unicode="&#xd2;" horiz-adv-x="1683" d="M104 713q0 313 213 526t525 213q309 0 522 -213q215 -212 215 -526q0 -315 -215 -527q-211 -211 -522 -211q-314 0 -525 211q-213 213 -213 527zM209 713q0 -275 180 -455q182 -182 453 -182q269 0 448 182q180 180 180 455q0 274 -180 454q-182 185 -448 185 q-269 0 -451 -185q-182 -182 -182 -454zM631 1823h133l123 -297h-82z" />
<glyph unicode="&#xd3;" horiz-adv-x="1683" d="M104 713q0 313 213 526t525 213q309 0 522 -213q215 -212 215 -526q0 -315 -215 -527q-211 -211 -522 -211q-314 0 -525 211q-213 213 -213 527zM209 713q0 -275 180 -455q182 -182 453 -182q269 0 448 182q180 180 180 455q0 274 -180 454q-182 185 -448 185 q-269 0 -451 -185q-182 -182 -182 -454zM774 1526l123 297h133l-174 -297h-82z" />
<glyph unicode="&#xd4;" horiz-adv-x="1683" d="M104 713q0 313 213 526t525 213q309 0 522 -213q215 -212 215 -526q0 -315 -215 -527q-211 -211 -522 -211q-314 0 -525 211q-213 213 -213 527zM209 713q0 -275 180 -455q182 -182 453 -182q269 0 448 182q180 180 180 455q0 274 -180 454q-182 185 -448 185 q-269 0 -451 -185q-182 -182 -182 -454zM532 1575l267 252h86l266 -252h-129l-180 174l-183 -174h-127z" />
<glyph unicode="&#xd5;" horiz-adv-x="1683" d="M104 713q0 313 213 526t525 213q309 0 522 -213q215 -212 215 -526q0 -315 -215 -527q-211 -211 -522 -211q-314 0 -525 211q-213 213 -213 527zM209 713q0 -275 180 -455q182 -182 453 -182q269 0 448 182q180 180 180 455q0 274 -180 454q-182 185 -448 185 q-269 0 -451 -185q-182 -182 -182 -454zM543 1573q11 73 55 117.5t111 44.5q61 0 135 -45t121 -45q83 0 104 96l70 -6q-21 -176 -170 -176q-64 0 -138 45t-120 45q-84 0 -99 -82z" />
<glyph unicode="&#xd6;" horiz-adv-x="1683" d="M104 713q0 313 213 526t525 213q309 0 522 -213q215 -212 215 -526q0 -315 -215 -527q-211 -211 -522 -211q-314 0 -525 211q-213 213 -213 527zM209 713q0 -275 180 -455q182 -182 453 -182q269 0 448 182q180 180 180 455q0 274 -180 454q-182 185 -448 185 q-269 0 -451 -185q-182 -182 -182 -454zM559 1622q0 32 21 53t51 21q31 0 52.5 -21.5t21.5 -52.5t-21.5 -52.5t-52.5 -21.5q-30 0 -51 21t-21 53zM979 1622.5q0 30.5 20 50.5q31 34 72.5 19.5t52 -51.5t-19.5 -72q-20 -20 -51 -20t-54 20q-20 23 -20 53.5z" />
<glyph unicode="&#xd7;" horiz-adv-x="800" d="M100 446l238 236l-236 236l62 65l237 -240l234 240l63 -65l-233 -236l235 -236l-63 -65l-236 237l-237 -237z" />
<glyph unicode="&#xd8;" horiz-adv-x="1683" d="M104 713q0 313 213 526t525 213q227 0 413 -125l121 162l78 -59l-121 -162q246 -214 246 -555q0 -315 -215 -527q-211 -211 -522 -211q-220 0 -396 111l-116 -156l-78 58l115 153q-125 104 -194 252.5t-69 319.5zM209 713q0 -308 217 -492l770 1024q-155 107 -354 107 q-269 0 -451 -185q-182 -182 -182 -454zM506 166q153 -90 336 -90q269 0 448 182q180 180 180 455q0 287 -198 473z" />
<glyph unicode="&#xd9;" horiz-adv-x="1386" d="M186 477v950h107v-940q0 -195 106.5 -302t294.5 -107t295 107t107 302v940h106v-950q0 -235 -139 -368q-138 -129 -369 -129q-230 0 -368 129q-140 134 -140 368zM502 1823h135l121 -297h-82z" />
<glyph unicode="&#xda;" horiz-adv-x="1386" d="M186 477v950h107v-940q0 -195 106.5 -302t294.5 -107t295 107t107 302v940h106v-950q0 -235 -139 -368q-138 -129 -369 -129q-230 0 -368 129q-140 134 -140 368zM633 1526l123 297h133l-174 -297h-82z" />
<glyph unicode="&#xdb;" horiz-adv-x="1386" d="M186 477v950h107v-940q0 -195 106.5 -302t294.5 -107t295 107t107 302v940h106v-950q0 -235 -139 -368q-138 -129 -369 -129q-230 0 -368 129q-140 134 -140 368zM385 1575l266 252h86l267 -252h-130l-180 174l-182 -174h-127z" />
<glyph unicode="&#xdc;" horiz-adv-x="1386" d="M186 477v950h107v-940q0 -195 106.5 -302t294.5 -107t295 107t107 302v940h106v-950q0 -235 -139 -368q-138 -129 -369 -129q-230 0 -368 129q-140 134 -140 368zM410 1622.5q0 30.5 20 50.5q31 34 72.5 19.5t52 -51.5t-19.5 -72q-20 -20 -51 -20t-54 20q-20 23 -20 53.5 zM832 1622.5q0 30.5 20 50.5q31 34 72.5 19.5t51.5 -51.5t-20 -72q-20 -20 -50.5 -20t-53.5 20q-20 23 -20 53.5z" />
<glyph unicode="&#xdd;" horiz-adv-x="1224" d="M61 1427h119l432 -718l432 718h119l-497 -825v-602h-107v602zM545 1526l123 297h133l-174 -297h-82z" />
<glyph unicode="&#xde;" horiz-adv-x="954" d="M197 0v1427h106v-317h143q191 0 306 -115q112 -112 112 -290q0 -174 -110 -287t-299 -113h-152v-305h-106zM303 406h143q142 0 227 83t85 220q0 136 -84.5 218.5t-229.5 82.5h-141v-604z" />
<glyph unicode="&#xdf;" horiz-adv-x="1116" d="M123 0v1116q0 137 96 238q98 98 238 98q139 0 235 -96t96 -236q0 -160 -120 -248q149 -9 264 -133q115 -121 115 -303q0 -198 -140 -332q-139 -133 -346 -133q-35 0 -106 11v104q59 -16 106 -16q159 0 268 106q111 108 111 260q0 149 -106 252q-104 107 -265 107h-22 q-39 -3 -92 -15v94q106 15 166 78q63 63 63 164q0 97 -68 168q-64 70 -159 70t-162 -70q-66 -72 -66 -168v-1116h-106z" />
<glyph unicode="&#xe0;" d="M80 516q0 232 149 387q150 156 371 156q146 0 262 -72q114 -71 148 -170v215h102v-839q0 -67 19.5 -96t66.5 -29q36 0 57 6v-80q-28 -14 -86 -14q-155 0 -155 198v35q-52 -111 -160.5 -175.5t-253.5 -64.5q-221 0 -371 156q-149 155 -149 387zM182 516q0 -191 119 -319 q121 -127 299 -127q180 0 299 125q121 127 121 321q0 193 -121 320t-299 127q-179 0 -299 -129q-119 -125 -119 -318zM418 1427h135l123 -297h-84z" />
<glyph unicode="&#xe1;" d="M80 516q0 232 149 387q150 156 371 156q146 0 262 -72q114 -71 148 -170v215h102v-839q0 -67 19.5 -96t66.5 -29q36 0 57 6v-80q-28 -14 -86 -14q-155 0 -155 198v35q-52 -111 -160.5 -175.5t-253.5 -64.5q-221 0 -371 156q-149 155 -149 387zM182 516q0 -191 119 -319 q121 -127 299 -127q180 0 299 125q121 127 121 321q0 193 -121 320t-299 127q-179 0 -299 -129q-119 -125 -119 -318zM545 1130l123 297h135l-174 -297h-84z" />
<glyph unicode="&#xe2;" d="M80 516q0 232 149 387q150 156 371 156q146 0 262 -72q114 -71 148 -170v215h102v-839q0 -67 19.5 -96t66.5 -29q36 0 57 6v-80q-28 -14 -86 -14q-155 0 -155 198v35q-52 -111 -160.5 -175.5t-253.5 -64.5q-221 0 -371 156q-149 155 -149 387zM182 516q0 -191 119 -319 q121 -127 299 -127q180 0 299 125q121 127 121 321q0 193 -121 320t-299 127q-179 0 -299 -129q-119 -125 -119 -318zM338 1180l264 252h86l266 -252h-129l-180 174l-180 -174h-127z" />
<glyph unicode="&#xe3;" d="M80 516q0 232 149 387q150 156 371 156q146 0 262 -72q114 -71 148 -170v215h102v-839q0 -67 19.5 -96t66.5 -29q36 0 57 6v-80q-28 -14 -86 -14q-155 0 -155 198v35q-52 -111 -160.5 -175.5t-253.5 -64.5q-221 0 -371 156q-149 155 -149 387zM182 516q0 -191 119 -319 q121 -127 299 -127q180 0 299 125q121 127 121 321q0 193 -121 320t-299 127q-179 0 -299 -129q-119 -125 -119 -318zM326 1229q8 72 53.5 117t112.5 45q61 0 135 -45q79 -46 121 -46q82 0 104 97l68 -6q-21 -174 -168 -174q-64 0 -140 43q-74 45 -118 45q-83 0 -101 -80z " />
<glyph unicode="&#xe4;" d="M80 516q0 232 149 387q150 156 371 156q146 0 262 -72q114 -71 148 -170v215h102v-839q0 -67 19.5 -96t66.5 -29q36 0 57 6v-80q-28 -14 -86 -14q-155 0 -155 198v35q-52 -111 -160.5 -175.5t-253.5 -64.5q-221 0 -371 156q-149 155 -149 387zM182 516q0 -191 119 -319 q121 -127 299 -127q180 0 299 125q121 127 121 321q0 193 -121 320t-299 127q-179 0 -299 -129q-119 -125 -119 -318zM334 1307q0 31 21.5 52t52.5 21q29 0 50 -21t21 -52t-21 -52.5t-50 -21.5q-31 0 -52.5 21t-21.5 53zM753 1307.5q0 30.5 23 50.5q29 34 70.5 19.5 t52.5 -52t-20 -72.5q-20 -20 -51 -20t-54 20q-21 24 -21 54.5z" />
<glyph unicode="&#xe5;" d="M80 516q0 232 149 387q150 156 371 156q146 0 262 -72q114 -71 148 -170v215h102v-839q0 -67 19.5 -96t66.5 -29q36 0 57 6v-80q-28 -14 -86 -14q-155 0 -155 198v35q-52 -111 -160.5 -175.5t-253.5 -64.5q-221 0 -371 156q-149 155 -149 387zM182 516q0 -191 119 -319 q121 -127 299 -127q180 0 299 125q121 127 121 321q0 193 -121 320t-299 127q-179 0 -299 -129q-119 -125 -119 -318zM455 1317q0 68 49.5 117t118.5 49q67 0 116 -50t49 -116q0 -69 -48 -118.5t-117 -49.5t-118.5 49.5t-49.5 118.5zM530 1317q0 -37 28 -64.5t65 -27.5 q35 0 62.5 27.5t27.5 64.5q0 36 -27 63t-63 27q-37 0 -65 -27t-28 -63z" />
<glyph unicode="&#xe6;" horiz-adv-x="2095" d="M80 516q0 232 149 387q150 156 371 156q149 0 262 -72q114 -71 148 -170v215h102v-233q53 115 168 186q115 74 250 74q202 0 344 -154q143 -152 143 -379q0 -22 -2 -32h-889q3 -188 117 -308q113 -116 291 -116q199 0 346 153l68 -67q-165 -183 -414 -183 q-142 0 -254 65.5t-168 178.5v-217h-102v215q-34 -102 -148 -172q-110 -70 -262 -70q-221 0 -371 156q-149 155 -149 387zM182 516q0 -191 119 -319q121 -127 299 -127q182 0 301 125q121 127 121 321q0 193 -121 320t-301 127q-179 0 -299 -129q-119 -128 -119 -318z M1135 586h774q-15 162 -123 270q-107 107 -256 107q-157 0 -270 -107q-110 -107 -125 -270z" />
<glyph unicode="&#xe7;" horiz-adv-x="1073" d="M80 516q0 231 156 387t387 156q242 0 391 -162l-62 -70q-130 136 -329 136q-190 0 -316 -129q-125 -125 -125 -318q0 -191 125 -319q127 -127 316 -127q200 0 329 135l62 -70q-149 -162 -391 -162h-2l-37 -84h12q52 0 87.5 -35.5t35.5 -91.5q0 -137 -170 -137 q-78 0 -135 45l30 58q53 -35 103 -35q37 0 61.5 18.5t24.5 48.5q0 82 -119 82q-25 0 -31 -2l60 140q-201 27 -332 176t-131 360z" />
<glyph unicode="&#xe8;" horiz-adv-x="1138" d="M80 508v6q0 242 143 391q145 154 361 154q207 0 342 -150q137 -149 137 -366q0 -37 -2 -51h-881q3 -187 117 -304q113 -116 291 -116q195 0 338 149l67 -65q-156 -181 -405 -181q-222 0 -367 148q-141 150 -141 385zM184 584h772q-3 158 -110 268q-108 111 -262 111 q-162 0 -279 -111q-115 -109 -121 -268zM399 1427h133l123 -297h-84z" />
<glyph unicode="&#xe9;" horiz-adv-x="1138" d="M80 508v6q0 242 143 391q145 154 361 154q207 0 342 -150q137 -149 137 -366q0 -37 -2 -51h-881q3 -187 117 -304q113 -116 291 -116q195 0 338 149l67 -65q-156 -181 -405 -181q-222 0 -367 148q-141 150 -141 385zM184 584h772q-3 158 -110 268q-108 111 -262 111 q-162 0 -279 -111q-115 -109 -121 -268zM528 1130l121 297h135l-174 -297h-82z" />
<glyph unicode="&#xea;" horiz-adv-x="1138" d="M80 508v6q0 242 143 391q145 154 361 154q207 0 342 -150q137 -149 137 -366q0 -37 -2 -51h-881q3 -187 117 -304q113 -116 291 -116q195 0 338 149l67 -65q-156 -181 -405 -181q-222 0 -367 148q-141 150 -141 385zM184 584h772q-3 158 -110 268q-108 111 -262 111 q-162 0 -279 -111q-115 -109 -121 -268zM295 1180l264 252h86l266 -252h-127l-182 174l-180 -174h-127z" />
<glyph unicode="&#xeb;" horiz-adv-x="1138" d="M80 508v6q0 242 143 391q145 154 361 154q207 0 342 -150q137 -149 137 -366q0 -37 -2 -51h-881q3 -187 117 -304q113 -116 291 -116q195 0 338 149l67 -65q-156 -181 -405 -181q-222 0 -367 148q-141 150 -141 385zM184 584h772q-3 158 -110 268q-108 111 -262 111 q-162 0 -279 -111q-115 -109 -121 -268zM298.5 1307q0.5 31 23.5 51q29 34 70 19.5t52 -52t-20 -72.5q-20 -20 -51 -20t-54 20q-21 23 -20.5 54zM720 1307.5q0 30.5 23 50.5q29 34 70.5 19.5t52.5 -52t-20 -72.5q-20 -20 -51 -20t-54 20q-21 24 -21 54.5z" />
<glyph unicode="&#xec;" horiz-adv-x="405" d="M-31 1427h133l123 -297h-82zM127 168v864h102v-846q0 -61 18.5 -86.5t65.5 -25.5q22 0 58 4v-86q-34 -12 -84 -12q-160 0 -160 188z" />
<glyph unicode="&#xed;" horiz-adv-x="405" d="M127 168v864h102v-846q0 -61 18.5 -86.5t65.5 -25.5q22 0 58 4v-86q-34 -12 -84 -12q-160 0 -160 188zM129 1130l123 297h133l-174 -297h-82z" />
<glyph unicode="&#xee;" horiz-adv-x="405" d="M-78 1180l213 252h86l213 -252h-119l-137 178l-137 -178h-119zM127 168v864h102v-846q0 -61 18.5 -86.5t65.5 -25.5q22 0 58 4v-86q-34 -12 -84 -12q-160 0 -160 188z" />
<glyph unicode="&#xef;" horiz-adv-x="405" d="M-25 1307q0 31 23 51q29 34 70 19.5t52 -52t-20 -72.5q-20 -20 -51 -20t-51 20q-23 23 -23 54zM127 168v864h102v-846q0 -61 18.5 -86.5t65.5 -25.5q22 0 58 4v-86q-34 -12 -84 -12q-160 0 -160 188zM231 1307.5q0 30.5 23 50.5q29 34 70 19.5t52 -52t-20 -72.5 q-20 -20 -50.5 -20t-53.5 20q-21 24 -21 54.5z" />
<glyph unicode="&#xf0;" horiz-adv-x="1093" d="M80 444q0 199 133 332q135 135 322 135q118 0 212.5 -50t143.5 -140q-25 123 -106.5 242t-192.5 208l-174 -167l-66 69l160 154q-132 89 -270 123l18 96q174 -44 326 -148l180 172l68 -71l-168 -158q234 -196 307 -463q43 -157 43 -299q0 -223 -127 -362 q-128 -140 -342 -140q-195 0 -332 134q-135 132 -135 333zM186 444q0 -155 103 -264q101 -104 258 -104t258 104q104 107 104 264q0 159 -104 263q-100 106 -258 106t-258 -106q-103 -106 -103 -263z" />
<glyph unicode="&#xf1;" horiz-adv-x="1148" d="M125 0v1032h102v-198q89 215 355 215q178 0 284.5 -112t106.5 -300v-434q0 -63 18 -90t62 -27q3 0 8 0.5t15.5 1.5t19.5 2v-86q-30 -10 -60 -10q-166 0 -166 201v421q0 153 -85 244.5t-226 91.5q-152 0 -242 -109t-90 -288v-555h-102zM272 1229q11 73 56 117.5t110 44.5 q63 0 137 -45q76 -46 119 -46q87 0 105 97l69 -6q-21 -174 -170 -174q-63 0 -139 43q-74 45 -117 45q-82 0 -100 -80z" />
<glyph unicode="&#xf2;" horiz-adv-x="1241" d="M78 516q0 232 155 387q156 156 388 156q229 0 385 -156q157 -157 157 -387t-157 -387q-156 -156 -385 -156q-232 0 -388 156q-155 155 -155 387zM180 516q0 -191 125 -319q127 -127 316 -127q186 0 313 127q127 130 127 319q0 191 -127 318q-126 129 -313 129 q-190 0 -316 -129q-125 -125 -125 -318zM416 1427h133l123 -297h-82z" />
<glyph unicode="&#xf3;" horiz-adv-x="1241" d="M78 516q0 232 155 387q156 156 388 156q229 0 385 -156q157 -157 157 -387t-157 -387q-156 -156 -385 -156q-232 0 -388 156q-155 155 -155 387zM180 516q0 -191 125 -319q127 -127 316 -127q186 0 313 127q127 130 127 319q0 191 -127 318q-126 129 -313 129 q-190 0 -316 -129q-125 -125 -125 -318zM565 1130l123 297h133l-172 -297h-84z" />
<glyph unicode="&#xf4;" horiz-adv-x="1241" d="M78 516q0 232 155 387q156 156 388 156q229 0 385 -156q157 -157 157 -387t-157 -387q-156 -156 -385 -156q-232 0 -388 156q-155 155 -155 387zM180 516q0 -191 125 -319q127 -127 316 -127q186 0 313 127q127 130 127 319q0 191 -127 318q-126 129 -313 129 q-190 0 -316 -129q-125 -125 -125 -318zM311 1180l267 252h86l266 -252h-129l-180 174l-183 -174h-127z" />
<glyph unicode="&#xf5;" horiz-adv-x="1241" d="M78 516q0 232 155 387q156 156 388 156q229 0 385 -156q157 -157 157 -387t-157 -387q-156 -156 -385 -156q-232 0 -388 156q-155 155 -155 387zM180 516q0 -191 125 -319q127 -127 316 -127q186 0 313 127q127 130 127 319q0 191 -127 318q-126 129 -313 129 q-190 0 -316 -129q-125 -125 -125 -318zM322 1229q11 73 55.5 117.5t109.5 44.5q62 0 136 -45q79 -46 120 -46q83 0 105 97l70 -6q-21 -174 -170 -174q-64 0 -140 43q-74 45 -116 45q-83 0 -101 -80z" />
<glyph unicode="&#xf6;" horiz-adv-x="1241" d="M78 516q0 232 155 387q156 156 388 156q229 0 385 -156q157 -157 157 -387t-157 -387q-156 -156 -385 -156q-232 0 -388 156q-155 155 -155 387zM180 516q0 -191 125 -319q127 -127 316 -127q186 0 313 127q127 130 127 319q0 191 -127 318q-126 129 -313 129 q-190 0 -316 -129q-125 -125 -125 -318zM338 1307q0 49 44.5 67t78.5 -16q22 -24 22.5 -51.5t-21.5 -50.5t-52 -23t-51 21t-21 53zM757 1307.5q0 30.5 23 50.5q29 34 70.5 19.5t52.5 -52t-20 -72.5q-20 -20 -51 -20t-54 20q-21 24 -21 54.5z" />
<glyph unicode="&#xf7;" horiz-adv-x="839" d="M94 666v96h651v-96h-651zM346 461q0 30 22 52t52 22t52 -22t22 -52t-22 -52t-52 -22q-31 0 -52.5 21.5t-21.5 52.5zM346 965q0 31 21.5 52t52.5 21q30 0 52 -21.5t22 -51.5t-22 -51t-52 -21q-31 0 -52.5 20.5t-21.5 51.5z" />
<glyph unicode="&#xf8;" horiz-adv-x="1241" d="M78 516q0 232 155 387q156 156 388 156q153 0 286 -80l80 106l74 -53l-80 -106q182 -159 182 -410q0 -230 -157 -387q-156 -156 -385 -156q-150 0 -281 76l-86 -117l-74 56l84 114q-186 155 -186 414zM180 516q0 -205 144 -334l526 717q-107 64 -229 64q-190 0 -316 -129 q-125 -125 -125 -318zM397 129q95 -59 224 -59q186 0 313 127q127 130 127 319q0 203 -137 328z" />
<glyph unicode="&#xf9;" horiz-adv-x="1132" d="M113 395v637h102v-616q0 -154 82.5 -245t222.5 -91q149 0 238.5 103.5t89.5 271.5v577h102v-833q0 -127 86 -127q37 0 58 6v-80q-32 -14 -86 -14q-66 0 -110 47.5t-44 136.5v29q-34 -94 -128.5 -153.5t-229.5 -59.5q-173 0 -278 111.5t-105 299.5zM348 1427h133l123 -297 h-84z" />
<glyph unicode="&#xfa;" horiz-adv-x="1132" d="M113 395v637h102v-616q0 -154 82.5 -245t222.5 -91q149 0 238.5 103.5t89.5 271.5v577h102v-833q0 -127 86 -127q37 0 58 6v-80q-32 -14 -86 -14q-66 0 -110 47.5t-44 136.5v29q-34 -94 -128.5 -153.5t-229.5 -59.5q-173 0 -278 111.5t-105 299.5zM473 1130l123 297h133 l-174 -297h-82z" />
<glyph unicode="&#xfb;" horiz-adv-x="1132" d="M113 395v637h102v-616q0 -154 82.5 -245t222.5 -91q149 0 238.5 103.5t89.5 271.5v577h102v-833q0 -127 86 -127q37 0 58 6v-80q-32 -14 -86 -14q-66 0 -110 47.5t-44 136.5v29q-34 -94 -128.5 -153.5t-229.5 -59.5q-173 0 -278 111.5t-105 299.5zM231 1180l265 252h86 l266 -252h-129l-180 174l-181 -174h-127z" />
<glyph unicode="&#xfc;" horiz-adv-x="1132" d="M113 395v637h102v-616q0 -154 82.5 -245t222.5 -91q149 0 238.5 103.5t89.5 271.5v577h102v-833q0 -127 86 -127q37 0 58 6v-80q-32 -14 -86 -14q-66 0 -110 47.5t-44 136.5v29q-34 -94 -128.5 -153.5t-229.5 -59.5q-173 0 -278 111.5t-105 299.5zM256 1307q0 49 44.5 67 t78.5 -16q22 -24 22.5 -51.5t-21.5 -50.5t-52 -23t-51 21t-21 53zM675 1307.5q0 30.5 23 50.5q29 34 70.5 19.5t52.5 -52t-20 -72.5q-20 -20 -51 -20t-54 20q-21 24 -21 54.5z" />
<glyph unicode="&#xfd;" horiz-adv-x="1003" d="M39 1032h106l355 -905l360 905h109l-488 -1214q-50 -125 -104 -176q-69 -66 -172 -66q-51 0 -94 16v95q41 -15 94 -15q65 0 110 45q35 35 72 123l62 154zM430 1130l123 297h133l-174 -297h-82z" />
<glyph unicode="&#xfe;" horiz-adv-x="1234" d="M125 -395v1822h102v-610q37 102 148 172q113 70 262 70q219 0 369 -156q151 -157 151 -387t-151 -387q-150 -156 -369 -156q-149 0 -262 70q-111 70 -148 172v-610h-102zM217 516q0 -196 119 -321t301 -125q178 0 299 127q119 128 119 319t-121 318q-120 129 -297 129 q-180 0 -301 -127q-119 -125 -119 -320z" />
<glyph unicode="&#xff;" horiz-adv-x="1003" d="M39 1032h106l355 -905l360 905h109l-488 -1214q-50 -125 -104 -176q-69 -66 -172 -66q-51 0 -94 16v95q41 -15 94 -15q65 0 110 45q35 35 72 123l62 154zM219 1307q0 31 21.5 52t52.5 21q29 0 50.5 -21t21.5 -52t-21.5 -52.5t-50.5 -21.5q-31 0 -52.5 21t-21.5 53z M641 1307q0 31 21.5 52t52.5 21q29 0 50 -21t21 -52t-21 -52.5t-50 -21.5q-31 0 -52.5 21t-21.5 53z" />
<glyph unicode="&#x152;" horiz-adv-x="2277" d="M104 713q0 313 213 526t523 213q217 0 377 -100q164 -100 241 -265v340h682v-98h-575v-524h536v-100h-536v-607h589v-98h-696v344q-74 -169 -239 -269t-379 -100q-312 0 -523 211q-213 213 -213 527zM209 713q0 -275 180 -455q182 -182 451 -182q265 0 444 182 q178 181 178 455q0 273 -178 454q-179 185 -444 185q-269 0 -451 -185q-180 -180 -180 -454z" />
<glyph unicode="&#x153;" horiz-adv-x="2121" d="M78 516q0 232 155 387q156 156 385 156q167 0 298 -88t188 -238q56 150 178 238t277 88q210 0 354 -156q147 -153 147 -379q0 -20 -2 -30h-903q3 -189 117 -306q114 -114 295 -114q221 0 358 149l70 -71q-167 -179 -428 -179q-165 0 -288 85t-177 235 q-60 -147 -189.5 -233.5t-294.5 -86.5q-229 0 -385 156q-155 155 -155 387zM180 516q0 -191 125 -319q127 -127 313 -127q187 0 314 127q125 128 125 319q0 193 -125 318q-126 129 -314 129q-187 0 -313 -129q-125 -125 -125 -318zM1163 584h789q-15 161 -127 270t-266 109 q-156 0 -269 -107q-112 -109 -127 -272z" />
<glyph unicode="&#x178;" horiz-adv-x="1224" d="M61 1427h119l432 -718l432 718h119l-497 -825v-602h-107v602zM330 1622q0 31 21 51.5t52 20.5q30 0 52 -21t22 -51t-22 -52t-52 -22q-31 0 -52 21.5t-21 52.5zM750 1622.5q0 30.5 20 50.5q19 19 43 21.5t43 -9.5t31.5 -30.5t9.5 -42.5t-23 -43q-20 -20 -50.5 -20 t-53.5 20q-20 23 -20 53.5z" />
<glyph unicode="&#x2c6;" horiz-adv-x="1263" d="M313 1180l258 252h119l260 -252h-127l-192 186l-191 -186h-127z" />
<glyph unicode="&#x2dc;" horiz-adv-x="1206" d="M309 1290q8 72 53.5 117t112.5 45q61 0 135 -45q77 -45 121 -45q84 0 105 96l67 -6q-21 -176 -168 -176q-65 0 -139 45t-119 45q-82 0 -100 -82z" />
<glyph unicode="&#x2000;" horiz-adv-x="913" />
<glyph unicode="&#x2001;" horiz-adv-x="1827" />
<glyph unicode="&#x2002;" horiz-adv-x="913" />
<glyph unicode="&#x2003;" horiz-adv-x="1827" />
<glyph unicode="&#x2004;" horiz-adv-x="609" />
<glyph unicode="&#x2005;" horiz-adv-x="456" />
<glyph unicode="&#x2006;" horiz-adv-x="304" />
<glyph unicode="&#x2007;" horiz-adv-x="304" />
<glyph unicode="&#x2008;" horiz-adv-x="228" />
<glyph unicode="&#x2009;" horiz-adv-x="365" />
<glyph unicode="&#x200a;" horiz-adv-x="101" />
<glyph unicode="&#x2010;" horiz-adv-x="716" d="M92 489v97h535v-97h-535z" />
<glyph unicode="&#x2011;" horiz-adv-x="716" d="M92 489v97h535v-97h-535z" />
<glyph unicode="&#x2012;" horiz-adv-x="716" d="M92 489v97h535v-97h-535z" />
<glyph unicode="&#x2013;" horiz-adv-x="948" d="M92 489v97h766v-97h-766z" />
<glyph unicode="&#x2014;" horiz-adv-x="1488" d="M92 489v97h1307v-97h-1307z" />
<glyph unicode="&#x2018;" horiz-adv-x="350" d="M35 911l256 516h86l-203 -516h-139z" />
<glyph unicode="&#x2019;" horiz-adv-x="362" d="M-2 911l203 516h139l-256 -516h-86z" />
<glyph unicode="&#x201a;" horiz-adv-x="360" d="M-49 -262l192 489h138l-244 -489h-86z" />
<glyph unicode="&#x201c;" horiz-adv-x="647" d="M35 911l256 516h86l-203 -516h-139zM330 911l256 516h86l-203 -516h-139z" />
<glyph unicode="&#x201d;" horiz-adv-x="657" d="M-2 911l203 516h139l-256 -516h-86zM293 911l205 516h139l-256 -516h-88z" />
<glyph unicode="&#x201e;" horiz-adv-x="641" d="M-49 -262l192 489h138l-244 -489h-86zM262 -262l193 489h137l-244 -489h-86z" />
<glyph unicode="&#x2022;" horiz-adv-x="458" d="M108 518q0 51 35 86q37 37 86 37t84 -37q37 -35 37 -86t-37 -86q-35 -35 -84 -35t-86 35q-35 35 -35 86z" />
<glyph unicode="&#x2026;" horiz-adv-x="980" d="M102 63q0 30 22 52t52 22t52 -22t22 -52t-22 -51.5t-52 -21.5q-31 0 -52.5 21t-21.5 52zM418 63q0 31 21.5 52.5t52.5 21.5q29 0 50 -21.5t21 -52.5t-21 -52t-50 -21q-31 0 -52.5 20.5t-21.5 52.5zM736.5 82.5q15.5 41.5 52 52t69.5 -19.5q34 -29 19.5 -70t-51.5 -52.5 t-72 17.5q-33 31 -17.5 72.5z" />
<glyph unicode="&#x202f;" horiz-adv-x="365" />
<glyph unicode="&#x2039;" horiz-adv-x="491" d="M80 518l225 359h109l-226 -359l226 -358h-109z" />
<glyph unicode="&#x203a;" horiz-adv-x="491" d="M80 160l225 358l-225 359h108l226 -359l-226 -358h-108z" />
<glyph unicode="&#x205f;" horiz-adv-x="456" />
<glyph unicode="&#x20ac;" horiz-adv-x="1538" d="M49 514l41 96h164q-6 44 -6 103q0 77 8 121h-162l41 96h139q65 235 244 377q183 145 416 145q293 0 496 -215l-76 -68q-168 183 -420 183q-194 0 -344 -117q-146 -113 -205 -305h590l-41 -96h-569q-11 -75 -11 -121q0 -51 6 -103h484l-41 -96h-422q53 -197 201 -319 q151 -121 352 -121q265 0 432 188l76 -69q-206 -218 -508 -218q-240 0 -422 150q-184 152 -242 389h-221z" />
<glyph unicode="&#x2122;" horiz-adv-x="1662" d="M53 1329v98h609v-98h-254v-661h-103v661h-252zM756 668v762h10l379 -453l379 453h12v-762h-102v506l-289 -351l-287 351v-506h-102z" />
<glyph unicode="&#x25fc;" horiz-adv-x="1034" d="M0 0v1034h1034v-1034h-1034z" />
<glyph unicode="&#xfb01;" horiz-adv-x="983" d="M63 936v96h160v96q0 170 78 248q76 76 236 76q61 0 94 -8v-96q-36 8 -105 8q-104 0 -152 -51.5t-48 -163.5v-109h479v-846q0 -60 19.5 -86t66.5 -26q21 0 57 4v-86q-34 -12 -84 -12q-162 0 -162 188v768h-376v-936h-103v936h-160z" />
<glyph unicode="&#xfb02;" horiz-adv-x="1122" d="M63 936v96h160v96q0 185 92 265q68 59 195 59q56 0 80 -8v-94q-31 8 -90 8q-91 0 -132.5 -52t-41.5 -165v-109h229v-96h-229v-936h-103v936h-160zM705 260v1167h100v-1161q0 -103 37 -149.5t119 -46.5q55 0 86 8v-94q-57 -11 -86 -11q-256 0 -256 287z" />
<glyph unicode="&#xfb03;" horiz-adv-x="1462" d="M63 936v96h160v96q0 324 287 324q56 0 80 -8v-96q-31 8 -90 8q-91 0 -132.5 -51.5t-41.5 -163.5v-109h376v96q0 170 78 248q76 76 236 76q61 0 94 -8v-96q-36 8 -104 8q-104 0 -152.5 -51.5t-48.5 -163.5v-109h479v-846q0 -60 19.5 -86t66.5 -26q21 0 57 4v-86 q-35 -12 -84 -12q-161 0 -161 188v768h-377v-936h-103v936h-376v-936h-103v936h-160z" />
<glyph unicode="&#xfb04;" horiz-adv-x="1632" d="M63 936v96h160v96q0 324 287 324q56 0 80 -8v-94q-31 8 -90 8q-91 0 -132.5 -52t-41.5 -165v-109h376v96q0 324 287 324q56 0 80 -8v-94q-31 8 -90 8q-91 0 -132.5 -52t-41.5 -165v-109h229v-96h-229v-936h-103v936h-376v-936h-103v936h-160zM1212 260v1167h103v-1161 q0 -103 36.5 -149.5t118.5 -46.5q53 0 84 8v-94q-50 -11 -84 -11q-258 0 -258 287z" />
</font>
</defs>
</svg>
