<?xml version="1.0" standalone="no"?>
<!DOCTYPE svg PUBLIC "-//W3C//DTD SVG 1.1//EN" "http://www.w3.org/Graphics/SVG/1.1/DTD/svg11.dtd" >
<svg xmlns="http://www.w3.org/2000/svg">
<metadata></metadata>
<defs>
<font id="hurme_geometric_sans_4regular" horiz-adv-x="1241" >
<font-face units-per-em="2048" ascent="1565" descent="-483" />
<missing-glyph horiz-adv-x="843" />
<glyph horiz-adv-x="0" />
<glyph horiz-adv-x="682" />
<glyph unicode=" "  horiz-adv-x="843" />
<glyph unicode="&#x09;" horiz-adv-x="843" />
<glyph unicode="&#xa0;" horiz-adv-x="843" />
<glyph unicode="!" horiz-adv-x="491" d="M143 71.5q0 42.5 31 71.5q31 31 71.5 31t71.5 -31q31 -29 31 -71.5t-31 -71.5q-31 -31 -71.5 -31t-71.5 31q-31 29 -31 71.5zM150 1427h192l-33 -1110h-127z" />
<glyph unicode="&#x22;" horiz-adv-x="591" d="M90 1427h154l-25 -516h-104zM348 1427h154l-25 -516h-104z" />
<glyph unicode="#" horiz-adv-x="1120" d="M55 459v127h213l62 241h-183v127h215l56 220h141l-57 -220h241l58 220h139l-55 -220h180v-127h-213l-61 -241h184v-127h-215l-58 -221h-141l57 221h-241l-58 -221h-141l58 221h-181zM408 586h241l64 241h-244z" />
<glyph unicode="$" horiz-adv-x="1114" d="M92 317l150 70q77 -212 262 -256v582q-169 76 -254 161q-82 85 -82 238q0 140 94 234q95 95 242 110v197h131v-201q204 -30 303 -217l-135 -70q-59 108 -168 135v-479q215 -95 307 -190q92 -92 92 -262q0 -167 -105.5 -273.5t-293.5 -118.5v-196h-131v201 q-298 40 -412 335zM328 1112q0 -82 41 -133.5t135 -97.5v428q-81 -11 -128.5 -62.5t-47.5 -134.5zM635 125q73 6 125 33.5t76 70.5q38 67 38 140q0 101 -53.5 161.5t-185.5 122.5v-528z" />
<glyph unicode="%" horiz-adv-x="1501" d="M74 1139q0 131 94 225t225 94t225 -94q95 -95 95 -225q0 -131 -95 -226q-94 -94 -225 -94t-225 94t-94 226zM209 1139q0 -82 53 -138.5t131 -56.5q76 0 130.5 57t54.5 138q0 79 -55 136.5t-130 57.5t-129.5 -57.5t-54.5 -136.5zM213 0l924 1427h157l-923 -1427h-158z M788 289q0 132 93 225q94 94 227 94q134 0 225 -94q94 -91 94 -225t-94 -228q-92 -92 -225 -92q-132 0 -227 92q-93 96 -93 228zM924 289q0 -82 53 -138.5t131 -56.5q75 0 129.5 57t54.5 138q0 79 -54.5 136.5t-129.5 57.5t-129.5 -57.5t-54.5 -136.5z" />
<glyph unicode="&#x26;" horiz-adv-x="1513" d="M86 457q0 295 285 430q-60 111 -60 217q0 152 101 250q100 100 262 100q154 0 252 -94q98 -91 98 -230q0 -110 -68 -178h500v-147h-276v-78q0 -278 -80 -455l246 -272h-205l-125 139q-153 -170 -408 -170q-235 0 -379 135q-143 134 -143 353zM246 457q0 -158 97 -249 t265 -91q201 0 301 139l-178 195q-23 25 -45 49t-42.5 45.5t-27.5 29.5q-29 34 -61 66q-62 71 -98 119q-211 -94 -211 -303zM471 1104q0 -56 29 -125q28 -60 59 -103t96 -114l326 -359q39 124 39 324v78h-305v98q70 18 113.5 74.5t43.5 134.5q0 85 -57 140t-145 55 q-80 0 -139.5 -55.5t-59.5 -147.5z" />
<glyph unicode="'" horiz-adv-x="333" d="M90 1427h154l-25 -516h-104z" />
<glyph unicode="(" horiz-adv-x="602" d="M96 633q0 575 463 983l76 -82q-387 -381 -387 -901t387 -901l-76 -82q-463 408 -463 983z" />
<glyph unicode=")" horiz-adv-x="602" d="M-33 -268q387 381 387 901t-387 901l76 82q463 -408 463 -983t-463 -983z" />
<glyph unicode="*" horiz-adv-x="794" d="M92 1169l43 115l213 -90l-10 233h121l-13 -233l216 90l40 -115l-225 -69l156 -176l-96 -74l-140 192l-139 -192l-94 74l153 176z" />
<glyph unicode="+" horiz-adv-x="786" d="M86 641v141h229v254h156v-254h229v-141h-229v-252h-156v252h-229z" />
<glyph unicode="," horiz-adv-x="393" d="M-74 -262l185 489h202l-258 -489h-129z" />
<glyph unicode="-" horiz-adv-x="786" d="M86 469v141h614v-141h-614z" />
<glyph unicode="." horiz-adv-x="385" d="M90 88q0 43 31 72q31 31 71.5 31t71.5 -31q31 -29 31 -72t-31 -74q-31 -29 -71.5 -29t-71.5 29q-31 31 -31 74z" />
<glyph unicode="/" horiz-adv-x="864" d="M2 -279l639 1760h145l-643 -1760h-141z" />
<glyph unicode="0" horiz-adv-x="1134" d="M82 715q0 238 6 305q18 185 156 311q139 127 323 127q185 0 324 -127q138 -126 156 -311q6 -68 6 -305q0 -239 -6 -307q-18 -188 -156 -314q-137 -125 -324 -125q-186 0 -323 125q-138 126 -156 314q-6 67 -6 307zM233 715q0 -229 7 -297q12 -130 104 -213 q96 -84 223 -84q128 0 221 84q95 83 107 213q6 59 6 297q0 237 -6 295q-12 130 -107 213q-93 84 -221 84q-127 0 -223 -84q-92 -83 -104 -213q-7 -68 -7 -295z" />
<glyph unicode="1" horiz-adv-x="616" d="M78 1280v147h356v-1427h-160v1280h-196z" />
<glyph unicode="2" horiz-adv-x="1028" d="M27 0v104l641 723q94 107 94 228q0 105 -76 178q-74 74 -178 74q-105 0 -178 -76q-74 -74 -74 -178h-158q0 165 121 286q119 119 291 119t291 -119q121 -121 121 -286q0 -167 -148 -338l-510 -568h692v-147h-929z" />
<glyph unicode="3" horiz-adv-x="1148" d="M25 266l137 64q41 -98 144.5 -153.5t246.5 -55.5q156 0 260 90q100 90 100 238q0 144 -103 232.5t-278 88.5q-83 0 -163 -25l-58 103l461 432h-616v147h858v-106l-455 -422q16 4 41 4q198 0 330 -129q135 -129 135 -325q0 -214 -145 -347t-367 -133q-186 0 -327 79 t-201 218z" />
<glyph unicode="4" horiz-adv-x="1169" d="M109 317v107l495 1003h172l-477 -962h555v311h160v-776h-160v317h-745z" />
<glyph unicode="5" horiz-adv-x="1136" d="M57 260l138 66q44 -94 134 -149.5t199 -55.5q146 0 254 102q109 103 109 244q0 148 -100 248q-102 102 -242 102q-157 0 -266 -92l-113 27l121 675h661v-147h-526l-64 -350q79 39 185 39q225 0 366 -150q142 -151 142 -340q0 -226 -154 -368q-151 -142 -373 -142 q-150 0 -280 80q-127 80 -191 211z" />
<glyph unicode="6" horiz-adv-x="1153" d="M82 471q0 104 45 195q46 94 149 245q5 5 342 516h191l-328 -487q55 12 117 12q190 0 334 -141q143 -137 143 -338q0 -213 -145 -358q-146 -146 -350 -146t-353 146q-145 148 -145 356zM244 465q0 -145 96 -246q98 -98 240 -98q141 0 241 100q103 103 103 244 q0 139 -103 242q-100 100 -241 100q-148 0 -242 -98q-94 -94 -94 -244z" />
<glyph unicode="7" horiz-adv-x="1122" d="M74 1280v147h975v-110l-646 -1317h-176l631 1280h-784z" />
<glyph unicode="8" horiz-adv-x="1110" d="M78 432q0 142 69.5 244.5t184.5 148.5q-146 103 -146 265q0 151 109 260q108 108 260 108t260 -108q109 -109 109 -260q0 -162 -146 -265q115 -46 184.5 -148.5t69.5 -244.5q0 -189 -139 -328q-138 -135 -338 -135t-338 135q-139 139 -139 328zM238 432q0 -129 92 -221 q96 -90 225 -90q130 0 223 90q94 91 94 221q0 131 -94 219q-92 92 -223 92q-130 0 -225 -92q-92 -89 -92 -219zM344 1089.5q0 -90.5 62 -153.5t150 -63t149 63t61 153.5t-61 153.5q-62 63 -149.5 63t-149.5 -63t-62 -153.5z" />
<glyph unicode="9" horiz-adv-x="1130" d="M80 965q0 206 141 350q143 143 344 143q210 0 348 -141t138 -344q0 -82 -33 -164q-28 -76 -66 -141q-39 -67 -110 -172q-1 -1 -3 -4.5t-6 -10t-8 -12.5l-311 -469h-190l350 516q-64 -18 -123 -18q-183 0 -328 133q-143 131 -143 334zM231 973q0 -134 97 -236 q98 -98 237 -98q152 0 243 94t91 240q0 137 -98 235q-95 99 -236 99q-138 0 -237 -99q-97 -102 -97 -235z" />
<glyph unicode=":" horiz-adv-x="385" d="M90 233.5q0 42.5 31 71.5q31 31 71.5 31t71.5 -31q31 -29 31 -71.5t-31 -73.5q-31 -29 -71.5 -29t-71.5 29q-31 31 -31 73.5zM90 798.5q0 42.5 31 71.5q31 31 71.5 31t71.5 -31q31 -29 31 -71.5t-31 -73.5q-31 -29 -71.5 -29t-71.5 29q-31 31 -31 73.5z" />
<glyph unicode=";" horiz-adv-x="466" d="M-31 -229l172 456h203l-240 -456h-135zM131 798.5q0 42.5 31 71.5q31 31 71.5 31t71.5 -31q31 -29 31 -71.5t-31 -73.5q-31 -29 -71.5 -29t-71.5 29q-31 31 -31 73.5z" />
<glyph unicode="&#x3c;" horiz-adv-x="847" d="M90 674v110l651 402v-160l-489 -297l489 -295v-160z" />
<glyph unicode="=" horiz-adv-x="872" d="M86 487v142h700v-142h-700zM86 823v142h700v-142h-700z" />
<glyph unicode="&#x3e;" horiz-adv-x="845" d="M106 274v160l490 295l-490 297v160l652 -402v-110z" />
<glyph unicode="?" horiz-adv-x="811" d="M100 1178v180q124 100 291 100q95 0 168 -29.5t111 -80.5q69 -89 69 -185q0 -81 -15 -133.5t-60 -103.5q-46 -52 -82 -80l-125 -96q-131 -94 -131 -179q0 -104 114 -104q82 0 146 37v-158q-62 -27 -146 -27q-125 0 -199.5 68.5t-74.5 183.5q0 151 182 283l101 74 q30 21 67 61q37 37 50.5 74.5t13.5 93.5q0 10 -1.5 22.5t-12 38t-29 44.5t-56.5 34t-90 15q-152 0 -291 -133zM291 71.5q0 42.5 31 71.5q31 31 71.5 31t71.5 -31q31 -29 31 -71.5t-31 -71.5q-31 -31 -71.5 -31t-71.5 31q-31 29 -31 71.5z" />
<glyph unicode="@" horiz-adv-x="1644" d="M78 598q0 190 92 360q95 170 266 277q176 108 385 108q303 0 522 -204q224 -205 224 -506q0 -208 -82.5 -320t-229.5 -112q-163 0 -215 137q-89 -109 -225 -109q-147 0 -250 103q-102 102 -102 256t102 256t250 102q127 0 205 -90v72h139v-469q0 -45 10 -74t28 -39.5 t29.5 -13t28.5 -2.5q31 0 53.5 7.5t51.5 31.5q67 55 67 264q0 242 -178 411q-179 170 -428 170t-428 -182q-176 -182 -176 -434t176 -434q177 -180 428 -180q149 0 283 79l65 -122q-160 -86 -348 -86q-191 0 -360 94q-169 91 -277 264q-106 172 -106 385zM600 588 q0 -97 60.5 -160t154.5 -63q91 0 153 64.5t62 158.5q0 98 -61 161.5t-154 63.5q-94 0 -154.5 -63.5t-60.5 -161.5z" />
<glyph unicode="A" horiz-adv-x="1474" d="M72 0l604 1427h123l604 -1427h-172l-148 352h-692l-147 -352h-172zM453 500h569l-285 680z" />
<glyph unicode="B" horiz-adv-x="1212" d="M188 0v1427h437q162 0 272 -104q111 -102 111 -260q0 -102 -48 -177t-135 -110q138 -29 212.5 -122.5t74.5 -231.5q0 -184 -125 -303q-122 -119 -309 -119h-490zM348 147h320q123 0 203.5 78t80.5 197q0 114 -82 190q-79 76 -204 76h-318v-541zM348 831h266 q100 0 167 64.5t67 161.5t-66 160t-166 63h-268v-449z" />
<glyph unicode="C" horiz-adv-x="1456" d="M96 713q0 316 215 528q219 213 529 213q330 0 544 -242l-108 -98q-166 193 -436 193q-251 0 -418 -170q-166 -169 -166 -424q0 -257 166 -426q165 -168 418 -168q275 0 442 200l109 -98q-215 -250 -551 -250q-312 0 -529 211q-215 212 -215 531z" />
<glyph unicode="D" horiz-adv-x="1486" d="M188 0v1427h459q343 0 539 -196q198 -195 198 -518q0 -322 -196 -518q-198 -195 -539 -195h-461zM348 147h289q284 0 436 151.5t152 414.5q0 264 -152.5 415.5t-437.5 151.5h-287v-1133z" />
<glyph unicode="E" horiz-adv-x="1124" d="M188 0v1427h807v-147h-647v-453h608v-147h-608v-533h662v-147h-822z" />
<glyph unicode="F" horiz-adv-x="1036" d="M188 0v1427h746v-147h-586v-461h535v-147h-535v-672h-160z" />
<glyph unicode="G" horiz-adv-x="1515" d="M96 713q0 316 215 528q219 213 529 213q292 0 493 -186l-100 -111q-163 150 -393 150q-251 0 -418 -170q-166 -169 -166 -424q0 -257 166 -426q165 -168 418 -168q229 0 391 143v369h-436v147h596v-571q-217 -236 -551 -236q-312 0 -529 211q-215 212 -215 531z" />
<glyph unicode="H" horiz-adv-x="1488" d="M188 0v1427h160v-596h793v596h159v-1427h-159v684h-793v-684h-160z" />
<glyph unicode="I" horiz-adv-x="552" d="M197 0v1427h159v-1427h-159z" />
<glyph unicode="J" horiz-adv-x="634" d="M29 -10v151q50 -20 108 -20q49 3 82 22.5t49.5 56.5t23.5 81q5 38 5 90v16v1040h160v-1034q0 -83 -5 -131.5t-22 -105.5q-25 -89 -91.5 -134t-191.5 -51q-56 0 -118 19z" />
<glyph unicode="K" horiz-adv-x="1306" d="M188 0v1427h160v-757l686 757h197l-569 -622l585 -805h-192l-500 688l-207 -225v-463h-160z" />
<glyph unicode="L" horiz-adv-x="1015" d="M188 0v1427h160v-1280h588v-147h-748z" />
<glyph unicode="M" horiz-adv-x="1759" d="M188 0v1427h148l545 -905l544 905h146v-1427h-158v1112l-532 -872l-535 870v-1110h-158z" />
<glyph unicode="N" horiz-adv-x="1538" d="M188 0v1427h140l862 -1142v1142h160v-1427h-129l-873 1155v-1155h-160z" />
<glyph unicode="O" horiz-adv-x="1679" d="M96 713q0 316 215 528q219 213 529 213t526 -213q217 -211 217 -528q0 -320 -217 -531q-214 -211 -526 -211t-529 211q-215 212 -215 531zM254 713q0 -257 166 -426q168 -168 420 -168t417 168q166 169 166 426q0 255 -166 424q-167 170 -417 170t-420 -170 q-166 -169 -166 -424z" />
<glyph unicode="P" horiz-adv-x="1173" d="M188 0v1427h457q185 0 309 -124q127 -124 127 -310q0 -184 -127 -311q-126 -123 -309 -123h-297v-559h-160zM348 707h291q123 0 201 81q82 82 82 205t-82 205q-79 82 -201 82h-291v-573z" />
<glyph unicode="Q" horiz-adv-x="1679" d="M96 713q0 316 215 528q219 213 529 213t526 -213q217 -211 217 -528q0 -313 -209 -525l152 -186l-113 -92l-151 186q-186 -125 -422 -125q-312 0 -529 211q-215 212 -215 531zM254 713q0 -257 166 -426q168 -168 420 -168q182 0 325 94l-233 287l112 92l232 -285 q147 169 147 406q0 255 -166 424q-167 170 -417 170t-420 -170q-166 -169 -166 -424z" />
<glyph unicode="R" d="M188 0v1427h488q178 0 303 -122q125 -119 125 -304q0 -140 -74.5 -248.5t-198.5 -156.5l345 -596h-183l-321 565h-2h-322v-565h-160zM348 713h311q124 0 203 82q82 82 82 206q0 119 -78 199t-196 80h-322v-567z" />
<glyph unicode="S" horiz-adv-x="1126" d="M84 313l137 64q108 -258 359 -258q88 0 151 27t90 73q45 76 45 152q0 116 -71 178t-248 139q-195 86 -285 170t-90 242q0 152 111 254q109 100 280 100q263 0 385 -227l-137 -70q-80 150 -250 150q-97 0 -163 -58t-66 -145q0 -58 18 -97.5t66 -74.5q68 -45 84 -53 l123 -56q216 -94 309 -190q94 -91 94 -260q0 -176 -119 -289q-116 -113 -329 -113q-174 0 -304 87.5t-190 254.5z" />
<glyph unicode="T" horiz-adv-x="1060" d="M61 1280v147h938v-147h-389v-1280h-159v1280h-390z" />
<glyph unicode="U" horiz-adv-x="1425" d="M178 500v927h160v-911q0 -189 99.5 -291t275.5 -102t275 101.5t99 291.5v911h160v-927q0 -251 -147 -389q-148 -136 -387 -136t-387 136q-148 139 -148 389z" />
<glyph unicode="V" horiz-adv-x="1452" d="M72 1427h174l481 -1159l479 1159h174l-598 -1427h-112z" />
<glyph unicode="W" horiz-adv-x="1884" d="M55 1427h162l318 -1079l352 1079h110l353 -1079l317 1079h162l-418 -1427h-102l-367 1104l-367 -1104h-102z" />
<glyph unicode="X" horiz-adv-x="1337" d="M86 0l479 739l-450 688h178l377 -579l374 579h173l-449 -690l483 -737h-180l-409 627l-406 -627h-170z" />
<glyph unicode="Y" horiz-adv-x="1273" d="M57 1427h176l408 -684l403 684h173l-498 -841v-586h-160v586z" />
<glyph unicode="Z" horiz-adv-x="1290" d="M90 0v98l877 1182h-777v147h992v-106l-871 -1174h885v-147h-1106z" />
<glyph unicode="[" horiz-adv-x="628" d="M172 -395v1822h461v-147h-301v-1528h301v-147h-461z" />
<glyph unicode="\" horiz-adv-x="864" d="M53 1481h142l643 -1760h-142z" />
<glyph unicode="]" horiz-adv-x="628" d="M-4 -248h301v1528h-301v147h461v-1822h-461v147z" />
<glyph unicode="^" horiz-adv-x="1064" d="M47 717l428 710h115l428 -710h-162l-324 549l-325 -549h-160z" />
<glyph unicode="_" horiz-adv-x="606" d="M-4 -254h614v-141h-614v141z" />
<glyph unicode="`" horiz-adv-x="1101" d="M319 1427h203l109 -297h-121z" />
<glyph unicode="a" horiz-adv-x="1288" d="M72 516q0 232 151 389q152 158 371 158q133 0 226.5 -50.5t140.5 -133.5v153h151v-801q0 -68 18 -98.5t60 -30.5q17 0 53 4v-114q-43 -17 -96 -17q-65 0 -109 29q-60 48 -69 148q-118 -183 -375 -183q-221 0 -371 156q-151 157 -151 391zM223 516q0 -174 105 -291 q108 -114 266 -114q166 0 274 114q111 117 111 291q0 175 -111 289q-108 117 -274 117q-158 0 -266 -117q-105 -114 -105 -289z" />
<glyph unicode="b" horiz-adv-x="1228" d="M117 0v1427h151v-548q47 83 140.5 133.5t226.5 50.5q219 0 371 -158q151 -157 151 -389q0 -234 -151 -391q-150 -156 -371 -156q-133 0 -226.5 51t-140.5 134v-154h-151zM250 516q0 -174 108 -291q111 -114 277 -114q159 0 264 114q107 116 107 291q0 176 -107 289 q-105 117 -264 117q-166 0 -277 -117q-108 -114 -108 -289z" />
<glyph unicode="c" horiz-adv-x="1058" d="M72 516q0 233 159 389q161 158 390 158q241 0 391 -156l-92 -106q-118 121 -299 121q-171 0 -285 -117q-113 -113 -113 -289q0 -175 113 -291q114 -114 285 -114q182 0 299 120l92 -106q-150 -156 -391 -156q-231 0 -390 156t-159 391z" />
<glyph unicode="d" horiz-adv-x="1288" d="M72 516q0 232 151 389q152 158 371 158q133 0 226.5 -50.5t140.5 -133.5v548h151v-1196q0 -68 18 -98.5t60 -30.5q17 0 53 4v-114q-43 -17 -96 -17q-65 0 -109 29q-60 48 -69 148q-118 -183 -375 -183q-221 0 -371 156q-151 157 -151 391zM223 516q0 -174 105 -291 q108 -114 266 -114q166 0 274 114q111 117 111 291q0 175 -111 289q-108 117 -274 117q-158 0 -266 -117q-105 -114 -105 -289z" />
<glyph unicode="e" horiz-adv-x="1128" d="M72 504v8q0 248 145 399q146 152 371 152q210 0 342 -150q133 -148 133 -364q0 -46 -2 -66h-838q6 -170 106.5 -271t262.5 -101q103 0 174.5 33.5t142.5 109.5l101 -98q-165 -183 -418 -183q-231 0 -377 146q-143 143 -143 385zM233 616h668q0 126 -92 215 q-94 91 -221 91q-139 0 -244 -91q-102 -88 -111 -215z" />
<glyph unicode="f" horiz-adv-x="641" d="M63 891v141h166v86q0 199 101 281q68 59 211 59q49 0 80 -8v-143q-45 10 -97 10q-76 0 -109.5 -41t-33.5 -137v-107h194v-141h-194v-891h-152v891h-166z" />
<glyph unicode="g" horiz-adv-x="1228" d="M72 524q0 231 151 385t371 154q133 0 226.5 -50.5t140.5 -133.5v153h151v-860q0 -197 -31 -315q-27 -115 -133 -199q-139 -109 -348 -109q-269 0 -489 158l77 121q189 -137 410 -137q162 0 256 76q107 88 107 319v86q-47 -83 -140.5 -133.5t-226.5 -50.5q-220 0 -371 151 q-151 154 -151 385zM223 524q0 -168 105 -282q107 -113 266 -113q167 0 274 113q111 114 111 282q0 169 -111 283q-109 115 -274 115q-157 0 -266 -115q-105 -114 -105 -283z" />
<glyph unicode="h" horiz-adv-x="1120" d="M117 0v1427h151v-569q42 88 125 139.5t193 51.5q170 0 270 -106t100 -284v-426q0 -62 15 -85t57 -23q7 0 39 4v-125q-30 -10 -66 -10q-28 0 -51.5 3.5t-51.5 17.5t-47.5 37.5t-32.5 67.5t-13 103v404q0 129 -69 204.5t-187 75.5q-123 0 -202 -81t-79 -210v-616h-151z" />
<glyph unicode="i" horiz-adv-x="434" d="M92 1306.5q0 42.5 31 71.5q31 31 71.5 31t71.5 -31q31 -29 31 -71.5t-31 -73.5q-31 -29 -71.5 -29t-71.5 29q-31 31 -31 73.5zM119 195v837h151v-811q0 -58 18 -83t60 -25q17 0 53 4v-125q-42 -17 -96 -17q-186 0 -186 220z" />
<glyph unicode="j" horiz-adv-x="385" d="M-98 -279q34 -6 71 -6q76 0 110 41.5t34 137.5v1138h151v-1138q0 -320 -311 -320q-23 0 -55 4v143zM90 1302.5q0 42.5 31 71.5q31 31 71.5 31t71.5 -31q31 -29 31 -71.5t-31 -73.5q-31 -29 -71.5 -29t-71.5 29q-31 31 -31 73.5z" />
<glyph unicode="k" horiz-adv-x="954" d="M117 0v1427h151v-905l443 510h174l-391 -452l446 -580h-180l-363 471l-129 -149v-322h-151z" />
<glyph unicode="l" horiz-adv-x="532" d="M119 260v1167h151v-1157q0 -87 29 -123t100 -36q46 0 74 4v-129q-31 -17 -94 -17q-92 0 -168 45q-43 27 -67.5 90.5t-24.5 155.5z" />
<glyph unicode="m" horiz-adv-x="1683" d="M117 0v1032h151v-174q38 88 113.5 139.5t177.5 51.5q221 0 303 -205q91 205 322 205q155 0 245.5 -106t90.5 -284v-426q0 -62 14.5 -85t56.5 -23q7 0 39 4v-125q-27 -10 -65 -10q-28 0 -51.5 3.5t-52 17.5t-47.5 37.5t-32.5 67.5t-13.5 103v404q0 129 -60.5 204.5 t-164.5 75.5q-107 0 -176.5 -81.5t-69.5 -209.5v-616h-152v627q0 131 -60.5 205.5t-168.5 74.5q-107 0 -177.5 -81.5t-70.5 -209.5v-616h-151z" />
<glyph unicode="n" horiz-adv-x="1134" d="M117 0v1032h151v-174q42 88 127.5 139.5t198.5 51.5q173 0 275 -106t102 -284v-426q0 -64 14 -86t57 -22q7 0 39 4v-125q-27 -10 -65 -10q-28 0 -51.5 3.5t-52 17.5t-47.5 37.5t-32.5 67.5t-13.5 103v404q0 129 -70.5 204.5t-193.5 75.5q-127 0 -207 -81t-80 -210v-616 h-151z" />
<glyph unicode="o" d="M72 516q0 233 159 389q161 158 390 158q228 0 389 -158q159 -156 159 -389q0 -235 -159 -391t-389 -156q-231 0 -390 156t-159 391zM223 516q0 -175 113 -291q114 -114 285 -114q170 0 284 114q113 116 113 291q0 176 -113 289q-114 117 -284 117q-171 0 -285 -117 q-113 -113 -113 -289z" />
<glyph unicode="p" horiz-adv-x="1228" d="M117 -395v1427h151v-153q47 83 140.5 133.5t226.5 50.5q219 0 371 -158q151 -157 151 -389q0 -234 -151 -391q-150 -156 -371 -156q-133 0 -226.5 51t-140.5 134v-549h-151zM250 516q0 -174 108 -291q111 -114 277 -114q159 0 264 114q107 116 107 291q0 176 -107 289 q-105 117 -264 117q-166 0 -277 -117q-108 -114 -108 -289z" />
<glyph unicode="q" horiz-adv-x="1228" d="M72 516q0 232 151 389q152 158 371 158q133 0 226.5 -50.5t140.5 -133.5v153h151v-1427h-151v549q-47 -83 -140.5 -134t-226.5 -51q-221 0 -371 156q-151 157 -151 391zM223 516q0 -174 105 -291q108 -114 266 -114q166 0 274 114q111 117 111 291q0 175 -111 289 q-108 117 -274 117q-158 0 -266 -117q-105 -114 -105 -289z" />
<glyph unicode="r" horiz-adv-x="739" d="M117 0v1032h151v-174q42 88 125 139.5t193 51.5q18 0 63 -5v-163q-45 10 -102 10q-122 0 -200.5 -81.5t-78.5 -209.5v-600h-151z" />
<glyph unicode="s" horiz-adv-x="847" d="M37 223l129 49q21 -69 89.5 -112t170.5 -43q118 0 172.5 44.5t54.5 112.5q0 78 -57 117q-51 37 -201 98q-147 58 -213.5 125.5t-66.5 176.5q0 119 87.5 195.5t223.5 76.5q211 0 299 -178l-123 -64q-56 103 -174 103q-73 0 -117.5 -35.5t-44.5 -97.5q0 -60 51 -100 t175 -87q164 -63 238.5 -138.5t74.5 -191.5q0 -129 -100.5 -214t-278.5 -85q-150 0 -254.5 65.5t-134.5 182.5z" />
<glyph unicode="t" horiz-adv-x="630" d="M61 891v141h121v395h152v-395h239v-141h-239v-602q0 -97 33.5 -137.5t109.5 -40.5q55 0 96 6v-131q-39 -17 -114 -17q-277 0 -277 320v602h-121z" />
<glyph unicode="u" horiz-adv-x="1120" d="M104 373v659h152v-626q0 -129 69 -205t187 -76q123 0 202 81t79 210v616h151v-792q0 -68 18 -98.5t60 -30.5q17 0 53 4v-115q-37 -16 -96 -16q-83 0 -127 47q-39 42 -47 102q-98 -149 -330 -149q-170 0 -270.5 106t-100.5 283z" />
<glyph unicode="v" horiz-adv-x="1048" d="M31 1032h159l334 -786l334 786h162l-442 -1032h-105z" />
<glyph unicode="w" horiz-adv-x="1527" d="M31 1032h155l267 -745l258 745h106l256 -745l266 745h158l-373 -1032h-100l-260 752l-260 -752h-101z" />
<glyph unicode="x" horiz-adv-x="1050" d="M51 0l393 549l-360 483h168l272 -366l273 366h168l-359 -481l393 -551h-165l-308 432l-309 -432h-166z" />
<glyph unicode="y" horiz-adv-x="1032" d="M31 1032h151l340 -870l328 870h151l-466 -1208q-43 -113 -101 -174q-78 -78 -201 -78q-59 0 -102 18v140q49 -17 102 -17q51 0 89 23q43 32 81 125l46 116z" />
<glyph unicode="z" horiz-adv-x="1021" d="M57 0v90l633 801h-565v141h780v-100l-629 -791h662v-141h-881z" />
<glyph unicode="{" horiz-adv-x="651" d="M57 467v98q48 3 93 29q81 49 81 182v389q0 115 70 188.5t176 73.5h92v-120h-75q-54 0 -82.5 -40.5t-28.5 -101.5v-366q0 -156 -70 -226q-31 -34 -82 -57q46 -21 82 -57q70 -70 70 -226v-366q0 -61 28.5 -101t82.5 -40h75v-121h-92q-106 0 -176 73.5t-70 188.5v389 q0 133 -81 182q-42 25 -80 29h-13z" />
<glyph unicode="|" horiz-adv-x="507" d="M178 -51v1530h152v-1530h-152z" />
<glyph unicode="}" horiz-adv-x="651" d="M82 -274h76q54 0 82 40t28 101v366q0 156 70 226q31 34 82 57q-51 23 -82 57q-70 70 -70 226v366q0 61 -28 101.5t-82 40.5h-76v120h92q106 0 176 -73.5t70 -188.5v-389q0 -133 82 -182q42 -25 80 -29h12v-98q-47 -3 -92 -29q-82 -49 -82 -182v-389q0 -115 -70 -188.5 t-176 -73.5h-92v121z" />
<glyph unicode="~" horiz-adv-x="856" d="M57 621q11 83 66.5 135.5t138.5 52.5q71 0 174 -41q98 -39 148 -39q87 0 114 84l101 -8q-27 -201 -209 -201q-80 0 -178 39q-100 41 -146 41q-87 0 -108 -72z" />
<glyph unicode="&#xa1;" horiz-adv-x="491" d="M143 944q0 43 31 72q31 31 71.5 31t71.5 -31q31 -29 31 -72t-31 -74q-31 -29 -71.5 -29t-71.5 29q-31 31 -31 74zM150 -412l32 1110h127l33 -1110h-192z" />
<glyph unicode="&#xa2;" horiz-adv-x="1091" d="M78 719q0 137 53.5 249t142.5 175q172 123 355 123h20l33 161h139l-39 -180q146 -35 240 -129l-92 -106q-72 72 -176 96l-164 -793q1 0 7.5 -1t17.5 -2t22 -1q173 0 291 115l94 -109q-154 -145 -397 -145q-28 0 -64 4l-37 -176h-139l45 209q-160 58 -256 195t-96 315z M229 719q0 -126 62 -224.5t168 -146.5l162 776h-3q-169 -3 -278 -118q-111 -114 -111 -287z" />
<glyph unicode="&#xa3;" horiz-adv-x="1200" d="M82 0v137h18q81 0 144.5 19.5t101 49.5t61.5 72t33 82t9 84q0 63 -52 164h-211v148h129q-98 168 -98 282q0 174 123 297t297 123t297 -123t123 -297h-158q0 112 -76 191q-76 82 -184 82q-109 0 -186 -80q-76 -79 -76 -193q0 -96 115 -282h313v-148h-236q39 -88 39 -164 q0 -104 -33.5 -182t-87.5 -115h623v-147h-1028z" />
<glyph unicode="&#xa4;" horiz-adv-x="1320" d="M109 213l178 166q-107 128 -107 303q0 172 107 303l-178 168l104 102l162 -186q131 96 287 96q154 0 288 -96l162 186l105 -102l-181 -166q109 -133 109 -305q0 -170 -109 -303l181 -168l-105 -100l-164 182q-124 -92 -286 -92q-161 0 -289 96l-160 -186zM324 682 q0 -145 98 -246q102 -102 240 -102q137 0 239 102q100 100 100 246t-100 246q-101 104 -239 104t-240 -102q-98 -101 -98 -248z" />
<glyph unicode="&#xa5;" horiz-adv-x="1257" d="M49 1427h176l408 -684l403 684h172l-307 -520h244v-147h-332l-106 -180h438v-148h-434v-432h-160v432h-434v148h438l-109 180h-329v147h243z" />
<glyph unicode="&#xa6;" horiz-adv-x="507" d="M178 0v602h152v-602h-152zM178 850v577h152v-577h-152z" />
<glyph unicode="&#xa7;" horiz-adv-x="1058" d="M63 606q0 201 183 293q-88 88 -88 229q0 146 100 236q101 94 256 94q172 0 264 -108q94 -107 94 -271h-159q0 39 -7.5 74.5t-27 73.5t-61.5 61t-103 23q-83 0 -140 -49t-57 -134q0 -56 27 -100q24 -38 55.5 -60t114.5 -65q249 -129 330 -196q133 -121 133 -281 q0 -201 -182 -293q88 -88 88 -229q0 -146 -103 -238t-254 -92q-165 0 -261.5 104.5t-96.5 274.5h160q0 -30 4 -58t16.5 -61t33 -57t58 -40t86.5 -16q83 0 140 49t57 134q0 89 -70 145q-37 31 -68 50t-96 51q-219 112 -292 176q-134 122 -134 280zM223 606q0 -93 70 -157 q71 -61 246 -156q35 -16 100 -53q178 40 178 186q0 96 -69 156q-65 60 -246 157q-31 14 -101 54q-178 -40 -178 -187z" />
<glyph unicode="&#xa8;" d="M307 1302.5q0 42.5 31 71.5q31 31 71.5 31t71.5 -31q31 -29 31 -71.5t-31 -73.5q-31 -29 -71.5 -29t-71.5 29q-31 31 -31 73.5zM729 1302.5q0 42.5 31 71.5q31 31 71.5 31t71.5 -31q31 -29 31 -71.5t-31 -73.5q-31 -29 -71.5 -29t-71.5 29q-31 31 -31 73.5z" />
<glyph unicode="&#xa9;" horiz-adv-x="1662" d="M86 713q0 305 219 524t526 219q308 0 527 -219t219 -524q0 -308 -219 -527t-527 -219q-307 0 -526 219t-219 527zM176 713q0 -274 193 -467q195 -195 462 -195q268 0 463 195q193 193 193 467q0 272 -193 465q-194 194 -463 194q-268 0 -462 -194q-193 -193 -193 -465z M428 723q0 175 121 293q119 119 295 119q178 0 311 -127l-94 -103q-96 90 -217 90q-114 0 -191 -77q-75 -75 -75 -195t75 -195q77 -77 191 -77q125 0 217 92l94 -109q-125 -125 -311 -125q-176 0 -295 119q-121 121 -121 295z" />
<glyph unicode="&#xaa;" horiz-adv-x="915" d="M96 870q0 106 81.5 170t228.5 68q108 5 146 24.5t38 77.5q0 62 -43.5 89.5t-106.5 27.5q-122 0 -211 -108l-88 73q109 154 299 154q121 0 193 -65t72 -171v-403q0 -49 32 -49h43v-84q-30 -21 -75 -21q-46 0 -68 25q-20 20 -29 55q-76 -88 -243 -88q-120 0 -194.5 61.5 t-74.5 163.5zM213 874q0 -54 43.5 -84t118.5 -30q102 0 158.5 42.5t56.5 115.5v120q-42 -36 -184 -39q-193 -6 -193 -125z" />
<glyph unicode="&#xab;" horiz-adv-x="847" d="M72 518l225 359h160l-226 -359l226 -358h-160zM391 518l225 359h160l-225 -359l225 -358h-160z" />
<glyph unicode="&#xac;" horiz-adv-x="1163" d="M86 782v142h991v-553h-155v411h-836z" />
<glyph unicode="&#xad;" horiz-adv-x="786" d="M86 469v141h614v-141h-614z" />
<glyph unicode="&#xae;" horiz-adv-x="806" d="M72 1133q0 142 94 233q95 92 235 92q141 0 236 -92q98 -91 98 -233q0 -143 -98 -234q-95 -92 -236 -92q-140 0 -235 92q-94 91 -94 234zM137 1133q0 -117 74 -191t190 -74t191.5 74.5t75.5 190.5q0 118 -75.5 193t-191.5 75t-190 -75t-74 -193zM281 952v375h133 q54 0 87.5 -33t33.5 -84q0 -73 -62 -108l90 -150h-82l-82 138h-49v-138h-69zM350 1147h62q23 0 38 17t15 42q0 24 -15 40t-38 16h-62v-115z" />
<glyph unicode="&#xaf;" horiz-adv-x="1269" d="M334 1286v141h602v-141h-602z" />
<glyph unicode="&#xb0;" horiz-adv-x="737" d="M98 1163q0 113 78 191q80 80 193 80t190 -80q80 -77 80 -191q0 -112 -80 -192q-78 -78 -190 -78t-193 78q-78 81 -78 192zM244 1163.5q0 -55.5 37 -96.5q37 -38 88 -38t88 38q37 41 37 96.5t-37 93.5q-37 41 -88 41t-88 -41q-37 -38 -37 -93.5z" />
<glyph unicode="&#xb1;" horiz-adv-x="786" d="M86 0v141h614v-141h-614zM86 641v141h229v254h156v-254h229v-141h-229v-252h-156v252h-229z" />
<glyph unicode="&#xb2;" horiz-adv-x="665" d="M90 672v82l313 362q50 59 50 107q0 44 -33.5 77t-77.5 33q-45 0 -78 -38t-33 -91h-114q0 100 65.5 170t159.5 70t160.5 -64.5t66.5 -156.5q0 -95 -69 -176l-238 -265h326v-110h-498z" />
<glyph unicode="&#xb3;" horiz-adv-x="708" d="M53 842l103 39q43 -113 180 -113q75 0 123.5 42t48.5 108q0 68 -50.5 111.5t-129.5 43.5q-70 0 -107 -16l-41 53l217 209h-272v108h459v-67l-207 -191q41 0 82 -12q72 -26 117 -92t45 -147q0 -115 -80.5 -189t-204.5 -74q-99 0 -175.5 50.5t-107.5 136.5z" />
<glyph unicode="&#xb4;" horiz-adv-x="1101" d="M473 1130l109 297h202l-190 -297h-121z" />
<glyph unicode="&#xb6;" horiz-adv-x="1103" d="M57 987q0 182 129 311t312 129h583v-147h-135v-1280h-160v1280h-151v-1280h-160v547q-175 9 -297 137q-121 127 -121 303z" />
<glyph unicode="&#xb7;" horiz-adv-x="385" d="M90 516q0 43 31 72q31 31 71.5 31t71.5 -31q31 -29 31 -72t-31 -74q-31 -29 -71.5 -29t-71.5 29q-31 31 -31 74z" />
<glyph unicode="&#xb8;" horiz-adv-x="1083" d="M360 -358l39 79q58 -34 111 -34q39 0 64.5 20.5t25.5 52.5q0 48 -34 66t-115 18l65 156h115l-43 -94q58 0 96.5 -40.5t38.5 -105.5q0 -166 -211 -166q-92 0 -152 48z" />
<glyph unicode="&#xb9;" horiz-adv-x="454" d="M82 1319v108h215v-755h-117v647h-98z" />
<glyph unicode="&#xba;" horiz-adv-x="933" d="M68 1049q0 167 116 280q117 117 283 117t283 -117q116 -113 116 -280t-116 -283q-118 -115 -283 -115t-283 115q-116 116 -116 283zM203 1049q0 -111 76 -193q77 -80 188 -80q109 0 186 80q78 84 78 193t-78 190q-76 82 -186 82q-112 0 -188 -82q-76 -79 -76 -190z" />
<glyph unicode="&#xbb;" horiz-adv-x="847" d="M72 160l225 358l-225 359h159l226 -359l-226 -358h-159zM391 160l225 358l-225 359h160l225 -359l-225 -358h-160z" />
<glyph unicode="&#xbc;" horiz-adv-x="1376" d="M123 1319v108h215v-755h-117v647h-98zM160 0l798 1427h152l-799 -1427h-151zM702 150v79l263 527h120l-247 -496h282v152h117v-412h-117v150h-418z" />
<glyph unicode="&#xbd;" horiz-adv-x="1441" d="M123 1319v108h215v-755h-117v647h-98zM160 0l798 1427h152l-799 -1427h-151zM825 0v82l314 362q49 58 49 107q0 44 -33.5 77.5t-77.5 33.5q-45 0 -77.5 -38t-32.5 -92h-115q0 100 65.5 170t159.5 70t161 -64.5t67 -156.5q0 -94 -70 -176l-238 -264h326v-111h-498z" />
<glyph unicode="&#xbe;" horiz-adv-x="1576" d="M74 842l102 39q43 -113 180 -113q75 0 123.5 42t48.5 108q0 68 -50.5 111.5t-129.5 43.5q-69 0 -106 -16l-41 53l217 209h-273v108h459v-67l-207 -191q42 0 82 -12q72 -26 117 -92t45 -147q0 -115 -80.5 -189t-204.5 -74q-99 0 -175 50.5t-107 136.5zM360 0l799 1427h152 l-799 -1427h-152zM903 150v79l262 527h121l-248 -496h283v152h117v-412h-117v150h-418z" />
<glyph unicode="&#xbf;" horiz-adv-x="811" d="M72 -147q0 81 15 134t60 101q50 57 80 80l127 98q131 94 131 178q0 105 -114 105q-82 0 -146 -37v158q59 26 146 26q125 0 199.5 -68.5t74.5 -183.5q0 -150 -182 -282l-103 -74q-27 -21 -67 -61q-36 -37 -49 -74.5t-13 -93.5q0 -10 1.5 -22.5t12 -38t29 -44.5t56.5 -34 t90 -15q152 0 291 133v-180q-124 -100 -291 -100q-95 0 -168 29.5t-111 80.5q-69 89 -69 185zM315 944q0 43 31 72q31 31 71.5 31t71.5 -31q31 -29 31 -72t-31 -74q-31 -29 -71.5 -29t-71.5 29q-31 31 -31 74z" />
<glyph unicode="&#xc0;" horiz-adv-x="1474" d="M72 0l604 1427h123l604 -1427h-172l-148 352h-692l-147 -352h-172zM453 500h569l-285 680zM500 1823h202l109 -297h-121z" />
<glyph unicode="&#xc1;" horiz-adv-x="1474" d="M72 0l604 1427h123l604 -1427h-172l-148 352h-692l-147 -352h-172zM453 500h569l-285 680zM657 1526l109 297h203l-191 -297h-121z" />
<glyph unicode="&#xc2;" horiz-adv-x="1474" d="M72 0l604 1427h123l604 -1427h-172l-148 352h-692l-147 -352h-172zM416 1575l258 248h127l258 -248h-187l-135 135l-135 -135h-186zM453 500h569l-285 680z" />
<glyph unicode="&#xc3;" horiz-adv-x="1474" d="M72 0l604 1427h123l604 -1427h-172l-148 352h-692l-147 -352h-172zM436 1561q11 83 61 135.5t124 52.5q55 0 129 -41q74 -39 110 -39q73 0 94 84l101 -8q-21 -201 -189 -201q-59 0 -133 39q-74 41 -108 41q-73 0 -88 -72zM453 500h569l-285 680z" />
<glyph unicode="&#xc4;" horiz-adv-x="1474" d="M72 0l604 1427h123l604 -1427h-172l-148 352h-692l-147 -352h-172zM424 1626q0 43 31 72q31 31 71.5 31t71.5 -31q31 -29 31 -72t-31 -74q-31 -29 -71.5 -29t-71.5 29q-31 31 -31 74zM453 500h569l-285 680zM846 1626q0 43 31 72q31 31 71.5 31t71.5 -31q31 -29 31 -72 t-31 -74q-31 -29 -71.5 -29t-71.5 29q-31 31 -31 74z" />
<glyph unicode="&#xc5;" horiz-adv-x="1435" d="M72 0l594 1362q-64 17 -106 71t-42 121q0 82 59.5 140.5t141.5 58.5t140.5 -58.5t58.5 -140.5q0 -69 -42 -123t-108 -71l596 -1360h-174l-154 352h-643l-153 -352h-168zM457 500h516l-258 606zM622 1555q0 -39 29 -68t68 -29t65 29q29 29 29 68t-29 65q-26 29 -65 29 t-68 -29q-29 -26 -29 -65z" />
<glyph unicode="&#xc6;" horiz-adv-x="1822" d="M-33 0l1094 1427h635v-147h-516v-453h477v-147h-477v-533h530v-147h-690v352h-582l-270 -352h-201zM551 500h469v624z" />
<glyph unicode="&#xc7;" horiz-adv-x="1456" d="M96 713q0 316 215 528q219 213 529 213q330 0 544 -242l-108 -98q-166 193 -436 193q-251 0 -418 -170q-166 -169 -166 -424q0 -257 166 -426q165 -168 418 -168q275 0 442 200l109 -98q-215 -250 -551 -250q-42 0 -54 2l-30 -67q58 0 96.5 -40.5t38.5 -105.5 q0 -166 -211 -166q-92 0 -152 48l39 79q58 -34 111 -34q39 0 64.5 20.5t25.5 52.5q0 48 -34.5 66t-115.5 18l60 144q-254 52 -418 252t-164 473z" />
<glyph unicode="&#xc8;" horiz-adv-x="1124" d="M188 0v1427h807v-147h-647v-453h608v-147h-608v-533h662v-147h-822zM377 1823h203l108 -297h-121z" />
<glyph unicode="&#xc9;" horiz-adv-x="1124" d="M188 0v1427h807v-147h-647v-453h608v-147h-608v-533h662v-147h-822zM510 1526l108 297h203l-190 -297h-121z" />
<glyph unicode="&#xca;" horiz-adv-x="1124" d="M188 0v1427h807v-147h-647v-453h608v-147h-608v-533h662v-147h-822zM272 1575l258 248h127l258 -248h-186l-135 135l-135 -135h-187z" />
<glyph unicode="&#xcb;" horiz-adv-x="1124" d="M188 0v1427h807v-147h-647v-453h608v-147h-608v-533h662v-147h-822zM280 1665q0 43 31 72q31 31 72 31t72 -31q31 -29 31 -72t-31 -74q-31 -29 -72 -29t-72 29q-31 31 -31 74zM702 1665q0 43 31 72q31 31 72 31t72 -31q31 -29 31 -72t-31 -74q-31 -29 -72 -29t-72 29 q-31 31 -31 74z" />
<glyph unicode="&#xcc;" horiz-adv-x="552" d="M27 1823h202l109 -297h-121zM197 0v1427h159v-1427h-159z" />
<glyph unicode="&#xcd;" horiz-adv-x="552" d="M197 0v1427h159v-1427h-159zM213 1526l109 297h202l-190 -297h-121z" />
<glyph unicode="&#xce;" horiz-adv-x="552" d="M-45 1575l258 248h127l258 -248h-186l-136 135l-135 -135h-186zM197 0v1427h159v-1427h-159z" />
<glyph unicode="&#xcf;" horiz-adv-x="552" d="M-17 1665q0 43 31 72q31 31 72 31t72 -31q31 -29 31 -72t-31 -74q-31 -29 -72 -29t-72 29q-31 31 -31 74zM197 0v1427h159v-1427h-159zM364 1665q0 43 31 72q31 31 72 31t72 -31q31 -29 31 -72t-31 -74q-31 -29 -72 -29t-72 29q-31 31 -31 74z" />
<glyph unicode="&#xd0;" horiz-adv-x="1478" d="M55 659v148h133v620h459q343 0 539 -196q198 -195 198 -518q0 -322 -196 -518q-198 -195 -539 -195h-461v659h-133zM348 147h289q284 0 436 151.5t152 414.5q0 264 -152.5 415.5t-437.5 151.5h-287v-473h297v-148h-297v-512z" />
<glyph unicode="&#xd1;" horiz-adv-x="1538" d="M188 0v1427h140l862 -1142v1142h160v-1427h-129l-873 1155v-1155h-160zM459 1561q11 83 60.5 135.5t123.5 52.5q55 0 129 -41q74 -39 111 -39q73 0 94 84l100 -8q-21 -201 -188 -201q-59 0 -133 39q-74 41 -109 41q-73 0 -88 -72z" />
<glyph unicode="&#xd2;" horiz-adv-x="1679" d="M96 713q0 316 215 528q219 213 529 213t526 -213q217 -211 217 -528q0 -320 -217 -531q-214 -211 -526 -211t-529 211q-215 212 -215 531zM254 713q0 -257 166 -426q168 -168 420 -168t417 168q166 169 166 426q0 255 -166 424q-167 170 -417 170t-420 -170 q-166 -169 -166 -424zM598 1823h203l108 -297h-121z" />
<glyph unicode="&#xd3;" horiz-adv-x="1679" d="M96 713q0 316 215 528q219 213 529 213t526 -213q217 -211 217 -528q0 -320 -217 -531q-214 -211 -526 -211t-529 211q-215 212 -215 531zM254 713q0 -257 166 -426q168 -168 420 -168t417 168q166 169 166 426q0 255 -166 424q-167 170 -417 170t-420 -170 q-166 -169 -166 -424zM750 1526l108 297h203l-191 -297h-120z" />
<glyph unicode="&#xd4;" horiz-adv-x="1679" d="M96 713q0 316 215 528q219 213 529 213t526 -213q217 -211 217 -528q0 -320 -217 -531q-214 -211 -526 -211t-529 211q-215 212 -215 531zM254 713q0 -257 166 -426q168 -168 420 -168t417 168q166 169 166 426q0 255 -166 424q-167 170 -417 170t-420 -170 q-166 -169 -166 -424zM518 1575l258 248h127l258 -248h-186l-135 135l-135 -135h-187z" />
<glyph unicode="&#xd5;" horiz-adv-x="1679" d="M96 713q0 316 215 528q219 213 529 213t526 -213q217 -211 217 -528q0 -320 -217 -531q-214 -211 -526 -211t-529 211q-215 212 -215 531zM254 713q0 -257 166 -426q168 -168 420 -168t417 168q166 169 166 426q0 255 -166 424q-167 170 -417 170t-420 -170 q-166 -169 -166 -424zM530 1561q11 83 61 135.5t124 52.5q55 0 129 -41q74 -39 110 -39q74 0 95 84l100 -8q-21 -201 -188 -201q-60 0 -134 39q-74 41 -108 41q-73 0 -88 -72z" />
<glyph unicode="&#xd6;" horiz-adv-x="1679" d="M96 713q0 316 215 528q219 213 529 213t526 -213q217 -211 217 -528q0 -320 -217 -531q-214 -211 -526 -211t-529 211q-215 212 -215 531zM254 713q0 -257 166 -426q168 -168 420 -168t417 168q166 169 166 426q0 255 -166 424q-167 170 -417 170t-420 -170 q-166 -169 -166 -424zM526 1626q0 43 31 72q31 31 71.5 31t71.5 -31q31 -29 31 -72t-31 -74q-31 -29 -71.5 -29t-71.5 29q-31 31 -31 74zM948 1626q0 43 31 72q31 31 71.5 31t71.5 -31q31 -29 31 -72t-31 -74q-31 -29 -71.5 -29t-71.5 29q-31 31 -31 74z" />
<glyph unicode="&#xd7;" horiz-adv-x="786" d="M78 461l221 221l-221 221l92 94l223 -223l221 223l95 -94l-222 -221l222 -221l-95 -96l-221 223l-223 -223z" />
<glyph unicode="&#xd8;" horiz-adv-x="1679" d="M96 713q0 316 215 528q219 213 529 213q216 0 397 -111l119 160l117 -88l-119 -160q229 -216 229 -542q0 -320 -217 -531q-214 -211 -526 -211q-195 0 -375 97l-115 -154l-117 86l113 152q-250 218 -250 561zM254 713q0 -271 182 -441l713 951q-141 84 -309 84 q-250 0 -420 -170q-166 -169 -166 -424zM555 188q126 -69 285 -69q252 0 417 168q166 169 166 426q0 253 -161 420z" />
<glyph unicode="&#xd9;" horiz-adv-x="1425" d="M178 500v927h160v-911q0 -189 99.5 -291t275.5 -102t275 101.5t99 291.5v911h160v-927q0 -251 -147 -389q-148 -136 -387 -136t-387 136q-148 139 -148 389zM475 1823h203l108 -297h-120z" />
<glyph unicode="&#xda;" horiz-adv-x="1425" d="M178 500v927h160v-911q0 -189 99.5 -291t275.5 -102t275 101.5t99 291.5v911h160v-927q0 -251 -147 -389q-148 -136 -387 -136t-387 136q-148 139 -148 389zM645 1526l109 297h202l-190 -297h-121z" />
<glyph unicode="&#xdb;" horiz-adv-x="1425" d="M178 500v927h160v-911q0 -189 99.5 -291t275.5 -102t275 101.5t99 291.5v911h160v-927q0 -251 -147 -389q-148 -136 -387 -136t-387 136q-148 139 -148 389zM391 1575l258 248h127l258 -248h-186l-135 135l-135 -135h-187z" />
<glyph unicode="&#xdc;" horiz-adv-x="1425" d="M178 500v927h160v-911q0 -189 99.5 -291t275.5 -102t275 101.5t99 291.5v911h160v-927q0 -251 -147 -389q-148 -136 -387 -136t-387 136q-148 139 -148 389zM399 1626q0 43 31 72q31 31 71.5 31t71.5 -31q31 -29 31 -72t-31 -74q-31 -29 -71.5 -29t-71.5 29 q-31 31 -31 74zM821 1626q0 43 31 72q31 31 71.5 31t71.5 -31q31 -29 31 -72t-31 -74q-31 -29 -71.5 -29t-71.5 29q-31 31 -31 74z" />
<glyph unicode="&#xdd;" horiz-adv-x="1273" d="M57 1427h176l408 -684l403 684h173l-498 -841v-586h-160v586zM571 1526l109 297h203l-191 -297h-121z" />
<glyph unicode="&#xde;" horiz-adv-x="1003" d="M188 0v1427h160v-305h133q206 0 322.5 -115.5t116.5 -304.5q0 -183 -112.5 -294t-311.5 -111h-148v-297h-160zM348 446h133q134 0 206.5 69.5t72.5 193.5q0 125 -72.5 194.5t-208.5 69.5h-131v-527z" />
<glyph unicode="&#xdf;" horiz-adv-x="1126" d="M115 0v1106q0 150 100 250q102 102 252 102q146 0 248 -102t102 -248q0 -133 -92 -225q129 -23 236 -140q104 -113 104 -297q0 -202 -141 -340q-137 -137 -355 -137q-33 0 -104 11v155q49 -18 104 -18q137 0 238 96q98 94 98 233q0 136 -98 230q-101 96 -238 96 q-55 0 -104 -18v143q192 37 192 209q0 85 -56 145t-134 60q-82 0 -137.5 -59.5t-55.5 -145.5v-1106h-159z" />
<glyph unicode="&#xe0;" horiz-adv-x="1288" d="M72 516q0 232 151 389q152 158 371 158q133 0 226.5 -50.5t140.5 -133.5v153h151v-801q0 -68 18 -98.5t60 -30.5q17 0 53 4v-114q-43 -17 -96 -17q-65 0 -109 29q-60 48 -69 148q-118 -183 -375 -183q-221 0 -371 156q-151 157 -151 391zM223 516q0 -174 105 -291 q108 -114 266 -114q166 0 274 114q111 117 111 291q0 175 -111 289q-108 117 -274 117q-158 0 -266 -117q-105 -114 -105 -289zM354 1427h203l109 -297h-121z" />
<glyph unicode="&#xe1;" horiz-adv-x="1288" d="M72 516q0 232 151 389q152 158 371 158q133 0 226.5 -50.5t140.5 -133.5v153h151v-801q0 -68 18 -98.5t60 -30.5q17 0 53 4v-114q-43 -17 -96 -17q-65 0 -109 29q-60 48 -69 148q-118 -183 -375 -183q-221 0 -371 156q-151 157 -151 391zM223 516q0 -174 105 -291 q108 -114 266 -114q166 0 274 114q111 117 111 291q0 175 -111 289q-108 117 -274 117q-158 0 -266 -117q-105 -114 -105 -289zM535 1130l108 297h203l-191 -297h-120z" />
<glyph unicode="&#xe2;" horiz-adv-x="1288" d="M72 516q0 232 151 389q152 158 371 158q133 0 226.5 -50.5t140.5 -133.5v153h151v-801q0 -68 18 -98.5t60 -30.5q17 0 53 4v-114q-43 -17 -96 -17q-65 0 -109 29q-60 48 -69 148q-118 -183 -375 -183q-221 0 -371 156q-151 157 -151 391zM223 516q0 -174 105 -291 q108 -114 266 -114q166 0 274 114q111 117 111 291q0 175 -111 289q-108 117 -274 117q-158 0 -266 -117q-105 -114 -105 -289zM307 1180l258 247h127l258 -247h-186l-135 135l-135 -135h-187z" />
<glyph unicode="&#xe3;" horiz-adv-x="1288" d="M72 516q0 232 151 389q152 158 371 158q133 0 226.5 -50.5t140.5 -133.5v153h151v-801q0 -68 18 -98.5t60 -30.5q17 0 53 4v-114q-43 -17 -96 -17q-65 0 -109 29q-60 48 -69 148q-118 -183 -375 -183q-221 0 -371 156q-151 157 -151 391zM223 516q0 -174 105 -291 q108 -114 266 -114q166 0 274 114q111 117 111 291q0 175 -111 289q-108 117 -274 117q-158 0 -266 -117q-105 -114 -105 -289zM313 1225q11 83 61 135.5t124 52.5q55 0 129 -41q74 -39 110 -39q73 0 94 84l101 -8q-21 -201 -189 -201q-59 0 -133 39q-74 41 -108 41 q-73 0 -88 -71z" />
<glyph unicode="&#xe4;" horiz-adv-x="1288" d="M72 516q0 232 151 389q152 158 371 158q133 0 226.5 -50.5t140.5 -133.5v153h151v-801q0 -68 18 -98.5t60 -30.5q17 0 53 4v-114q-43 -17 -96 -17q-65 0 -109 29q-60 48 -69 148q-118 -183 -375 -183q-221 0 -371 156q-151 157 -151 391zM223 516q0 -174 105 -291 q108 -114 266 -114q166 0 274 114q111 117 111 291q0 175 -111 289q-108 117 -274 117q-158 0 -266 -117q-105 -114 -105 -289zM305 1302.5q0 42.5 31 71.5q31 31 71.5 31t71.5 -31q31 -29 31 -71.5t-31 -73.5q-31 -29 -71.5 -29t-71.5 29q-31 31 -31 73.5zM727 1302.5 q0 42.5 31 71.5q31 31 71.5 31t71.5 -31q31 -29 31 -71.5t-31 -73.5q-31 -29 -71.5 -29t-71.5 29q-31 31 -31 73.5z" />
<glyph unicode="&#xe5;" horiz-adv-x="1288" d="M72 516q0 232 151 389q152 158 371 158q133 0 226.5 -50.5t140.5 -133.5v153h151v-801q0 -68 18 -98.5t60 -30.5q17 0 53 4v-114q-43 -17 -96 -17q-65 0 -109 29q-60 48 -69 148q-118 -183 -375 -183q-221 0 -371 156q-151 157 -151 391zM223 516q0 -174 105 -291 q108 -114 266 -114q166 0 274 114q111 117 111 291q0 175 -111 289q-108 117 -274 117q-158 0 -266 -117q-105 -114 -105 -289zM427.5 1378q9.5 61 55.5 101q41 47 102.5 56.5t114.5 -13t90 -72.5t33 -111q0 -84 -58 -142t-140 -58q-63 -4 -113 33.5t-72 91t-12.5 114.5z M528 1340q0 -39 29 -68t68 -29t65 29q29 29 29 68t-29 65q-26 29 -65 29t-68 -29q-29 -26 -29 -65z" />
<glyph unicode="&#xe6;" horiz-adv-x="2045" d="M72 516q0 232 151 389q152 158 371 158q133 0 226.5 -50.5t140.5 -133.5v153h151v-184q52 93 157.5 154t221.5 61q201 0 344 -158q141 -156 141 -389q0 -23 -2 -33h-837q6 -171 102.5 -271.5t255.5 -100.5q105 0 175 32t153 111l100 -98q-169 -187 -428 -187 q-128 0 -228 51t-155 140v-160h-151v154q-47 -83 -140.5 -134t-226.5 -51q-221 0 -371 156q-151 157 -151 391zM223 516q0 -174 105 -291q108 -114 266 -114q166 0 274 114q111 117 111 291q0 175 -111 289q-108 117 -274 117q-158 0 -266 -117q-105 -114 -105 -289z M1147 616h668q-25 136 -114 221t-210 85q-128 0 -223 -85t-121 -221z" />
<glyph unicode="&#xe7;" horiz-adv-x="1058" d="M72 516q0 233 159 389q161 158 390 158q241 0 391 -156l-92 -106q-118 121 -299 121q-171 0 -285 -117q-113 -113 -113 -289q0 -175 113 -291q114 -114 285 -114q182 0 299 120l92 -106q-150 -156 -391 -156h-19l-29 -63q58 0 97 -40.5t39 -105.5q0 -166 -211 -166 q-92 0 -152 48l39 79q58 -34 111 -34q39 0 64.5 20.5t25.5 52.5q0 48 -34.5 66t-115.5 18l58 140q-182 40 -304 186q-118 145 -118 346z" />
<glyph unicode="&#xe8;" horiz-adv-x="1128" d="M72 504v8q0 248 145 399q146 152 371 152q210 0 342 -150q133 -148 133 -364q0 -46 -2 -66h-838q6 -170 106.5 -271t262.5 -101q103 0 174.5 33.5t142.5 109.5l101 -98q-165 -183 -418 -183q-231 0 -377 146q-143 143 -143 385zM233 616h668q0 126 -92 215 q-94 91 -221 91q-139 0 -244 -91q-102 -88 -111 -215zM367 1427h202l109 -297h-121z" />
<glyph unicode="&#xe9;" horiz-adv-x="1128" d="M72 504v8q0 248 145 399q146 152 371 152q210 0 342 -150q133 -148 133 -364q0 -46 -2 -66h-838q6 -170 106.5 -271t262.5 -101q103 0 174.5 33.5t142.5 109.5l101 -98q-165 -183 -418 -183q-231 0 -377 146q-143 143 -143 385zM233 616h668q0 126 -92 215 q-94 91 -221 91q-139 0 -244 -91q-102 -88 -111 -215zM528 1130l109 297h203l-191 -297h-121z" />
<glyph unicode="&#xea;" horiz-adv-x="1128" d="M72 504v8q0 248 145 399q146 152 371 152q210 0 342 -150q133 -148 133 -364q0 -46 -2 -66h-838q6 -170 106.5 -271t262.5 -101q103 0 174.5 33.5t142.5 109.5l101 -98q-165 -183 -418 -183q-231 0 -377 146q-143 143 -143 385zM233 616h668q0 126 -92 215 q-94 91 -221 91q-139 0 -244 -91q-102 -88 -111 -215zM270 1180l258 247h127l258 -247h-186l-135 135l-135 -135h-187z" />
<glyph unicode="&#xeb;" horiz-adv-x="1128" d="M72 504v8q0 248 145 399q146 152 371 152q210 0 342 -150q133 -148 133 -364q0 -46 -2 -66h-838q6 -170 106.5 -271t262.5 -101q103 0 174.5 33.5t142.5 109.5l101 -98q-165 -183 -418 -183q-231 0 -377 146q-143 143 -143 385zM233 616h668q0 126 -92 215 q-94 91 -221 91q-139 0 -244 -91q-102 -88 -111 -215zM276 1302.5q0 42.5 31 71.5q31 31 72 31t72 -31q31 -29 31 -71.5t-31 -73.5q-31 -29 -72 -29t-72 29q-31 31 -31 73.5zM698 1302.5q0 42.5 31 71.5q31 31 71.5 31t71.5 -31q31 -29 31 -71.5t-31 -73.5 q-31 -29 -71.5 -29t-71.5 29q-31 31 -31 73.5z" />
<glyph unicode="&#xec;" horiz-adv-x="434" d="M-43 1427h203l108 -297h-121zM119 195v837h151v-811q0 -58 18 -83t60 -25q17 0 53 4v-125q-42 -17 -96 -17q-186 0 -186 220z" />
<glyph unicode="&#xed;" horiz-adv-x="434" d="M119 195v837h151v-811q0 -58 18 -83t60 -25q17 0 53 4v-125q-42 -17 -96 -17q-186 0 -186 220zM123 1130l108 297h203l-190 -297h-121z" />
<glyph unicode="&#xee;" horiz-adv-x="434" d="M-76 1180l207 247h127l207 -247h-176l-94 147l-95 -147h-176zM119 195v837h151v-811q0 -58 18 -83t60 -25q17 0 53 4v-125q-42 -17 -96 -17q-186 0 -186 220z" />
<glyph unicode="&#xef;" horiz-adv-x="434" d="M-56 1302.5q0 42.5 31 71.5q31 31 72 31t72 -31q31 -29 31 -71.5t-31 -73.5q-31 -29 -72 -29t-72 29q-31 31 -31 73.5zM119 195v837h151v-811q0 -58 18 -83t60 -25q17 0 53 4v-125q-42 -17 -96 -17q-186 0 -186 220zM239 1302.5q0 42.5 31 71.5q31 31 72 31t72 -31 q31 -29 31 -71.5t-31 -73.5q-31 -29 -72 -29t-72 29q-31 31 -31 73.5z" />
<glyph unicode="&#xf0;" horiz-adv-x="1097" d="M72 444q0 200 135 338q138 138 321 138q99 0 186 -39t134 -105q-31 98 -106 197t-162 166l-160 -152l-98 105l137 131q-129 74 -244 94l29 143q152 -26 327 -131l174 164l99 -104l-154 -146q260 -216 318 -536q18 -108 18 -207q0 -240 -127 -385q-128 -146 -350 -146 q-202 0 -340 135q-137 134 -137 340zM231 444q0 -136 91 -233q88 -94 227 -94t227 94q90 96 90 233q0 138 -90 234q-88 94 -227 94t-227 -94q-91 -97 -91 -234z" />
<glyph unicode="&#xf1;" horiz-adv-x="1134" d="M117 0v1032h151v-174q42 88 127.5 139.5t198.5 51.5q173 0 275 -106t102 -284v-426q0 -64 14 -86t57 -22q7 0 39 4v-125q-27 -10 -65 -10q-28 0 -51.5 3.5t-52 17.5t-47.5 37.5t-32.5 67.5t-13.5 103v404q0 129 -70.5 204.5t-193.5 75.5q-127 0 -207 -81t-80 -210v-616 h-151zM262 1225q11 83 60.5 135.5t123.5 52.5q55 0 129 -41q74 -39 111 -39q73 0 94 84l101 -8q-21 -201 -189 -201q-59 0 -133 39q-74 41 -108 41q-74 0 -89 -71z" />
<glyph unicode="&#xf2;" d="M72 516q0 233 159 389q161 158 390 158q228 0 389 -158q159 -156 159 -389q0 -235 -159 -391t-389 -156q-231 0 -390 156t-159 391zM223 516q0 -175 113 -291q114 -114 285 -114q170 0 284 114q113 116 113 291q0 176 -113 289q-114 117 -284 117q-171 0 -285 -117 q-113 -113 -113 -289zM367 1427h202l109 -297h-121z" />
<glyph unicode="&#xf3;" d="M72 516q0 233 159 389q161 158 390 158q228 0 389 -158q159 -156 159 -389q0 -235 -159 -391t-389 -156q-231 0 -390 156t-159 391zM223 516q0 -175 113 -291q114 -114 285 -114q170 0 284 114q113 116 113 291q0 176 -113 289q-114 117 -284 117q-171 0 -285 -117 q-113 -113 -113 -289zM563 1130l109 297h202l-190 -297h-121z" />
<glyph unicode="&#xf4;" d="M72 516q0 233 159 389q161 158 390 158q228 0 389 -158q159 -156 159 -389q0 -235 -159 -391t-389 -156q-231 0 -390 156t-159 391zM223 516q0 -175 113 -291q114 -114 285 -114q170 0 284 114q113 116 113 291q0 176 -113 289q-114 117 -284 117q-171 0 -285 -117 q-113 -113 -113 -289zM299 1180l258 247h127l258 -247h-186l-135 135l-136 -135h-186z" />
<glyph unicode="&#xf5;" d="M72 516q0 233 159 389q161 158 390 158q228 0 389 -158q159 -156 159 -389q0 -235 -159 -391t-389 -156q-231 0 -390 156t-159 391zM223 516q0 -175 113 -291q114 -114 285 -114q170 0 284 114q113 116 113 291q0 176 -113 289q-114 117 -284 117q-171 0 -285 -117 q-113 -113 -113 -289zM309 1225q11 83 61 135.5t124 52.5q55 0 129 -41q74 -39 110 -39q73 0 94 84l101 -8q-21 -201 -189 -201q-59 0 -133 39q-74 41 -108 41q-73 0 -88 -71z" />
<glyph unicode="&#xf6;" d="M72 516q0 233 159 389q161 158 390 158q228 0 389 -158q159 -156 159 -389q0 -235 -159 -391t-389 -156q-231 0 -390 156t-159 391zM223 516q0 -175 113 -291q114 -114 285 -114q170 0 284 114q113 116 113 291q0 176 -113 289q-114 117 -284 117q-171 0 -285 -117 q-113 -113 -113 -289zM307 1302.5q0 42.5 31 71.5q31 31 71.5 31t71.5 -31q31 -29 31 -71.5t-31 -73.5q-31 -29 -71.5 -29t-71.5 29q-31 31 -31 73.5zM729 1302.5q0 42.5 31 71.5q31 31 71.5 31t71.5 -31q31 -29 31 -71.5t-31 -73.5q-31 -29 -71.5 -29t-71.5 29 q-31 31 -31 73.5z" />
<glyph unicode="&#xf7;" horiz-adv-x="872" d="M86 641v141h700v-141h-700zM334 428q0 43 31 72q31 31 71.5 31t71.5 -31q31 -29 31 -72t-31 -74q-31 -29 -71.5 -29t-71.5 29q-31 31 -31 74zM334 995.5q0 42.5 31 71.5q31 31 71.5 31t71.5 -31q31 -29 31 -71.5t-31 -73.5q-31 -29 -71.5 -29t-71.5 29q-31 31 -31 73.5z " />
<glyph unicode="&#xf8;" d="M72 516q0 233 159 389q161 158 390 158q143 0 270 -68l76 105l110 -80l-78 -102q170 -159 170 -402q0 -235 -159 -391t-389 -156q-138 0 -267 66l-84 -115l-108 82l82 111q-172 159 -172 403zM223 516q0 -170 109 -285l473 648q-85 43 -184 43q-171 0 -285 -117 q-113 -113 -113 -289zM440 152q84 -41 181 -41q170 0 284 114q113 116 113 291q0 167 -105 281z" />
<glyph unicode="&#xf9;" horiz-adv-x="1120" d="M104 373v659h152v-626q0 -129 69 -205t187 -76q123 0 202 81t79 210v616h151v-792q0 -68 18 -98.5t60 -30.5q17 0 53 4v-115q-37 -16 -96 -16q-83 0 -127 47q-39 42 -47 102q-98 -149 -330 -149q-170 0 -270.5 106t-100.5 283zM295 1427h203l108 -297h-121z" />
<glyph unicode="&#xfa;" horiz-adv-x="1120" d="M104 373v659h152v-626q0 -129 69 -205t187 -76q123 0 202 81t79 210v616h151v-792q0 -68 18 -98.5t60 -30.5q17 0 53 4v-115q-37 -16 -96 -16q-83 0 -127 47q-39 42 -47 102q-98 -149 -330 -149q-170 0 -270.5 106t-100.5 283zM467 1130l108 297h203l-190 -297h-121z" />
<glyph unicode="&#xfb;" horiz-adv-x="1120" d="M104 373v659h152v-626q0 -129 69 -205t187 -76q123 0 202 81t79 210v616h151v-792q0 -68 18 -98.5t60 -30.5q17 0 53 4v-115q-37 -16 -96 -16q-83 0 -127 47q-39 42 -47 102q-98 -149 -330 -149q-170 0 -270.5 106t-100.5 283zM217 1180l258 247h127l258 -247h-186 l-135 135l-136 -135h-186z" />
<glyph unicode="&#xfc;" horiz-adv-x="1120" d="M104 373v659h152v-626q0 -129 69 -205t187 -76q123 0 202 81t79 210v616h151v-792q0 -68 18 -98.5t60 -30.5q17 0 53 4v-115q-37 -16 -96 -16q-83 0 -127 47q-39 42 -47 102q-98 -149 -330 -149q-170 0 -270.5 106t-100.5 283zM225 1302.5q0 42.5 31 71.5q31 31 71.5 31 t71.5 -31q31 -29 31 -71.5t-31 -73.5q-31 -29 -71.5 -29t-71.5 29q-31 31 -31 73.5zM647 1302.5q0 42.5 31 71.5q31 31 71.5 31t71.5 -31q31 -29 31 -71.5t-31 -73.5q-31 -29 -71.5 -29t-71.5 29q-31 31 -31 73.5z" />
<glyph unicode="&#xfd;" horiz-adv-x="1028" d="M31 1032h151l340 -870l328 870h151l-466 -1208q-43 -113 -101 -174q-78 -78 -201 -78q-59 0 -102 18v140q49 -17 102 -17q51 0 89 23q43 32 81 125l46 116zM457 1130l108 297h203l-190 -297h-121z" />
<glyph unicode="&#xfe;" horiz-adv-x="1228" d="M117 -395v1822h151v-548q47 83 140.5 133.5t226.5 50.5q219 0 371 -158q151 -157 151 -389q0 -234 -151 -391q-150 -156 -371 -156q-133 0 -226.5 51t-140.5 134v-549h-151zM250 516q0 -174 108 -291q111 -114 277 -114q159 0 264 114q107 116 107 291q0 176 -107 289 q-105 117 -264 117q-166 0 -277 -117q-108 -114 -108 -289z" />
<glyph unicode="&#xff;" horiz-adv-x="1028" d="M31 1032h151l340 -870l328 870h151l-466 -1208q-43 -113 -101 -174q-78 -78 -201 -78q-59 0 -102 18v140q49 -17 102 -17q51 0 89 23q43 32 81 125l46 116zM215 1302.5q0 42.5 31 71.5q31 31 71.5 31t71.5 -31q31 -29 31 -71.5t-31 -73.5q-31 -29 -71.5 -29t-71.5 29 q-31 31 -31 73.5zM637 1302.5q0 42.5 31 71.5q31 31 71.5 31t71.5 -31q31 -29 31 -71.5t-31 -73.5q-31 -29 -71.5 -29t-71.5 29q-31 31 -31 73.5z" />
<glyph unicode="&#x152;" horiz-adv-x="2220" d="M96 713q0 316 215 528q219 213 529 213q382 0 575 -301v274h676v-147h-516v-453h477v-147h-477v-533h530v-147h-690v281q-187 -310 -575 -310q-312 0 -529 211q-215 212 -215 531zM254 713q0 -257 166 -426q168 -168 420 -168t417 168q166 169 166 426q0 255 -166 424 q-167 170 -417 170t-420 -170q-166 -169 -166 -424z" />
<glyph unicode="&#x153;" horiz-adv-x="2082" d="M72 516q0 233 159 389q161 158 390 158q151 0 273.5 -71.5t192.5 -196.5q68 125 184.5 196.5t256.5 71.5q212 0 364 -158t152 -389q0 -23 -2 -33h-879q6 -168 107.5 -265t271.5 -97q229 0 354 137l103 -111q-178 -178 -457 -178q-328 0 -459 260q-69 -124 -189.5 -192 t-272.5 -68q-231 0 -390 156t-159 391zM223 516q0 -175 113 -291q114 -114 285 -114q170 0 284 114q113 116 113 291q0 176 -113 289q-114 117 -284 117q-171 0 -285 -117q-113 -113 -113 -289zM1174 616h708q-30 138 -126 222t-228 84t-228 -84t-126 -222z" />
<glyph unicode="&#x178;" horiz-adv-x="1273" d="M57 1427h176l408 -684l403 684h173l-498 -841v-586h-160v586zM323 1624q0 43 31 72q31 31 72 31t72 -31q31 -29 31 -72t-31 -74q-31 -29 -72 -29t-72 29q-31 31 -31 74zM745 1624q0 43 31 72q31 31 72 31t72 -31q31 -29 31 -72t-31 -74q-31 -29 -72 -29t-72 29 q-31 31 -31 74z" />
<glyph unicode="&#x2c6;" horiz-adv-x="1249" d="M285 1180l250 247h180l250 -247h-187l-153 151l-154 -151h-186z" />
<glyph unicode="&#x2dc;" horiz-adv-x="1191" d="M287 1270q11 83 60.5 135.5t123.5 52.5q55 0 129 -41q74 -39 111 -39q73 0 94 84l100 -8q-21 -201 -188 -201q-59 0 -133 39q-74 41 -109 41q-73 0 -88 -71z" />
<glyph unicode="&#x2000;" horiz-adv-x="911" />
<glyph unicode="&#x2001;" horiz-adv-x="1823" />
<glyph unicode="&#x2002;" horiz-adv-x="911" />
<glyph unicode="&#x2003;" horiz-adv-x="1823" />
<glyph unicode="&#x2004;" horiz-adv-x="607" />
<glyph unicode="&#x2005;" horiz-adv-x="455" />
<glyph unicode="&#x2006;" horiz-adv-x="303" />
<glyph unicode="&#x2007;" horiz-adv-x="303" />
<glyph unicode="&#x2008;" horiz-adv-x="227" />
<glyph unicode="&#x2009;" horiz-adv-x="364" />
<glyph unicode="&#x200a;" horiz-adv-x="101" />
<glyph unicode="&#x2010;" horiz-adv-x="786" d="M86 469v141h614v-141h-614z" />
<glyph unicode="&#x2011;" horiz-adv-x="786" d="M86 469v141h614v-141h-614z" />
<glyph unicode="&#x2012;" horiz-adv-x="786" d="M86 469v141h614v-141h-614z" />
<glyph unicode="&#x2013;" horiz-adv-x="933" d="M84 469v141h766v-141h-766z" />
<glyph unicode="&#x2014;" horiz-adv-x="1474" d="M84 469v141h1307v-141h-1307z" />
<glyph unicode="&#x2018;" horiz-adv-x="366" d="M8 911l268 516h130l-195 -516h-203z" />
<glyph unicode="&#x2019;" horiz-adv-x="382" d="M-8 911l194 516h203l-268 -516h-129z" />
<glyph unicode="&#x201a;" horiz-adv-x="382" d="M-74 -262l185 489h202l-258 -489h-129z" />
<glyph unicode="&#x201c;" horiz-adv-x="706" d="M8 911l268 516h130l-195 -516h-203zM348 911l268 516h129l-194 -516h-203z" />
<glyph unicode="&#x201d;" horiz-adv-x="722" d="M-8 911l194 516h203l-268 -516h-129zM332 911l194 516h203l-268 -516h-129z" />
<glyph unicode="&#x201e;" horiz-adv-x="698" d="M-74 -262l185 489h202l-258 -489h-129zM266 -262l185 489h202l-258 -489h-129z" />
<glyph unicode="&#x2022;" horiz-adv-x="536" d="M100 520q0 72 50 119q51 49 118.5 49t116.5 -49q51 -47 51 -118.5t-51 -121.5q-49 -47 -116.5 -47t-118.5 47q-50 49 -50 121z" />
<glyph unicode="&#x2026;" horiz-adv-x="1114" d="M90 88q0 43 31 72q31 31 71.5 31t71.5 -31q31 -29 31 -72t-31 -74q-31 -29 -71.5 -29t-71.5 29q-31 31 -31 74zM454 88q0 43 31 72q31 31 72 31t72 -31q31 -29 31 -72t-31 -74q-31 -29 -72 -29t-72 29q-31 31 -31 74zM819 88q0 43 31 72q31 31 71.5 31t71.5 -31 q31 -29 31 -72t-31 -74q-31 -29 -71.5 -29t-71.5 29q-31 31 -31 74z" />
<glyph unicode="&#x202f;" horiz-adv-x="364" />
<glyph unicode="&#x2039;" horiz-adv-x="528" d="M72 518l225 359h160l-226 -359l226 -358h-160z" />
<glyph unicode="&#x203a;" horiz-adv-x="528" d="M72 160l225 358l-225 359h159l226 -359l-226 -358h-159z" />
<glyph unicode="&#x205f;" horiz-adv-x="455" />
<glyph unicode="&#x20ac;" horiz-adv-x="1525" d="M16 492l62 141h166q-4 70 -4 80q0 49 6 96h-187l62 141h151q67 226 244 365q180 139 406 139q300 0 499 -217l-112 -100q-150 170 -387 170q-166 0 -296.5 -97t-187.5 -260h557l-61 -141h-528q-7 -54 -7 -96q0 -10 4 -80h461l-61 -141h-371q56 -171 187.5 -272 t302.5 -101q253 0 403 178l115 -102q-205 -224 -518 -224q-229 0 -410 144q-179 142 -244 377h-252z" />
<glyph unicode="&#x2122;" horiz-adv-x="1724" d="M45 1280v147h637v-147h-242v-612h-153v612h-242zM776 668v762h15l399 -408l399 408h15v-762h-154v417l-260 -286l-260 286v-417h-154z" />
<glyph unicode="&#x25fc;" horiz-adv-x="1034" d="M0 0v1034h1034v-1034h-1034z" />
<glyph unicode="&#xfb01;" horiz-adv-x="1024" d="M63 891v141h166v86q0 199 101 281q83 59 252 59q64 0 100 -8v-143q-52 10 -117 10q-98 0 -141 -41t-43 -137v-107h479v-811q0 -58 18 -83t60 -25q17 0 53 4v-125q-43 -17 -96 -17q-186 0 -186 220v696h-328v-891h-152v891h-166z" />
<glyph unicode="&#xfb02;" horiz-adv-x="1183" d="M63 891v141h166v86q0 199 101 281q68 59 211 59q49 0 80 -8v-143q-45 10 -97 10q-76 0 -109.5 -41t-33.5 -137v-107h194v-141h-194v-891h-152v891h-166zM760 260v1167h151v-1157q0 -87 29 -123t100 -36q46 0 74 4v-129q-31 -17 -94 -17q-92 0 -168 45q-43 27 -67.5 90.5 t-24.5 155.5z" />
<glyph unicode="&#xfb03;" horiz-adv-x="1503" d="M63 891v141h166v86q0 105 27.5 177.5t77.5 105.5q87 57 207 57q49 0 80 -8v-143q-45 10 -97 10q-76 0 -109.5 -41t-33.5 -137v-107h328v86q0 200 100 281q83 59 252 59q64 0 100 -8v-143q-52 10 -117 10q-98 0 -141 -41t-43 -137v-107h479v-811q0 -58 18 -83t60 -25 q17 0 53 4v-125q-42 -17 -96 -17q-186 0 -186 220v696h-328v-891h-151v891h-328v-891h-152v891h-166z" />
<glyph unicode="&#xfb04;" horiz-adv-x="1642" d="M63 891v141h166v86q0 105 27.5 177.5t77.5 105.5q87 57 207 57q49 0 80 -8v-143q-45 10 -97 10q-76 0 -109.5 -41t-33.5 -137v-107h328v86q0 215 104 283q87 57 207 57q49 0 80 -8v-143q-45 10 -96 10q-76 0 -110 -41t-34 -137v-107h195v-141h-195v-891h-151v891h-328 v-891h-152v891h-166zM1219 260v1167h151v-1157q0 -87 29 -123t100 -36q46 0 74 4v-129q-31 -17 -94 -17q-92 0 -168 45q-43 27 -67.5 90.5t-24.5 155.5z" />
</font>
</defs>
</svg>
