<?xml version="1.0" standalone="no"?>
<!DOCTYPE svg PUBLIC "-//W3C//DTD SVG 1.1//EN" "http://www.w3.org/Graphics/SVG/1.1/DTD/svg11.dtd" >
<svg xmlns="http://www.w3.org/2000/svg">
<metadata></metadata>
<defs>
<font id="hurme_geometric_sans_4SBd" horiz-adv-x="1671" >
<font-face units-per-em="2048" ascent="1565" descent="-483" />
<missing-glyph horiz-adv-x="833" />
<glyph horiz-adv-x="0" />
<glyph horiz-adv-x="682" />
<glyph unicode=" "  horiz-adv-x="833" />
<glyph unicode="&#x09;" horiz-adv-x="833" />
<glyph unicode="&#xa0;" horiz-adv-x="833" />
<glyph unicode="!" horiz-adv-x="552" d="M127 1427h297l-43 -1067h-211zM135 114.5q0 59.5 41 100.5q43 41 100.5 41t98.5 -41q43 -41 43 -100.5t-43 -100.5q-41 -41 -98.5 -41t-100.5 41q-41 41 -41 100.5z" />
<glyph unicode="&#x22;" horiz-adv-x="724" d="M80 1427h229l-35 -516h-161zM416 1427h229l-33 -516h-163z" />
<glyph unicode="#" horiz-adv-x="1251" d="M59 397v207h230l51 203h-178v207h231l49 200h209l-51 -200h209l51 200h207l-49 -200h176v-207h-227l-52 -203h179v-207h-230l-53 -204h-207l51 204h-209l-53 -204h-207l52 204h-179zM498 604h207l53 203h-209z" />
<glyph unicode="$" horiz-adv-x="1165" d="M47 303l201 125q86 -182 282 -219v442q-191 70 -294 162q-101 91 -101 260q0 162 111 264q115 103 282 115v201h146v-207q225 -34 348 -219l-182 -127q-64 99 -168 119v-373q235 -85 334 -187q98 -101 98 -264q0 -176 -111.5 -287t-318.5 -128v-197h-146v199 q-168 13 -292.5 98t-188.5 223zM381 1075q0 -64 34.5 -103.5t114.5 -72.5v328q-70 -11 -109.5 -50.5t-39.5 -101.5zM672 209q96 10 139 59.5t43 120.5q0 73 -41 118t-141 91v-389z" />
<glyph unicode="%" horiz-adv-x="1538" d="M61 1137q0 131 95 223q94 94 229 94q133 0 227 -94q97 -94 97 -223q0 -130 -97 -224q-95 -92 -227 -92q-134 0 -229 92t-95 224zM176 0l954 1427h232l-954 -1427h-232zM252 1137q0 -60 38 -101t95 -41q56 0 94.5 41t38.5 101q0 57 -39.5 100t-93.5 43q-56 0 -94.5 -41.5 t-38.5 -101.5zM829 291q0 131 95 223t229 92t229 -92t95 -223q0 -133 -95 -225q-96 -93 -229 -93t-229 93q-95 95 -95 225zM1020 291q0 -60 38 -102t95 -42q56 0 95.5 42t39.5 102q0 57 -40 99t-95 42q-57 0 -95 -40.5t-38 -100.5z" />
<glyph unicode="&#x26;" horiz-adv-x="1626" d="M76 457q0 300 284 438q-45 83 -45 176q0 170 115 279q117 108 307 108q167 0 277 -96q106 -93 106 -236q0 -89 -49 -141h504v-225h-264v-84q0 -229 -103 -400l265 -276h-318l-102 111q-165 -142 -432 -142q-246 0 -396 135q-149 134 -149 353zM326 457q0 -121 79 -191.5 t216 -70.5q166 0 243 92q-193 206 -268 280l-45 47q-41 47 -64 78q-161 -72 -161 -235zM555 1065q0 -112 139 -260l332 -352q47 83 47 249v58h-287v151q55 12 90 59.5t35 110.5q0 74 -50 122t-128 48q-73 0 -125.5 -49.5t-52.5 -136.5z" />
<glyph unicode="'" horiz-adv-x="389" d="M80 1427h229l-35 -516h-161z" />
<glyph unicode="(" horiz-adv-x="643" d="M84 633q0 573 467 981l115 -123q-182 -188 -269.5 -394t-87.5 -464q0 -261 86.5 -465t270.5 -397l-115 -123q-467 399 -467 985z" />
<glyph unicode=")" horiz-adv-x="643" d="M-23 -229q183 194 270 398t87 464q0 255 -87.5 462t-269.5 396l115 123q465 -409 465 -981q0 -585 -465 -985z" />
<glyph unicode="*" horiz-adv-x="776" d="M66 1141l55 157l201 -90l-21 219h172l-18 -219l202 90l54 -157l-213 -56l147 -165l-139 -101l-119 185l-119 -185l-135 101l148 165z" />
<glyph unicode="+" horiz-adv-x="960" d="M88 604v217h272v295h238v-295h274v-217h-274v-293h-238v293h-272z" />
<glyph unicode="," horiz-adv-x="454" d="M-63 -262l182 489h264l-258 -489h-188z" />
<glyph unicode="-" horiz-adv-x="851" d="M82 446v226h686v-226h-686z" />
<glyph unicode="." horiz-adv-x="417" d="M66 125q0 57 43 98t100 41t99 -41t42 -98q0 -59 -41.5 -100t-99.5 -41t-100.5 41t-42.5 100z" />
<glyph unicode="/" horiz-adv-x="903" d="M-27 -279l658 1760h223l-659 -1760h-222z" />
<glyph unicode="0" horiz-adv-x="1191" d="M82 715q0 233 6 301q21 188 164 313t344 125q199 0 342 -125q145 -127 166 -313q6 -67 6 -301q0 -235 -6 -303q-21 -187 -166 -314q-143 -125 -342 -125q-201 0 -344 125t-164 314q-6 68 -6 303zM332 715q0 -225 6 -277q7 -99 81 -165t177 -66t177 66t81 165q6 52 6 277 q0 200 -4 270q-9 103 -86 168q-74 68 -174 68q-99 0 -176 -68q-75 -66 -84 -168q-4 -70 -4 -270z" />
<glyph unicode="1" horiz-adv-x="688" d="M72 1196v231h458v-1427h-256v1196h-202z" />
<glyph unicode="2" horiz-adv-x="1077" d="M31 0v166l633 663q88 94 88 195q0 86 -62 145.5t-149 59.5q-88 0 -154 -66q-63 -63 -63 -159h-234q0 186 131 317q133 133 322 133q181 0 311 -127q131 -125 131 -303q0 -184 -168 -358l-414 -435h611v-231h-983z" />
<glyph unicode="3" horiz-adv-x="1155" d="M12 262l203 119q85 -172 326 -172q128 0 211.5 71t83.5 183q0 110 -86 180t-230 70q-78 0 -158 -23l-83 141l405 365h-543v231h887v-178l-379 -348q6 2 25 2q176 -9 293 -135q116 -122 116 -299q0 -217 -149 -354q-152 -140 -389 -140q-182 0 -323.5 76.5t-209.5 210.5z " />
<glyph unicode="4" horiz-adv-x="1218" d="M96 287v174l475 966h263l-451 -913h444v285h250v-799h-250v287h-731z" />
<glyph unicode="5" horiz-adv-x="1142" d="M37 264l209 119q37 -80 112.5 -127t167.5 -47q118 0 205 78q86 77 86 192q0 118 -79 194.5t-197 76.5q-136 0 -213 -74l-185 49l133 702h693v-231h-500l-51 -258q62 27 149 27q215 0 361 -146q143 -143 143 -338q0 -216 -158 -362q-156 -144 -387 -144 q-158 0 -289.5 78.5t-199.5 210.5z" />
<glyph unicode="6" horiz-adv-x="1167" d="M61 489q0 73 31 158q30 82 64 137q60 97 106 166l14 23q204 307 299 454h285l-307 -456q36 8 80 8q174 0 325 -139q150 -138 150 -346q0 -214 -154 -365q-153 -147 -370 -147q-216 0 -369 147q-154 151 -154 360zM315 487q0 -116 78 -194t191 -78q112 0 192 80 q80 83 80 192q0 111 -80 191t-192 80q-115 0 -193 -78q-76 -76 -76 -193z" />
<glyph unicode="7" horiz-adv-x="1120" d="M61 1196v231h998v-194l-606 -1233h-267l596 1196h-721z" />
<glyph unicode="8" horiz-adv-x="1155" d="M70 455q0 124 59.5 219.5t161.5 148.5q-121 89 -121 240q0 163 119 276q121 115 289 115q165 0 286 -115t121 -276q0 -151 -121 -240q101 -51 162 -147.5t61 -220.5q0 -198 -149 -338q-151 -142 -360 -142q-210 0 -361 142q-147 141 -147 338zM324 455q0 -104 73 -174 q78 -72 181 -72q102 0 180 72q76 73 76 174q0 102 -76 172q-76 73 -180 73q-105 0 -181 -73q-73 -70 -73 -172zM406 1063q0 -71 51 -121.5t121 -50.5q72 0 122 50t50 122q0 69 -50 117.5t-122 48.5t-122 -48.5t-50 -117.5z" />
<glyph unicode="9" horiz-adv-x="1163" d="M66 948q0 209 151 357q150 147 365 147q220 0 368 -145t148 -355q0 -110 -54 -221q-55 -110 -167 -278l-299 -453h-285l323 479q-34 -12 -81 -12q-174 0 -322 133q-147 135 -147 348zM315 952q0 -109 78 -190q81 -78 189 -78q120 0 194 75.5t74 192.5q0 112 -80 189 q-78 78 -188 78q-108 0 -189 -78q-78 -78 -78 -189z" />
<glyph unicode=":" horiz-adv-x="434" d="M76 242q0 57 42 98t99 41t100 -41t43 -98q0 -59 -42.5 -100.5t-100.5 -41.5t-99.5 41.5t-41.5 100.5zM76 794.5q0 59.5 41 100.5q43 41 100 41t100 -41t43 -100.5t-43 -100.5t-100 -41t-100 41q-41 41 -41 100.5z" />
<glyph unicode=";" horiz-adv-x="499" d="M-55 -262l182 489h264l-258 -489h-188zM111 793q0 60 41.5 100.5t101.5 40.5q58 0 99.5 -41t41.5 -100t-41.5 -100.5t-99.5 -41.5q-60 0 -101.5 41t-41.5 101z" />
<glyph unicode="&#x3c;" horiz-adv-x="911" d="M82 641v176l727 426v-254l-457 -260l457 -260v-252z" />
<glyph unicode="=" horiz-adv-x="1019" d="M90 412v215h838v-215h-838zM90 815v215h838v-215h-838z" />
<glyph unicode="&#x3e;" horiz-adv-x="909" d="M102 217v252l457 260l-457 260v254l727 -426v-176z" />
<glyph unicode="?" horiz-adv-x="862" d="M92 1083v267q137 104 316 104q183 0 284 -96q101 -94 101 -217q0 -133 -60 -211q-61 -80 -209 -170q-69 -40 -98 -69t-29 -68q0 -80 99 -80q92 0 151 39v-205q-78 -37 -184 -37q-137 0 -222 77t-85 204q0 170 202 299q5 4 37 23.5t37 23.5q2 2 27 20t30 23q54 54 52 110 q0 11 -5 25.5t-18.5 34t-45 32.5t-75.5 13q-160 0 -305 -142zM281 105q0 58 41 96q41 41 98 41t98 -41q41 -38 41 -96t-41 -99q-41 -38 -98 -38t-98 38q-41 41 -41 99z" />
<glyph unicode="@" horiz-adv-x="1644" d="M72 598q0 309 219 528q223 220 532 220q310 0 531 -209t221 -506q0 -213 -92.5 -329t-257.5 -116q-88 0 -150.5 40t-85.5 112q-69 -90 -198 -90q-142 0 -236 98q-94 101 -94 248q0 145 94 246q93 100 236 100q119 0 178 -80v66h192v-463q0 -103 78 -103q139 0 139 271 q0 220 -164 373q-162 155 -391 155q-230 0 -393 -166q-162 -162 -162 -395q0 -228 164 -395q164 -164 391 -164q133 0 244 63l82 -170q-149 -79 -326 -79q-313 0 -532 219t-219 526zM661 594q0 -70 44 -117q44 -44 112.5 -44t112.5 44q47 47 47 117t-47 117 q-44 47 -112.5 47t-112.5 -47t-44 -117z" />
<glyph unicode="A" horiz-adv-x="1503" d="M47 0l596 1427h217l596 -1427h-270l-117 285h-635l-117 -285h-270zM514 496h475l-237 581z" />
<glyph unicode="B" horiz-adv-x="1257" d="M158 0v1427h516q169 0 282 -104q117 -102 117 -260q0 -103 -48 -179t-134 -108q135 -24 211 -120t76 -234q0 -184 -125 -303q-122 -119 -310 -119h-585zM414 231h286q97 0 160.5 58.5t63.5 146.5q0 87 -64 144t-162 57h-284v-406zM414 852h225q82 0 133 49t51 127 q0 72 -51.5 120t-130.5 48h-227v-344z" />
<glyph unicode="C" horiz-adv-x="1458" d="M82 713q0 315 219 528q220 211 539 211q339 0 565 -256l-174 -149q-152 174 -391 174q-215 0 -361 -146q-143 -143 -143 -362q0 -220 143 -363t361 -143q245 0 395 178l172 -149q-105 -124 -253 -192.5t-314 -68.5q-318 0 -539 209q-219 213 -219 529z" />
<glyph unicode="D" horiz-adv-x="1501" d="M158 0v1427h510q356 0 551 -198q198 -195 198 -518t-196 -516q-198 -195 -551 -195h-512zM414 231h237q258 0 384 126.5t126 353.5q0 233 -125.5 359t-386.5 126h-235v-965z" />
<glyph unicode="E" horiz-adv-x="1183" d="M158 0v1427h909v-231h-653v-340h612v-231h-612v-394h667v-231h-923z" />
<glyph unicode="F" horiz-adv-x="1110" d="M158 0v1427h864v-231h-608v-358h555v-232h-555v-606h-256z" />
<glyph unicode="G" horiz-adv-x="1527" d="M82 713q0 315 219 528q220 211 539 211q315 0 530 -215l-170 -156q-146 140 -360 140q-215 0 -361 -146q-143 -143 -143 -362q0 -220 143 -363t361 -143q204 0 342 123v262h-398v227h639v-575q-104 -126 -256 -197.5t-327 -71.5q-318 0 -539 209q-219 213 -219 529z" />
<glyph unicode="H" horiz-adv-x="1513" d="M158 0v1427h256v-557h686v557h254v-1427h-254v639h-686v-639h-256z" />
<glyph unicode="I" horiz-adv-x="589" d="M166 0v1427h256v-1427h-256z" />
<glyph unicode="J" horiz-adv-x="702" d="M23 -8v231q53 -16 116 -16q95 0 131.5 56.5t36.5 174.5v989h256v-976q0 -90 -6.5 -147t-28.5 -122q-32 -98 -117.5 -149.5t-242.5 -57.5q-72 0 -145 17z" />
<glyph unicode="K" horiz-adv-x="1368" d="M158 0v1427h256v-684l604 684h303l-555 -628l571 -799h-299l-444 616l-180 -198v-418h-256z" />
<glyph unicode="L" horiz-adv-x="1046" d="M158 0v1427h256v-1196h567v-231h-823z" />
<glyph unicode="M" horiz-adv-x="1775" d="M158 0v1427h219l512 -800l510 800h217v-1427h-242v967l-485 -754l-490 752v-965h-241z" />
<glyph unicode="N" horiz-adv-x="1544" d="M158 0v1427h225l756 -991v991h247v-1427h-208l-772 1010v-1010h-248z" />
<glyph unicode="O" d="M82 711q0 313 219 526q218 215 535 215q316 0 534 -215q221 -212 221 -526t-219 -527t-536 -213q-316 0 -535 213t-219 527zM334 711q0 -220 143 -363q145 -145 359 -145q211 0 356 145q145 148 145 363q0 214 -145 362t-356 148q-214 0 -359 -148q-143 -146 -143 -362z " />
<glyph unicode="P" horiz-adv-x="1239" d="M158 0v1427h544q183 0 324 -129t141 -335q0 -200 -141 -332q-137 -131 -324 -131h-288v-500h-256zM414 731h276q91 0 157 63t66 169q0 107 -65.5 170t-157.5 63h-276v-465z" />
<glyph unicode="Q" d="M82 713q0 313 219 526q222 213 537 213t534 -213t219 -526q0 -281 -190 -486l139 -168l-172 -143l-143 170q-165 -109 -387 -109q-317 0 -537 211q-219 213 -219 525zM334 713q0 -216 145 -361q143 -143 359 -143q128 0 227 57l-201 238l172 145l203 -239q98 125 98 303 q0 212 -145 360t-354 148q-214 0 -359 -148t-145 -360z" />
<glyph unicode="R" horiz-adv-x="1302" d="M158 0v1427h555q193 0 327 -131q136 -130 136 -321q0 -138 -71 -247t-190 -159l347 -569h-289l-305 508h-4h-250v-508h-256zM414 737h272q104 0 170 65.5t66 168.5q0 98 -61 161.5t-154 63.5h-293v-459z" />
<glyph unicode="S" horiz-adv-x="1163" d="M43 301l193 121q111 -217 358 -217q124 0 183 54t59 132q0 92 -82 146q-42 29 -82.5 48t-126.5 50q-104 39 -167 71.5t-122 79.5q-121 100 -121 281q0 170 127 279q127 106 316 106q293 0 440 -231l-182 -125q-83 127 -254 127q-85 0 -140 -43t-55 -109q0 -41 14 -66.5 t45 -56.5q10 -7 30 -17t44.5 -22t32.5 -16l74 -29l84 -33q199 -81 290 -178t91 -256q0 -193 -130 -307.5t-370 -114.5q-196 0 -338.5 86t-210.5 240z" />
<glyph unicode="T" horiz-adv-x="1112" d="M41 1196v231h1030v-231h-387v-1196h-256v1196h-387z" />
<glyph unicode="U" horiz-adv-x="1449" d="M145 547v880h256v-854q0 -181 84.5 -272.5t239.5 -91.5q153 0 237.5 91.5t84.5 272.5v854h256v-880q0 -276 -162 -422q-165 -148 -416 -148q-253 0 -418 148q-162 146 -162 422z" />
<glyph unicode="V" horiz-adv-x="1486" d="M47 1427h270l426 -1050l426 1050h271l-590 -1427h-213z" />
<glyph unicode="W" horiz-adv-x="1941" d="M41 1427h250l289 -958l294 958h193l295 -958l291 958h248l-426 -1427h-203l-301 958l-303 -958h-201z" />
<glyph unicode="X" horiz-adv-x="1370" d="M53 0l473 735l-448 692h284l324 -503l322 503h280l-446 -694l477 -733h-283l-354 547l-354 -547h-275z" />
<glyph unicode="Y" horiz-adv-x="1355" d="M37 1427h276l367 -628l364 628h275l-514 -874v-553h-254v553z" />
<glyph unicode="Z" horiz-adv-x="1314" d="M80 0v168l805 1028h-721v231h1057v-186l-793 -1010h807v-231h-1155z" />
<glyph unicode="[" horiz-adv-x="714" d="M147 -444v1871h564v-219h-322v-1433h322v-219h-564z" />
<glyph unicode="\" horiz-adv-x="903" d="M35 1481h221l659 -1760h-221z" />
<glyph unicode="]" horiz-adv-x="714" d="M4 -225h322v1433h-322v219h561v-1871h-561v219z" />
<glyph unicode="^" horiz-adv-x="1079" d="M33 717l416 710h182l416 -710h-244l-264 465l-265 -465h-241z" />
<glyph unicode="_" horiz-adv-x="761" d="M-2 -174h766v-199h-766v199z" />
<glyph unicode="`" horiz-adv-x="1077" d="M287 1427h280l105 -297h-187z" />
<glyph unicode="a" horiz-adv-x="1320" d="M63 516q0 229 148 383q150 156 369 156q121 0 210 -48t119 -124v149h246v-721q0 -66 17.5 -93.5t58.5 -27.5q6 0 51 5v-199q-43 -16 -121 -16q-92 0 -143 32q-69 48 -84 125q-107 -162 -354 -162q-219 0 -369 156q-148 157 -148 385zM307 516q0 -136 86 -225 q90 -90 219 -90q134 0 224 90q92 89 92 225t-92 225q-90 90 -224 90q-129 0 -219 -90q-86 -89 -86 -225z" />
<glyph unicode="b" horiz-adv-x="1261" d="M109 0v1427h245v-544q27 77 116 124.5t214 47.5q220 0 367 -156q149 -152 149 -383q0 -230 -149 -385q-148 -154 -367 -154q-125 0 -214 48t-116 125v-150h-245zM336 516q0 -135 90 -225q93 -90 225 -90q130 0 217 90q88 88 88 225t-88 225q-87 90 -217 90 q-132 0 -225 -90q-90 -90 -90 -225z" />
<glyph unicode="c" horiz-adv-x="1079" d="M63 518q0 234 162 389q166 158 400 158q247 0 413 -178l-151 -158q-107 113 -262 113q-136 0 -228 -92q-90 -93 -90 -232q0 -138 90 -231q92 -92 228 -92q156 0 262 112l151 -157q-167 -179 -413 -179q-237 0 -400 156q-162 155 -162 391z" />
<glyph unicode="d" horiz-adv-x="1320" d="M63 516q0 229 148 383q150 156 369 156q121 0 210 -48t119 -124v544h246v-1116q0 -66 17.5 -93.5t58.5 -27.5q6 0 51 5v-199q-43 -16 -121 -16q-92 0 -143 32q-69 48 -84 125q-107 -162 -354 -162q-219 0 -369 156q-148 157 -148 385zM307 516q0 -136 86 -225 q90 -90 219 -90q134 0 224 90q92 89 92 225t-92 225q-90 90 -224 90q-129 0 -219 -90q-86 -89 -86 -225z" />
<glyph unicode="e" horiz-adv-x="1169" d="M63 508v8q0 243 152 395q153 150 389 150q226 0 367 -150q143 -149 143 -370q0 -32 -4 -86h-803q6 -123 90.5 -197t220.5 -74q160 0 279 119l147 -143q-176 -185 -434 -185q-243 0 -395 146t-152 387zM313 627h551q0 91 -78 157q-77 68 -182 68q-114 0 -198 -66t-93 -159 z" />
<glyph unicode="f" horiz-adv-x="718" d="M55 809v223h168v51q0 118 26.5 188t86.5 118q82 67 256 67q65 0 106 -8v-211q-30 10 -94 10q-70 0 -102.5 -34t-32.5 -111v-70h195v-223h-195v-809h-246v809h-168z" />
<glyph unicode="g" horiz-adv-x="1259" d="M63 520q0 226 150 379q150 156 367 156q125 0 213.5 -47.5t115.5 -124.5v149h246v-860q0 -196 -37 -313t-137 -195q-148 -115 -365 -115q-288 0 -499 150l119 182q167 -112 354 -112q145 0 227 61q98 70 98 262v51q-38 -68 -126.5 -109.5t-208.5 -41.5q-218 0 -369 151 q-148 151 -148 377zM307 520q0 -134 86 -223q88 -88 219 -88q136 0 224 88q92 89 92 223q0 132 -92 221q-90 90 -224 90q-129 0 -219 -90q-86 -89 -86 -221z" />
<glyph unicode="h" horiz-adv-x="1179" d="M109 0v1427h243v-538q36 75 116.5 119.5t184.5 44.5q178 0 277.5 -110.5t99.5 -303.5v-326q0 -61 14.5 -84.5t55.5 -23.5q15 0 35 4v-207q-37 -12 -107 -12q-242 0 -242 270v344q0 107 -54.5 168.5t-151.5 61.5q-100 0 -164 -67t-64 -173v-594h-243z" />
<glyph unicode="i" horiz-adv-x="503" d="M84 1298q0 61 42.5 103.5t104.5 42.5q60 0 103 -42.5t43 -103.5t-43 -103t-103 -42q-62 0 -104.5 42t-42.5 103zM109 242v790h245v-725q0 -61 15.5 -84.5t56.5 -23.5q23 0 43 4v-207q-40 -16 -123 -16q-237 0 -237 262z" />
<glyph unicode="j" horiz-adv-x="456" d="M-92 -213q62 -4 67 -4q70 0 100.5 35t30.5 116v1098h246v-1120q0 -348 -342 -348q-68 0 -102 6v217zM82 1296q0 61 42.5 103.5t104.5 42.5q60 0 103 -42.5t43 -103.5t-43 -103t-103 -42q-62 0 -104.5 42t-42.5 103z" />
<glyph unicode="k" horiz-adv-x="1056" d="M109 0v1427h243v-833l381 438h283l-404 -461l447 -571h-279l-325 416l-103 -115v-301h-243z" />
<glyph unicode="l" horiz-adv-x="593" d="M104 305v1122h246v-1089q0 -76 28 -109.5t95 -33.5q47 0 74 8v-219q-47 -13 -117 -13q-326 0 -326 334z" />
<glyph unicode="m" horiz-adv-x="1753" d="M109 0v1032h243v-147q33 76 106.5 122t170.5 46q215 0 291 -181q88 181 331 181q166 0 259.5 -110.5t93.5 -303.5v-326q0 -61 14.5 -84.5t54.5 -23.5q15 0 35 4v-207q-38 -12 -106 -12q-242 0 -242 270v344q0 107 -47.5 168.5t-132.5 61.5q-86 0 -142.5 -68t-56.5 -172 v-594h-244v604q0 107 -48.5 168.5t-135.5 61.5q-86 0 -143.5 -68t-57.5 -172v-594h-243z" />
<glyph unicode="n" horiz-adv-x="1196" d="M109 0v1032h243v-147q37 76 120 122t190 46q182 0 283.5 -110.5t101.5 -303.5v-326q0 -61 14.5 -84.5t54.5 -23.5q15 0 35 4v-207q-43 -12 -107 -12q-241 0 -241 270v344q0 107 -57.5 168.5t-159.5 61.5q-103 0 -168.5 -67t-65.5 -173v-594h-243z" />
<glyph unicode="o" horiz-adv-x="1253" d="M63 516q0 233 164 389q166 158 400 158q233 0 399 -158q164 -156 164 -389t-164 -389q-166 -158 -399 -158q-234 0 -400 158q-164 156 -164 389zM307 516q0 -135 90 -231q92 -92 230 -92q135 0 227 92q92 95 92 231q0 137 -92 229q-92 95 -227 95q-138 0 -230 -95 q-90 -93 -90 -229z" />
<glyph unicode="p" horiz-adv-x="1261" d="M109 -395v1427h245v-149q27 77 116 124.5t214 47.5q220 0 367 -156q149 -152 149 -383q0 -230 -149 -385q-148 -154 -367 -154q-125 0 -214 48t-116 125v-545h-245zM336 516q0 -135 90 -225q93 -90 225 -90q130 0 217 90q88 88 88 225t-88 225q-87 90 -217 90 q-132 0 -225 -90q-90 -90 -90 -225z" />
<glyph unicode="q" horiz-adv-x="1255" d="M63 516q0 229 148 383q150 156 369 156q125 0 213.5 -47.5t115.5 -124.5v149h246v-1427h-246v545q-27 -77 -115.5 -125t-213.5 -48q-218 0 -369 154q-148 157 -148 385zM307 516q0 -136 86 -225q90 -90 219 -90q134 0 224 90q92 89 92 225t-92 225q-90 90 -224 90 q-129 0 -219 -90q-86 -89 -86 -225z" />
<glyph unicode="r" horiz-adv-x="798" d="M109 0v1032h243v-153q37 82 118 128t189 46q44 0 74 -6v-238q-52 10 -102 10q-128 0 -203.5 -74.5t-75.5 -201.5v-543h-243z" />
<glyph unicode="s" horiz-adv-x="921" d="M29 182l157 133q36 -57 109 -93t164 -36q92 0 138 31.5t46 81.5q0 52 -59 82q-27 16 -97 39q-101 33 -127 43q-128 46 -191 115t-63 176q0 142 105 225q110 84 260 84q215 0 334 -152l-137 -145q-68 86 -201 86q-57 0 -91 -25.5t-34 -66.5q0 -43 47 -72q23 -14 84 -37 q13 -3 129 -43q144 -51 210.5 -124.5t66.5 -182.5q0 -148 -109.5 -238t-314.5 -90q-153 0 -264.5 55.5t-161.5 153.5z" />
<glyph unicode="t" horiz-adv-x="684" d="M41 809v223h129v395h246v-395h227v-223h-227v-461q0 -84 30 -118.5t99 -34.5q50 0 86 8v-219q-57 -13 -127 -13q-334 0 -334 351v487h-129z" />
<glyph unicode="u" horiz-adv-x="1187" d="M96 393v639h246v-604q0 -107 55 -168t154 -61t162 67t63 172v594h246v-719q0 -65 17 -91.5t59 -26.5q15 0 51 4v-201q-43 -16 -121 -16q-92 0 -151 41q-60 48 -74 108q-89 -151 -314 -151q-184 0 -288.5 110.5t-104.5 302.5z" />
<glyph unicode="v" horiz-adv-x="1120" d="M14 1032h254l293 -700l291 700h254l-442 -1032h-207z" />
<glyph unicode="w" horiz-adv-x="1531" d="M16 1032h232l215 -643l209 643h186l209 -643l215 643h234l-347 -1032h-190l-213 653l-213 -653h-193z" />
<glyph unicode="x" horiz-adv-x="1101" d="M25 0l391 545l-357 487h267l225 -309l223 309h268l-356 -485l391 -547h-264l-262 365l-262 -365h-264z" />
<glyph unicode="y" horiz-adv-x="1128" d="M23 1032h247l303 -778l285 778h248l-463 -1200q-46 -119 -111 -184q-92 -86 -247 -86q-65 0 -121 16v215q50 -16 115 -16q54 0 90 22q34 21 59 88l27 74z" />
<glyph unicode="z" horiz-adv-x="1064" d="M43 0v152l588 661h-527v219h869v-170l-565 -643h589v-219h-954z" />
<glyph unicode="{" horiz-adv-x="712" d="M51 463v127q45 3 92 24q82 43 82 166v385q0 115 70 188.5t176 73.5h164v-196h-74q-53 0 -79.5 -34t-26.5 -87v-313q0 -151 -82 -215q-42 -37 -99 -58q53 -15 99 -55q82 -64 82 -215v-313q0 -53 26.5 -87t79.5 -34h74v-197h-164q-106 0 -176 73.5t-70 188.5v385 q0 123 -82 166q-44 23 -77 27h-15z" />
<glyph unicode="|" horiz-adv-x="548" d="M156 -53v1534h235v-1534h-235z" />
<glyph unicode="}" horiz-adv-x="712" d="M78 -180h74q53 0 79.5 34t26.5 87v313q0 151 82 215q47 41 96 55q-54 21 -96 58q-82 64 -82 215v313q0 53 -26.5 87t-79.5 34h-74v196h164q106 0 175.5 -73.5t69.5 -188.5v-385q0 -123 82 -166q36 -19 78 -24h15v-127q-46 -3 -93 -27q-82 -43 -82 -166v-385 q0 -115 -69.5 -188.5t-175.5 -73.5h-164v197z" />
<glyph unicode="~" horiz-adv-x="917" d="M53 606q18 115 83 183.5t163 68.5q76 0 174 -43q100 -41 145 -41q78 0 105 84l141 -16q-34 -267 -250 -267q-73 0 -176 41q-98 43 -145 43q-81 0 -96 -71z" />
<glyph unicode="&#xa1;" horiz-adv-x="552" d="M127 -406l43 1068h211l43 -1068h-297zM135 907q0 59 41.5 100.5t99.5 41.5t100 -41.5t42 -100.5q0 -57 -42.5 -98t-99.5 -41t-99 41t-42 98z" />
<glyph unicode="&#xa2;" horiz-adv-x="1095" d="M66 721q0 104 33.5 194.5t90 154t129.5 109t151.5 67.5t156.5 22h18l31 159h155l-36 -184q140 -40 247 -147l-149 -152q-57 61 -141 84l-129 -633l10 -2q6 -2 18 -2q144 9 242 107l149 -154q-170 -170 -415 -170q-25 0 -45 4l-37 -178h-156l43 207q-166 58 -266 195.5 t-100 318.5zM301 721q0 -98 48 -177.5t130 -117.5l125 621h-2q-131 -9 -217 -101q-84 -93 -84 -225z" />
<glyph unicode="&#xa3;" horiz-adv-x="1214" d="M70 0v188h18q184 0 262 78t78 187q0 54 -43 139h-223v184h121q-86 154 -86 258q0 177 131 299q131 125 317 125q182 0 309 -127q129 -126 129 -305h-225q0 82 -62 141.5t-149 59.5q-83 0 -145 -62q-60 -63 -60 -147q0 -88 101 -242h327v-184h-229q35 -78 35 -139 q0 -170 -103 -238h572v-215h-1075z" />
<glyph unicode="&#xa4;" horiz-adv-x="1347" d="M106 270l170 152q-86 115 -86 260q0 143 86 264l-170 150l152 151l154 -176q121 74 264 74q141 0 262 -74l156 176l151 -151l-170 -150q86 -123 86 -264.5t-86 -259.5l170 -152l-151 -149l-156 174q-121 -74 -262 -74q-143 0 -264 74l-154 -174zM403 682q0 -114 80 -197 q79 -79 193 -79q113 0 192 79q80 83 80 197t-80 197q-79 82 -192 82q-114 0 -193 -82q-80 -83 -80 -197z" />
<glyph unicode="&#xa5;" horiz-adv-x="1359" d="M37 1427h276l367 -628l367 628h276l-313 -530h223v-211h-346l-78 -133h424v-211h-424v-342h-258v342h-424v211h424l-78 133h-346v211h221z" />
<glyph unicode="&#xa6;" horiz-adv-x="548" d="M156 0v602h235v-602h-235zM156 850v577h235v-577h-235z" />
<glyph unicode="&#xa7;" horiz-adv-x="1107" d="M59 582q0 183 162 284q-88 88 -88 224q0 165 119 266q120 102 293 102q197 0 305 -117q111 -114 111 -288h-242q-9 192 -172 192q-71 0 -119.5 -40t-48.5 -109q0 -61 32 -98t117 -83l142 -73l141 -74q223 -125 223 -317q0 -190 -160 -285q89 -89 89 -223 q0 -164 -121 -267q-120 -102 -291 -102q-193 0 -304.5 112t-111.5 294h242q9 -193 172 -193q70 0 118 40.5t48 109.5q0 57 -31.5 92t-116.5 86q-34 21 -145 75q-60 31 -137 74q-226 121 -226 318zM297 616q0 -61 74 -122q42 -31 86 -58l49 -26q7 -4 54 -29.5t63 -34.5 q46 -23 75 -43q95 35 95 127q0 68 -76 123q-27 23 -84 55l-49 29q-9 5 -55.5 29.5t-61.5 33.5q-50 24 -76 43q-94 -34 -94 -127z" />
<glyph unicode="&#xa8;" horiz-adv-x="1161" d="M237 1288q0 53 37 90q38 37 92.5 37t92.5 -37t38 -90t-38 -90t-92.5 -37t-92.5 37q-37 37 -37 90zM662 1288q0 53 38 90t92.5 37t92.5 -37t38 -90t-38 -90t-92.5 -37t-92.5 37t-38 90z" />
<glyph unicode="&#xa9;" horiz-adv-x="1658" d="M76 713q0 302 217 526q216 223 536 223q304 0 531 -219q223 -216 223 -530q0 -302 -219 -529q-218 -221 -535 -221q-306 0 -530 217q-223 216 -223 533zM238 713q0 -244 174 -418t417 -174q245 0 416 174q174 174 174 418t-174 415q-172 175 -416 175q-242 0 -417 -175 q-174 -171 -174 -415zM424 719q0 174 121 289q119 116 297 116q185 0 317 -141l-135 -135q-79 76 -182 76q-87 0 -146 -59t-59 -146q0 -90 59 -149.5t146 -59.5q107 0 182 78l135 -137q-134 -140 -317 -140q-177 0 -297 117q-121 118 -121 291z" />
<glyph unicode="&#xaa;" horiz-adv-x="940" d="M92 868q0 224 326 248q93 6 126.5 22.5t33.5 59.5q0 80 -121 80q-124 0 -205 -100l-121 102q113 162 324 162q146 0 228.5 -65t82.5 -181v-348q0 -33 18 -45q11 -8 47 -8v-127q-41 -21 -83 -21q-68 0 -95 27q-19 19 -35 55q-70 -88 -249 -88q-124 0 -200.5 62t-76.5 165z M283 889q0 -80 114 -80q85 0 131.5 35t46.5 98v72q-31 -24 -155 -33q-137 -9 -137 -92z" />
<glyph unicode="&#xab;" horiz-adv-x="1040" d="M68 518l237 373h254l-242 -373l242 -373h-254zM483 518l238 373h254l-242 -373l242 -373h-254z" />
<glyph unicode="&#xac;" horiz-adv-x="1243" d="M90 788v216h1061v-603h-238v387h-823z" />
<glyph unicode="&#xad;" horiz-adv-x="851" d="M82 446v226h686v-226h-686z" />
<glyph unicode="&#xae;" horiz-adv-x="831" d="M61 1114q0 144 103 244t252 100t252 -100q104 -98 104 -244t-106 -246q-103 -100 -250 -100q-149 0 -252 100q-103 103 -103 246zM164 1114q0 -105 73 -176.5t179 -71.5t178 71t72 177q0 108 -71.5 178t-178.5 70t-179.5 -70t-72.5 -178zM291 948v342h139q51 0 84 -32 t33 -80q0 -69 -53 -99l79 -131h-100l-65 113h-31v-113h-86zM377 1128h47q41 0 41 46q0 17 -11 28.5t-28 11.5h-49v-86z" />
<glyph unicode="&#xaf;" horiz-adv-x="1177" d="M272 1227v174h631v-174h-631z" />
<glyph unicode="&#xb0;" horiz-adv-x="808" d="M86 1126q0 128 92 217q96 93 228 93q130 0 223 -93q94 -88 94 -217q0 -130 -94 -221q-93 -90 -223 -90q-132 0 -228 90q-92 92 -92 221zM276 1126q0 -56 38 -95.5t92 -39.5q51 0 88.5 40t37.5 95q0 54 -37.5 92.5t-88.5 38.5q-54 0 -92 -38.5t-38 -92.5z" />
<glyph unicode="&#xb1;" horiz-adv-x="968" d="M90 0v215h789v-215h-789zM90 686v215h275v297h239v-297h275v-215h-275v-293h-239v293h-275z" />
<glyph unicode="&#xb2;" horiz-adv-x="677" d="M66 672v125l323 311q45 45 45 88q0 38 -25.5 65t-62.5 27q-38 0 -65 -32.5t-27 -77.5h-164q0 109 74 186q78 78 182 78q105 0 178 -70q76 -70 76 -170q0 -90 -78 -174l-196 -192h295v-164h-555z" />
<glyph unicode="&#xb3;" horiz-adv-x="698" d="M33 821l139 84q50 -84 145 -84q58 0 97 30t39 79t-39 79.5t-101 30.5q-67 0 -106 -20l-49 84l198 162h-254v161h486v-116l-178 -148q32 0 51 -8q75 -23 121.5 -85.5t46.5 -141.5q0 -117 -86 -194t-224 -77q-95 0 -172 44.5t-114 119.5z" />
<glyph unicode="&#xb4;" horiz-adv-x="1077" d="M406 1130l104 297h278l-198 -297h-184z" />
<glyph unicode="&#xb6;" horiz-adv-x="1323" d="M45 954q0 195 139 334t338 139h778v-231h-139v-1196h-250v1196h-157v-1196h-254v485q-190 9 -324 146q-131 134 -131 323z" />
<glyph unicode="&#xb7;" horiz-adv-x="417" d="M66 518q0 57 43 98t100 41t99 -41t42 -98q0 -61 -41.5 -102t-99.5 -41t-100.5 42t-42.5 101z" />
<glyph unicode="&#xb8;" horiz-adv-x="1067" d="M322 -379l53 109q54 -31 102 -31q35 0 57.5 18.5t22.5 49.5q0 43 -30.5 60t-100.5 17l66 156h147l-43 -94q58 0 96.5 -41.5t38.5 -108.5q0 -91 -61.5 -138.5t-171.5 -47.5q-108 0 -176 51z" />
<glyph unicode="&#xb9;" horiz-adv-x="477" d="M66 1266v161h286v-755h-170v594h-116z" />
<glyph unicode="&#xba;" horiz-adv-x="948" d="M59 1047q0 164 121 282q122 119 293 119t293 -119q123 -117 123 -282q0 -166 -123 -283t-293 -117t-293 117q-121 118 -121 283zM277 1047q0 -80 57 -140q57 -57 139 -57t139 57q58 61 58 140.5t-60 136.5q-57 60 -136.5 60t-139.5 -60q-57 -57 -57 -137z" />
<glyph unicode="&#xbb;" horiz-adv-x="1040" d="M66 145l241 373l-241 373h253l238 -373l-238 -373h-253zM481 145l242 373l-242 373h254l238 -373l-238 -373h-254z" />
<glyph unicode="&#xbc;" horiz-adv-x="1456" d="M90 1266v161h287v-755h-170v594h-117zM127 0l881 1427h225l-879 -1427h-227zM770 137v123l248 498h174l-236 -467h224v147h166v-438h-166v137h-410z" />
<glyph unicode="&#xbd;" horiz-adv-x="1476" d="M90 1266v161h287v-755h-170v594h-117zM111 0l880 1427h226l-879 -1427h-227zM840 0v125l323 311q45 45 45 88q0 38 -25.5 65t-60.5 27q-38 0 -66 -33t-28 -77h-164q0 109 74 186q78 78 182 78q105 0 178 -70q76 -70 76 -170q0 -95 -76 -174l-196 -192h293v-164h-555z" />
<glyph unicode="&#xbe;" horiz-adv-x="1585" d="M43 821l141 84q47 -84 146 -84q58 0 96.5 30t38.5 79t-38.5 79.5t-100.5 30.5q-68 0 -107 -20l-51 84l201 162h-256v161h487v-116l-178 -148q33 0 49 -8q78 -23 124 -85t46 -142q0 -117 -86.5 -194t-224.5 -77q-93 0 -170.5 45t-116.5 119zM264 0l881 1427h227 l-880 -1427h-228zM901 137v123l248 498h174l-236 -467h224v147h166v-438h-166v137h-410z" />
<glyph unicode="&#xbf;" horiz-adv-x="862" d="M66 -125q0 136 57 211q59 77 211 170q69 40 98 69t29 68q0 80 -99 80q-92 0 -151 -39v205q78 37 184 37q137 0 222 -77t85 -204q0 -170 -202 -299q-5 -4 -37 -23.5t-37 -23.5q-3 -2 -16.5 -12t-25 -19.5t-15.5 -13.5q-55 -47 -52 -108q0 -11 5 -25.5t18.5 -34t45 -32.5 t75.5 -13q161 0 305 141v-266q-137 -104 -315 -104q-183 0 -287 96q-98 94 -98 217zM299 912q0 58 41 96q41 41 98.5 41t98.5 -41q41 -38 41 -96t-41 -99q-41 -38 -98.5 -38t-98.5 38q-41 41 -41 99z" />
<glyph unicode="&#xc0;" horiz-adv-x="1503" d="M47 0l596 1427h217l596 -1427h-270l-117 285h-635l-117 -285h-270zM502 1823h280l105 -297h-187zM514 496h475l-237 581z" />
<glyph unicode="&#xc1;" horiz-adv-x="1503" d="M47 0l596 1427h217l596 -1427h-270l-117 285h-635l-117 -285h-270zM514 496h475l-237 581zM604 1526l105 297h280l-201 -297h-184z" />
<glyph unicode="&#xc2;" horiz-adv-x="1503" d="M47 0l596 1427h217l596 -1427h-270l-117 285h-635l-117 -285h-270zM393 1565l281 247h157l281 -247h-242l-118 118l-119 -118h-240zM514 496h475l-237 581z" />
<glyph unicode="&#xc3;" horiz-adv-x="1503" d="M47 0l596 1427h217l596 -1427h-270l-117 285h-635l-117 -285h-270zM377 1559q14 106 77 170.5t158 64.5q65 0 152 -41t127 -41q71 0 92 84l141 -18q-30 -248 -237 -248q-67 0 -154 41q-85 43 -127 43q-71 0 -86 -72zM514 496h475l-237 581z" />
<glyph unicode="&#xc4;" horiz-adv-x="1503" d="M47 0l596 1427h217l596 -1427h-270l-117 285h-635l-117 -285h-270zM377 1602q0 51 38.5 87.5t92.5 36.5q55 0 93 -35.5t38 -88.5q0 -54 -38.5 -90.5t-92.5 -36.5t-92.5 36.5t-38.5 90.5zM514 496h475l-237 581zM870 1602q0 51 37.5 87.5t91.5 36.5q55 0 92 -35t37 -89 t-37.5 -90.5t-91.5 -36.5t-91.5 36.5t-37.5 90.5z" />
<glyph unicode="&#xc5;" horiz-adv-x="1488" d="M47 0l571 1354q-102 58 -102 178q0 91 68 156q71 65 166 65q92 0 157 -65q68 -65 68 -156q0 -124 -105 -182l572 -1350h-273l-118 285h-615l-119 -285h-270zM514 496h457l-228 553zM662 1532q0 -35 26.5 -60.5t61.5 -25.5q32 0 56.5 25.5t24.5 60.5t-24 59.5t-57 24.5 q-35 0 -61.5 -25.5t-26.5 -58.5z" />
<glyph unicode="&#xc6;" horiz-adv-x="1882" d="M-57 0l1126 1427h698v-231h-510v-340h472v-231h-472v-394h525v-231h-774v285h-545l-223 -285h-297zM629 496h379v489z" />
<glyph unicode="&#xc7;" horiz-adv-x="1458" d="M82 713q0 315 219 528q220 211 539 211q339 0 565 -256l-174 -149q-152 174 -391 174q-215 0 -361 -146q-143 -143 -143 -362q0 -220 143 -363t361 -143q245 0 395 178l172 -149q-105 -124 -253 -192.5t-314 -68.5h-4l-31 -69q58 0 96.5 -41.5t38.5 -108.5 q0 -91 -61.5 -138.5t-171.5 -47.5q-109 0 -177 51l54 109q54 -31 102 -31q35 0 57.5 18.5t22.5 49.5q0 43 -30.5 60t-100.5 17l59 144q-265 46 -440 245q-172 199 -172 480z" />
<glyph unicode="&#xc8;" horiz-adv-x="1183" d="M158 0v1427h909v-231h-653v-340h612v-231h-612v-394h667v-231h-923zM375 1823h262l108 -297h-180z" />
<glyph unicode="&#xc9;" horiz-adv-x="1183" d="M158 0v1427h909v-231h-653v-340h612v-231h-612v-394h667v-231h-923zM502 1526l104 297h281l-201 -297h-184z" />
<glyph unicode="&#xca;" horiz-adv-x="1183" d="M158 0v1427h909v-231h-653v-340h612v-231h-612v-394h667v-231h-923zM256 1565l283 247h155l283 -247h-240l-121 118l-118 -118h-242z" />
<glyph unicode="&#xcb;" horiz-adv-x="1183" d="M158 0v1427h909v-231h-653v-340h612v-231h-612v-394h667v-231h-923zM272 1663q0 54 38.5 91.5t92.5 37.5t91.5 -37t37.5 -92q0 -51 -37.5 -88t-91.5 -37t-92.5 37t-38.5 88zM698 1663q0 54 37.5 91.5t91.5 37.5q55 0 93 -37t38 -92q0 -51 -38.5 -88t-92.5 -37t-91.5 37 t-37.5 88z" />
<glyph unicode="&#xcc;" horiz-adv-x="589" d="M23 1823h278l107 -297h-187zM166 0v1427h256v-1427h-256z" />
<glyph unicode="&#xcd;" horiz-adv-x="589" d="M166 0v1427h256v-1427h-256zM180 1526l105 297h280l-198 -297h-187z" />
<glyph unicode="&#xce;" horiz-adv-x="589" d="M-66 1565l283 247h156l280 -247h-239l-121 118l-119 -118h-240zM166 0v1427h256v-1427h-256z" />
<glyph unicode="&#xcf;" horiz-adv-x="589" d="M-37 1663q0 54 38.5 91.5t92.5 37.5q55 0 93 -37t38 -92q0 -51 -38.5 -88t-92.5 -37t-92.5 37t-38.5 88zM166 0v1427h256v-1427h-256zM365 1663q0 54 37.5 91.5t91.5 37.5q56 0 93.5 -37t37.5 -92q0 -51 -38.5 -88t-92.5 -37t-91.5 37t-37.5 88z" />
<glyph unicode="&#xd0;" horiz-adv-x="1509" d="M45 610v232h113v585h510q356 0 551 -198q198 -195 198 -518t-196 -516q-198 -195 -551 -195h-512v610h-113zM414 231h237q258 0 384 126.5t126 353.5q0 233 -125.5 359t-386.5 126h-235v-354h295v-232h-295v-379z" />
<glyph unicode="&#xd1;" horiz-adv-x="1544" d="M158 0v1427h225l756 -991v991h247v-1427h-208l-772 1010v-1010h-248zM397 1559q14 106 76.5 170.5t157.5 64.5q64 0 151 -41q90 -41 127 -41q71 0 92 84l144 -18q-34 -248 -240 -248q-66 0 -153 41q-85 43 -127 43q-71 0 -86 -72z" />
<glyph unicode="&#xd2;" d="M82 711q0 313 219 526q218 215 535 215q316 0 534 -215q221 -212 221 -526t-219 -527t-536 -213q-316 0 -535 213t-219 527zM334 711q0 -220 143 -363q145 -145 359 -145q211 0 356 145q145 148 145 363q0 214 -145 362t-356 148q-214 0 -359 -148q-143 -146 -143 -362z M555 1823h279l106 -297h-188z" />
<glyph unicode="&#xd3;" d="M82 711q0 313 219 526q218 215 535 215q316 0 534 -215q221 -212 221 -526t-219 -527t-536 -213q-316 0 -535 213t-219 527zM334 711q0 -220 143 -363q145 -145 359 -145q211 0 356 145q145 148 145 363q0 214 -145 362t-356 148q-214 0 -359 -148q-143 -146 -143 -362z M733 1526l105 297h278l-198 -297h-185z" />
<glyph unicode="&#xd4;" d="M82 711q0 313 219 526q218 215 535 215q316 0 534 -215q221 -212 221 -526t-219 -527t-536 -213q-316 0 -535 213t-219 527zM334 711q0 -220 143 -363q145 -145 359 -145q211 0 356 145q145 148 145 363q0 214 -145 362t-356 148q-214 0 -359 -148q-143 -146 -143 -362z M483 1565l283 247h154l282 -247h-239l-121 118l-119 -118h-240z" />
<glyph unicode="&#xd5;" d="M82 711q0 313 219 526q218 215 535 215q316 0 534 -215q221 -212 221 -526t-219 -527t-536 -213q-316 0 -535 213t-219 527zM334 711q0 -220 143 -363q145 -145 359 -145q211 0 356 145q145 148 145 363q0 214 -145 362t-356 148q-214 0 -359 -148q-143 -146 -143 -362z M471 1559q12 106 75 170.5t159 64.5q64 0 151 -41t127 -41q71 0 92 84l142 -18q-30 -248 -236 -248q-66 0 -156 41q-85 43 -127 43q-71 0 -86 -72z" />
<glyph unicode="&#xd6;" d="M82 711q0 313 219 526q218 215 535 215q316 0 534 -215q221 -212 221 -526t-219 -527t-536 -213q-316 0 -535 213t-219 527zM334 711q0 -220 143 -363q145 -145 359 -145q211 0 356 145q145 148 145 363q0 214 -145 362t-356 148q-214 0 -359 -148q-143 -146 -143 -362z M502 1640q0 54 37.5 90.5t91.5 36.5t92.5 -36.5t38.5 -90.5q0 -51 -38.5 -87.5t-92.5 -36.5t-91.5 36.5t-37.5 87.5zM926 1640q0 54 38.5 90.5t92.5 36.5t91.5 -36.5t37.5 -90.5q0 -51 -37.5 -87.5t-91.5 -36.5t-92.5 36.5t-38.5 87.5z" />
<glyph unicode="&#xd7;" horiz-adv-x="888" d="M78 465l217 219l-217 217l147 148l219 -220l220 220l147 -148l-217 -217l217 -219l-147 -150l-220 220l-219 -220z" />
<glyph unicode="&#xd8;" d="M82 711q0 313 219 526q218 215 535 215q190 0 374 -96l125 164l174 -131l-125 -164q207 -219 207 -514q0 -314 -219 -527t-536 -213q-183 0 -351 82l-120 -159l-170 133l114 151q-227 211 -227 533zM334 711q0 -201 127 -340l604 794q-112 56 -229 56q-214 0 -359 -148 q-143 -146 -143 -362zM633 246q90 -43 203 -43q211 0 356 145q145 148 145 363q0 180 -108 315z" />
<glyph unicode="&#xd9;" horiz-adv-x="1449" d="M145 547v880h256v-854q0 -181 84.5 -272.5t239.5 -91.5q153 0 237.5 91.5t84.5 272.5v854h256v-880q0 -276 -162 -422q-165 -148 -416 -148q-253 0 -418 148q-162 146 -162 422zM455 1823h278l107 -297h-187z" />
<glyph unicode="&#xda;" horiz-adv-x="1449" d="M145 547v880h256v-854q0 -181 84.5 -272.5t239.5 -91.5q153 0 237.5 91.5t84.5 272.5v854h256v-880q0 -276 -162 -422q-165 -148 -416 -148q-253 0 -418 148q-162 146 -162 422zM625 1526l104 297h279l-199 -297h-184z" />
<glyph unicode="&#xdb;" horiz-adv-x="1449" d="M145 547v880h256v-854q0 -181 84.5 -272.5t239.5 -91.5q153 0 237.5 91.5t84.5 272.5v854h256v-880q0 -276 -162 -422q-165 -148 -416 -148q-253 0 -418 148q-162 146 -162 422zM367 1565l280 247h156l282 -247h-239l-121 118l-119 -118h-239z" />
<glyph unicode="&#xdc;" horiz-adv-x="1449" d="M145 547v880h256v-854q0 -181 84.5 -272.5t239.5 -91.5q153 0 237.5 91.5t84.5 272.5v854h256v-880q0 -276 -162 -422q-165 -148 -416 -148q-253 0 -418 148q-162 146 -162 422zM383 1640q0 54 37.5 90.5t91.5 36.5t92.5 -36.5t38.5 -90.5q0 -51 -38.5 -87.5t-92.5 -36.5 t-91.5 36.5t-37.5 87.5zM807 1640q0 54 38.5 90.5t92.5 36.5t91.5 -36.5t37.5 -90.5q0 -51 -37.5 -87.5t-91.5 -36.5t-92.5 36.5t-38.5 87.5z" />
<glyph unicode="&#xdd;" horiz-adv-x="1355" d="M37 1427h276l367 -628l364 628h275l-514 -874v-553h-254v553zM575 1526l105 297h281l-201 -297h-185z" />
<glyph unicode="&#xde;" horiz-adv-x="1081" d="M158 0v1427h256v-274h129q212 0 342 -127q129 -126 129 -319q0 -187 -127 -314q-125 -125 -336 -125h-137v-268h-256zM414 500h129q102 0 160.5 57t58.5 154q0 95 -59 153t-162 58h-127v-422z" />
<glyph unicode="&#xdf;" horiz-adv-x="1187" d="M106 0v1087q0 156 113 263q114 108 279 108q162 0 274 -106q113 -107 113 -258q0 -107 -68 -181q132 -42 221 -155q92 -115 92 -281q0 -215 -145 -360q-146 -146 -369 -146q-41 0 -120 11v231q46 -16 104 -16q119 0 201 82q84 84 84 198q0 112 -84 193q-83 80 -201 80 q-44 0 -104 -17v180q155 21 155 164q0 64 -43 110t-104 46q-63 0 -106.5 -47t-43.5 -113v-1073h-248z" />
<glyph unicode="&#xe0;" horiz-adv-x="1320" d="M63 516q0 229 148 383q150 156 369 156q121 0 210 -48t119 -124v149h246v-721q0 -66 17.5 -93.5t58.5 -27.5q6 0 51 5v-199q-43 -16 -121 -16q-92 0 -143 32q-69 48 -84 125q-107 -162 -354 -162q-219 0 -369 156q-148 157 -148 385zM307 516q0 -136 86 -225 q90 -90 219 -90q134 0 224 90q92 89 92 225t-92 225q-90 90 -224 90q-129 0 -219 -90q-86 -89 -86 -225zM367 1427h280l105 -297h-187z" />
<glyph unicode="&#xe1;" horiz-adv-x="1320" d="M63 516q0 229 148 383q150 156 369 156q121 0 210 -48t119 -124v149h246v-721q0 -66 17.5 -93.5t58.5 -27.5q6 0 51 5v-199q-43 -16 -121 -16q-92 0 -143 32q-69 48 -84 125q-107 -162 -354 -162q-219 0 -369 156q-148 157 -148 385zM307 516q0 -136 86 -225 q90 -90 219 -90q134 0 224 90q92 89 92 225t-92 225q-90 90 -224 90q-129 0 -219 -90q-86 -89 -86 -225zM539 1130l104 297h281l-201 -297h-184z" />
<glyph unicode="&#xe2;" horiz-adv-x="1320" d="M63 516q0 229 148 383q150 156 369 156q121 0 210 -48t119 -124v149h246v-721q0 -66 17.5 -93.5t58.5 -27.5q6 0 51 5v-199q-43 -16 -121 -16q-92 0 -143 32q-69 48 -84 125q-107 -162 -354 -162q-219 0 -369 156q-148 157 -148 385zM301 1159l281 248h155l283 -248h-240 l-121 119l-118 -119h-240zM307 516q0 -136 86 -225q90 -90 219 -90q134 0 224 90q92 89 92 225t-92 225q-90 90 -224 90q-129 0 -219 -90q-86 -89 -86 -225z" />
<glyph unicode="&#xe3;" horiz-adv-x="1320" d="M63 516q0 229 148 383q150 156 369 156q121 0 210 -48t119 -124v149h246v-721q0 -66 17.5 -93.5t58.5 -27.5q6 0 51 5v-199q-43 -16 -121 -16q-92 0 -143 32q-69 48 -84 125q-107 -162 -354 -162q-219 0 -369 156q-148 157 -148 385zM272 1204q12 104 75 168t159 64 q66 0 151 -43q87 -43 129 -43q70 0 91 86l143 -19q-30 -246 -238 -246q-68 0 -155 43q-85 43 -127 43q-69 0 -84 -71zM307 516q0 -136 86 -225q90 -90 219 -90q134 0 224 90q92 89 92 225t-92 225q-90 90 -224 90q-129 0 -219 -90q-86 -89 -86 -225z" />
<glyph unicode="&#xe4;" horiz-adv-x="1320" d="M63 516q0 229 148 383q150 156 369 156q121 0 210 -48t119 -124v149h246v-721q0 -66 17.5 -93.5t58.5 -27.5q6 0 51 5v-199q-43 -16 -121 -16q-92 0 -143 32q-69 48 -84 125q-107 -162 -354 -162q-219 0 -369 156q-148 157 -148 385zM307 516q0 -136 86 -225 q90 -90 219 -90q134 0 224 90q92 89 92 225t-92 225q-90 90 -224 90q-129 0 -219 -90q-86 -89 -86 -225zM310 1288q0 53 38 90t92 37t92 -37t38 -90t-38 -90t-92 -37t-92 37t-38 90zM736 1288q0 53 38 90t92 37t92 -37t38 -90t-38 -90t-92 -37t-92 37t-38 90z" />
<glyph unicode="&#xe5;" horiz-adv-x="1320" d="M63 516q0 229 148 383q150 156 369 156q121 0 210 -48t119 -124v149h246v-721q0 -66 17.5 -93.5t58.5 -27.5q6 0 51 5v-199q-43 -16 -121 -16q-92 0 -143 32q-69 48 -84 125q-107 -162 -354 -162q-219 0 -369 156q-148 157 -148 385zM307 516q0 -136 86 -225 q90 -90 219 -90q134 0 224 90q92 89 92 225t-92 225q-90 90 -224 90q-129 0 -219 -90q-86 -89 -86 -225zM426 1350q0 89 66 155q69 66 163 66q96 0 162 -66q68 -65 68 -155q0 -93 -68 -158q-64 -64 -162 -64q-96 0 -163 64q-66 66 -66 158zM569 1350q0 -33 25.5 -58.5 t60.5 -25.5t59.5 24.5t24.5 59.5t-24.5 60.5t-59.5 25.5t-60.5 -25.5t-25.5 -60.5z" />
<glyph unicode="&#xe6;" horiz-adv-x="2082" d="M63 516q0 229 148 383q150 156 369 156q126 0 218 -48t124 -124v149h233v-147q44 75 136 122.5t196 47.5q217 0 362 -154q146 -155 146 -381q0 -21 -4 -67h-807q6 -119 89.5 -191t217.5 -72q167 0 287 117l149 -143q-181 -187 -446 -187q-107 0 -194.5 40.5t-131.5 111.5 v-129h-233v150q-32 -76 -124 -124.5t-218 -48.5q-218 0 -369 154q-148 157 -148 385zM307 516q0 -136 86 -225q90 -90 219 -90q134 0 224 90q92 89 92 225t-92 225q-90 90 -224 90q-129 0 -219 -90q-86 -89 -86 -225zM1192 627h553q-17 99 -91.5 161t-178.5 62 q-108 0 -187 -62t-96 -161z" />
<glyph unicode="&#xe7;" horiz-adv-x="1079" d="M63 518q0 234 162 389q166 158 400 158q247 0 413 -178l-151 -158q-107 113 -262 113q-136 0 -228 -92q-90 -93 -90 -232q0 -138 90 -231q92 -92 228 -92q156 0 262 112l151 -157q-156 -170 -393 -179l-29 -65q58 0 97 -42t39 -108q0 -91 -61.5 -138.5t-172.5 -47.5 q-108 0 -176 51l53 109q54 -31 103 -31q35 0 57.5 18.5t22.5 49.5q0 43 -31 60t-101 17l58 140q-192 37 -318 184q-123 147 -123 350z" />
<glyph unicode="&#xe8;" horiz-adv-x="1169" d="M63 508v8q0 243 152 395q153 150 389 150q226 0 367 -150q143 -149 143 -370q0 -32 -4 -86h-803q6 -123 90.5 -197t220.5 -74q160 0 279 119l147 -143q-176 -185 -434 -185q-243 0 -395 146t-152 387zM313 627h551q0 91 -78 157q-77 68 -182 68q-114 0 -198 -66t-93 -159 zM340 1427h278l105 -297h-186z" />
<glyph unicode="&#xe9;" horiz-adv-x="1169" d="M63 508v8q0 243 152 395q153 150 389 150q226 0 367 -150q143 -149 143 -370q0 -32 -4 -86h-803q6 -123 90.5 -197t220.5 -74q160 0 279 119l147 -143q-176 -185 -434 -185q-243 0 -395 146t-152 387zM313 627h551q0 91 -78 157q-77 68 -182 68q-114 0 -198 -66t-93 -159 zM496 1130l104 297h279l-199 -297h-184z" />
<glyph unicode="&#xea;" horiz-adv-x="1169" d="M63 508v8q0 243 152 395q153 150 389 150q226 0 367 -150q143 -149 143 -370q0 -32 -4 -86h-803q6 -123 90.5 -197t220.5 -74q160 0 279 119l147 -143q-176 -185 -434 -185q-243 0 -395 146t-152 387zM258 1159l281 248h155l283 -248h-240l-121 119l-118 -119h-240z M313 627h551q0 91 -78 157q-77 68 -182 68q-114 0 -198 -66t-93 -159z" />
<glyph unicode="&#xeb;" horiz-adv-x="1169" d="M63 508v8q0 243 152 395q153 150 389 150q226 0 367 -150q143 -149 143 -370q0 -32 -4 -86h-803q6 -123 90.5 -197t220.5 -74q160 0 279 119l147 -143q-176 -185 -434 -185q-243 0 -395 146t-152 387zM263 1288q0 53 38 90t92 37t92 -37t38 -90t-38 -90t-92 -37t-92 37 t-38 90zM313 627h551q0 91 -78 157q-77 68 -182 68q-114 0 -198 -66t-93 -159zM688 1288q0 53 38.5 90t90.5 37q54 0 92.5 -36.5t38.5 -90.5t-38.5 -90.5t-92.5 -36.5q-52 0 -90.5 37t-38.5 90z" />
<glyph unicode="&#xec;" horiz-adv-x="503" d="M-39 1427h279l100 -297h-184zM109 242v790h245v-725q0 -61 15.5 -84.5t56.5 -23.5q23 0 43 4v-207q-40 -16 -123 -16q-237 0 -237 262z" />
<glyph unicode="&#xed;" horiz-adv-x="503" d="M109 242v790h245v-725q0 -61 15.5 -84.5t56.5 -23.5q23 0 43 4v-207q-40 -16 -123 -16q-237 0 -237 262zM115 1130l100 297h279l-195 -297h-184z" />
<glyph unicode="&#xee;" horiz-adv-x="530" d="M-53 1159l233 248h158l233 -248h-227l-86 129l-86 -129h-225zM135 242v790h244v-725q0 -58 16.5 -83t57.5 -25q23 0 43 4v-207q-40 -16 -123 -16q-238 0 -238 262z" />
<glyph unicode="&#xef;" horiz-adv-x="526" d="M-41 1290q0 51 37.5 88t91.5 37q51 0 89 -37t38 -88t-38 -87t-89 -36q-54 0 -91.5 36t-37.5 87zM131 242v790h244v-725q0 -60 16.5 -84t57.5 -24q23 0 43 4v-207q-43 -16 -125 -16q-236 0 -236 262zM291 1290q0 51 37 88q38 37 89.5 37t88.5 -37q38 -37 38 -88t-38 -88 q-37 -35 -88.5 -35t-89.5 35q-37 37 -37 88z" />
<glyph unicode="&#xf0;" horiz-adv-x="1105" d="M63 449q0 195 136 331q138 135 325 135q186 0 267 -112q-30 80 -91 159.5t-125 124.5l-133 -133l-145 136l111 114q-108 58 -226 82l60 205q162 -34 317 -127l154 154l145 -138l-135 -135q227 -202 291 -471q30 -129 30 -237q0 -259 -135 -412q-134 -152 -364 -152 q-201 0 -342 138q-140 140 -140 338zM305 449q0 -105 71.5 -176.5t176.5 -71.5t176.5 71.5t71.5 176.5q0 106 -71 177.5t-177 71.5t-177 -71.5t-71 -177.5z" />
<glyph unicode="&#xf1;" horiz-adv-x="1196" d="M109 0v1032h243v-147q37 76 120 122t190 46q182 0 283.5 -110.5t101.5 -303.5v-326q0 -61 14.5 -84.5t54.5 -23.5q15 0 35 4v-207q-43 -12 -107 -12q-241 0 -241 270v344q0 107 -57.5 168.5t-159.5 61.5q-103 0 -168.5 -67t-65.5 -173v-594h-243zM221 1204q12 104 75 168 t159 64q66 0 151 -43t127 -43q71 0 92 86l142 -19q-30 -246 -236 -246q-69 0 -156 43q-85 43 -126 43q-72 0 -87 -71z" />
<glyph unicode="&#xf2;" horiz-adv-x="1253" d="M63 516q0 233 164 389q166 158 400 158q233 0 399 -158q164 -156 164 -389t-164 -389q-166 -158 -399 -158q-234 0 -400 158q-164 156 -164 389zM307 516q0 -135 90 -231q92 -92 230 -92q135 0 227 92q92 95 92 231q0 137 -92 229q-92 95 -227 95q-138 0 -230 -95 q-90 -93 -90 -229zM344 1427h281l104 -297h-186z" />
<glyph unicode="&#xf3;" horiz-adv-x="1253" d="M63 516q0 233 164 389q166 158 400 158q233 0 399 -158q164 -156 164 -389t-164 -389q-166 -158 -399 -158q-234 0 -400 158q-164 156 -164 389zM307 516q0 -135 90 -231q92 -92 230 -92q135 0 227 92q92 95 92 231q0 137 -92 229q-92 95 -227 95q-138 0 -230 -95 q-90 -93 -90 -229zM530 1130l105 297h278l-198 -297h-185z" />
<glyph unicode="&#xf4;" horiz-adv-x="1253" d="M63 516q0 233 164 389q166 158 400 158q233 0 399 -158q164 -156 164 -389t-164 -389q-166 -158 -399 -158q-234 0 -400 158q-164 156 -164 389zM268 1159l281 248h156l282 -248h-239l-121 119l-119 -119h-240zM307 516q0 -135 90 -231q92 -92 230 -92q135 0 227 92 q92 95 92 231q0 137 -92 229q-92 95 -227 95q-138 0 -230 -95q-90 -93 -90 -229z" />
<glyph unicode="&#xf5;" horiz-adv-x="1253" d="M63 516q0 233 164 389q166 158 400 158q233 0 399 -158q164 -156 164 -389t-164 -389q-166 -158 -399 -158q-234 0 -400 158q-164 156 -164 389zM250 1204q14 105 76 168.5t157 63.5q67 0 152 -43q87 -43 129 -43q69 0 90 86l143 -19q-30 -246 -237 -246q-69 0 -156 43 q-85 43 -127 43q-69 0 -84 -71zM307 516q0 -135 90 -231q92 -92 230 -92q135 0 227 92q92 95 92 231q0 137 -92 229q-92 95 -227 95q-138 0 -230 -95q-90 -93 -90 -229z" />
<glyph unicode="&#xf6;" horiz-adv-x="1253" d="M63 516q0 233 164 389q166 158 400 158q233 0 399 -158q164 -156 164 -389t-164 -389q-166 -158 -399 -158q-234 0 -400 158q-164 156 -164 389zM284 1288q0 53 38 90t91.5 37t90.5 -37q38 -37 38 -90t-38 -90q-37 -37 -90.5 -37t-91.5 37t-38 90zM307 516 q0 -135 90 -231q92 -92 230 -92q135 0 227 92q92 95 92 231q0 137 -92 229q-92 95 -227 95q-138 0 -230 -95q-90 -93 -90 -229zM708 1288q0 53 37 90q38 37 92.5 37t92.5 -37t38 -90t-38 -90t-92.5 -37t-92.5 37q-37 37 -37 90z" />
<glyph unicode="&#xf7;" horiz-adv-x="1009" d="M88 604v217h836v-217h-836zM362 375q0 57 43.5 98t100.5 41t99 -41t42 -98q0 -59 -41.5 -100.5t-99.5 -41.5t-101 41.5t-43 100.5zM362 1053q0 57 43.5 98t100.5 41t99 -41t42 -98q0 -59 -41.5 -100.5t-99.5 -41.5t-101 41.5t-43 100.5z" />
<glyph unicode="&#xf8;" horiz-adv-x="1253" d="M63 516q0 233 164 389q166 158 400 158q139 0 250 -57l81 110l150 -108l-82 -105q164 -156 164 -387q0 -233 -164 -389q-166 -158 -399 -158q-132 0 -250 56l-90 -121l-148 108l86 115q-162 155 -162 389zM305 516q0 -115 70 -197l360 492q-49 27 -108 27 q-138 0 -230 -95q-92 -92 -92 -227zM518 219q46 -24 109 -24q137 0 229 92t92 229q0 113 -67 195z" />
<glyph unicode="&#xf9;" horiz-adv-x="1187" d="M96 393v639h246v-604q0 -107 55 -168t154 -61t162 67t63 172v594h246v-719q0 -65 17 -91.5t59 -26.5q15 0 51 4v-201q-43 -16 -121 -16q-92 0 -151 41q-60 48 -74 108q-89 -151 -314 -151q-184 0 -288.5 110.5t-104.5 302.5zM293 1427h280l105 -297h-184z" />
<glyph unicode="&#xfa;" horiz-adv-x="1187" d="M96 393v639h246v-604q0 -107 55 -168t154 -61t162 67t63 172v594h246v-719q0 -65 17 -91.5t59 -26.5q15 0 51 4v-201q-43 -16 -121 -16q-92 0 -151 41q-60 48 -74 108q-89 -151 -314 -151q-184 0 -288.5 110.5t-104.5 302.5zM455 1130l106 297h279l-199 -297h-186z" />
<glyph unicode="&#xfb;" horiz-adv-x="1187" d="M96 393v639h246v-604q0 -107 55 -168t154 -61t162 67t63 172v594h246v-719q0 -65 17 -91.5t59 -26.5q15 0 51 4v-201q-43 -16 -121 -16q-92 0 -151 41q-60 48 -74 108q-89 -151 -314 -151q-184 0 -288.5 110.5t-104.5 302.5zM213 1159l283 248h155l281 -248h-240 l-121 119l-118 -119h-240z" />
<glyph unicode="&#xfc;" horiz-adv-x="1187" d="M96 393v639h246v-604q0 -107 55 -168t154 -61t162 67t63 172v594h246v-719q0 -65 17 -91.5t59 -26.5q15 0 51 4v-201q-43 -16 -121 -16q-92 0 -151 41q-60 48 -74 108q-89 -151 -314 -151q-184 0 -288.5 110.5t-104.5 302.5zM228 1288q0 53 38 90t92 37t91 -37 q38 -37 38 -90t-38 -90q-37 -37 -91 -37t-92 37t-38 90zM653 1288q0 53 37 90q38 37 92 37t92 -37t38 -90t-38 -90t-92 -37t-92 37q-37 37 -37 90z" />
<glyph unicode="&#xfd;" horiz-adv-x="1126" d="M23 1032h247l303 -778l285 778h248l-463 -1200q-46 -119 -111 -184q-92 -86 -247 -86q-65 0 -121 16v215q50 -16 115 -16q54 0 90 22q34 21 59 88l27 74zM461 1130l104 297h281l-201 -297h-184z" />
<glyph unicode="&#xfe;" horiz-adv-x="1261" d="M109 -395v1822h245v-544q27 77 116 124.5t214 47.5q220 0 367 -156q149 -152 149 -383q0 -230 -149 -385q-148 -154 -367 -154q-125 0 -214 48t-116 125v-545h-245zM336 516q0 -135 90 -225q93 -90 225 -90q130 0 217 90q88 88 88 225t-88 225q-87 90 -217 90 q-132 0 -225 -90q-90 -90 -90 -225z" />
<glyph unicode="&#xff;" horiz-adv-x="1126" d="M23 1032h247l303 -778l285 778h248l-463 -1200q-46 -119 -111 -184q-92 -86 -247 -86q-65 0 -121 16v215q50 -16 115 -16q54 0 90 22q34 21 59 88l27 74zM233 1288q0 53 38.5 90t90.5 37q54 0 93 -36.5t39 -90.5t-39 -90.5t-93 -36.5q-52 0 -90.5 37t-38.5 90zM659 1288 q0 53 37 90q38 37 92.5 37t92.5 -37t38 -90t-38 -90t-92.5 -37t-92.5 37q-37 37 -37 90z" />
<glyph unicode="&#x152;" horiz-adv-x="2201" d="M82 713q0 313 219 526t533 213q319 0 491 -227v202h762v-231h-510v-340h471v-231h-471v-394h524v-231h-776v205q-166 -230 -491 -230q-316 0 -533 211q-219 213 -219 527zM338 713q0 -218 145 -363q148 -145 361 -145t358 145q148 148 148 363q0 214 -146 360 q-145 148 -360 148q-216 0 -361 -148q-145 -145 -145 -360z" />
<glyph unicode="&#x153;" horiz-adv-x="2037" d="M63 516q0 233 164 389q166 158 400 158q134 0 245 -57.5t181 -161.5q68 104 178 161.5t248 57.5q223 0 370 -156q150 -156 150 -387q0 -44 -2 -67h-826q6 -123 91 -194t225 -71q190 0 297 113l149 -149q-183 -183 -456 -183q-297 0 -426 211q-147 -211 -424 -211 q-234 0 -400 158q-164 156 -164 389zM307 516q0 -135 90 -231q92 -92 230 -92q135 0 227 92q92 95 92 231q0 137 -92 229q-92 95 -227 95q-138 0 -230 -95q-90 -93 -90 -229zM1180 627h569q-17 100 -96 164.5t-187 64.5q-109 0 -188 -64t-98 -165z" />
<glyph unicode="&#x178;" horiz-adv-x="1355" d="M37 1427h276l367 -628l364 628h275l-514 -874v-553h-254v553zM334 1640q0 51 38.5 89t92.5 38t91.5 -36.5t37.5 -90.5t-37.5 -90.5t-91.5 -36.5t-92.5 36.5t-38.5 90.5zM760 1640q0 52 38 89.5t91 37.5q54 0 92.5 -36.5t38.5 -90.5t-38.5 -90.5t-92.5 -36.5t-91.5 36.5 t-37.5 90.5z" />
<glyph unicode="&#x2c6;" horiz-adv-x="1165" d="M213 1159l276 248h187l278 -248h-239l-133 129l-129 -129h-240z" />
<glyph unicode="&#x2dc;" horiz-adv-x="1130" d="M193 1231q12 104 74.5 167.5t158.5 63.5q67 0 152 -43t127 -43q71 0 92 86l141 -18q-30 -244 -236 -244q-65 0 -155 41q-85 43 -127 43q-71 0 -86 -72z" />
<glyph unicode="&#x2000;" horiz-adv-x="911" />
<glyph unicode="&#x2001;" horiz-adv-x="1823" />
<glyph unicode="&#x2002;" horiz-adv-x="911" />
<glyph unicode="&#x2003;" horiz-adv-x="1823" />
<glyph unicode="&#x2004;" horiz-adv-x="607" />
<glyph unicode="&#x2005;" horiz-adv-x="455" />
<glyph unicode="&#x2006;" horiz-adv-x="303" />
<glyph unicode="&#x2007;" horiz-adv-x="303" />
<glyph unicode="&#x2008;" horiz-adv-x="227" />
<glyph unicode="&#x2009;" horiz-adv-x="364" />
<glyph unicode="&#x200a;" horiz-adv-x="101" />
<glyph unicode="&#x2010;" horiz-adv-x="851" d="M82 446v226h686v-226h-686z" />
<glyph unicode="&#x2011;" horiz-adv-x="851" d="M82 446v226h686v-226h-686z" />
<glyph unicode="&#x2012;" horiz-adv-x="851" d="M82 446v226h686v-226h-686z" />
<glyph unicode="&#x2013;" horiz-adv-x="1044" d="M80 446v226h885v-226h-885z" />
<glyph unicode="&#x2014;" horiz-adv-x="1488" d="M80 446v226h1329v-226h-1329z" />
<glyph unicode="&#x2018;" horiz-adv-x="464" d="M23 922l264 505h188l-188 -505h-264z" />
<glyph unicode="&#x2019;" horiz-adv-x="475" d="M14 922l187 505h264l-264 -505h-187z" />
<glyph unicode="&#x201a;" horiz-adv-x="450" d="M-63 -262l182 489h264l-258 -489h-188z" />
<glyph unicode="&#x201c;" horiz-adv-x="827" d="M23 922l264 505h188l-188 -505h-264zM387 922l262 505h189l-189 -505h-262z" />
<glyph unicode="&#x201d;" horiz-adv-x="837" d="M14 922l187 505h264l-264 -505h-187zM377 922l188 505h262l-264 -505h-186z" />
<glyph unicode="&#x201e;" horiz-adv-x="804" d="M-63 -262l182 489h264l-258 -489h-188zM299 -262l182 489h264l-258 -489h-188z" />
<glyph unicode="&#x2022;" horiz-adv-x="657" d="M115 518q0 90 63 151.5t152 61.5q87 0 150 -61.5t63 -151.5q4 -68 -35.5 -122t-96.5 -76.5t-123 -12.5t-110 58q-63 63 -63 153z" />
<glyph unicode="&#x2026;" horiz-adv-x="1245" d="M66 125q0 57 43 98t100 41t99 -41t42 -98q0 -59 -41.5 -100t-99.5 -41t-100.5 41t-42.5 100zM479 125q0 57 43.5 98t100.5 41t99 -41t42 -98q0 -59 -41.5 -100t-99.5 -41t-101 41t-43 100zM893 125q0 57 41.5 98t101.5 41q57 0 99.5 -41t42.5 -98q0 -59 -42 -100 t-100 -41q-60 0 -101.5 40.5t-41.5 100.5z" />
<glyph unicode="&#x202f;" horiz-adv-x="364" />
<glyph unicode="&#x2039;" horiz-adv-x="624" d="M68 518l237 373h254l-242 -373l242 -373h-254z" />
<glyph unicode="&#x203a;" horiz-adv-x="624" d="M66 145l241 373l-241 373h253l238 -373l-238 -373h-253z" />
<glyph unicode="&#x205f;" horiz-adv-x="455" />
<glyph unicode="&#x20ac;" horiz-adv-x="1546" d="M12 502l68 147h153q-2 14 -2 64q0 10 2 40t3 46h-183l66 147h137q71 229 252 367q186 139 418 139q311 0 522 -242l-176 -151q-134 162 -346 162q-132 0 -240 -74.5t-164 -200.5h520l-65 -147h-485q-9 -41 -9 -86q0 -43 6 -64h426l-67 -147h-338q51 -136 163.5 -216.5 t252.5 -80.5q218 0 356 166l176 -150q-208 -246 -532 -246q-238 0 -428 146q-185 142 -250 381h-236z" />
<glyph unicode="&#x2122;" horiz-adv-x="1804" d="M47 1210v217h686v-217h-225v-542h-232v542h-229zM831 668v759h107l336 -360l336 360h102v-759h-219v362l-219 -244l-223 244v-362h-220z" />
<glyph unicode="&#x25fc;" horiz-adv-x="1034" d="M0 0v1034h1034v-1034h-1034z" />
<glyph unicode="&#xfb01;" horiz-adv-x="1165" d="M55 809v223h170v51q0 120 26 189t87 114q94 70 295 70q100 0 168 -10v-209q-58 10 -137 10q-107 0 -155 -34t-48 -111v-70h553v-725q0 -60 16 -84t57 -24q23 0 43 4v-207q-43 -16 -124 -16q-236 0 -236 262v567h-307v-809h-238v809h-170z" />
<glyph unicode="&#xfb02;" horiz-adv-x="1314" d="M55 809v223h168v51q0 118 26.5 188t86.5 118q82 67 256 67q65 0 106 -8v-211q-30 10 -94 10q-76 0 -109.5 -33.5t-33.5 -111.5v-70h203v-223h-203v-809h-238v809h-168zM825 305v1122h244v-1089q0 -75 28.5 -109t94.5 -34q47 0 74 8v-219q-47 -13 -117 -13 q-324 0 -324 334z" />
<glyph unicode="&#xfb03;" horiz-adv-x="1708" d="M55 809v223h168v51q0 226 113 303q102 70 248 70q68 0 104 -8v-211q-30 10 -88 10q-74 0 -107.5 -34t-33.5 -111v-70h317v51q0 120 26 189t87 114q94 70 297 70q98 0 166 -10v-209q-58 10 -135 10q-109 0 -157 -33.5t-48 -111.5v-70h547v-725q0 -61 15 -84.5t56 -23.5 q23 0 43 4v-207q-40 -16 -123 -16q-237 0 -237 262v567h-299v-809h-238v809h-315v-809h-238v809h-168z" />
<glyph unicode="&#xfb04;" horiz-adv-x="1845" d="M55 809v223h168v51q0 226 113 303q102 70 248 70q68 0 104 -8v-211q-30 10 -88 10q-74 0 -107.5 -34t-33.5 -111v-70h317v51q0 90 21 158t54.5 108t83 65t99.5 33.5t111 8.5q68 0 104 -8v-211q-30 10 -92 10q-76 0 -110.5 -34t-34.5 -111v-70h205v-223h-203v-809h-238 v809h-315v-809h-238v809h-168zM1356 305v1122h246v-1089q0 -76 27.5 -109.5t94.5 -33.5q47 0 74 8v-219q-47 -13 -119 -13q-323 0 -323 334z" />
</font>
</defs>
</svg>
