<?xml version="1.0" standalone="no"?>
<!DOCTYPE svg PUBLIC "-//W3C//DTD SVG 1.1//EN" "http://www.w3.org/Graphics/SVG/1.1/DTD/svg11.dtd" >
<svg xmlns="http://www.w3.org/2000/svg">
<metadata></metadata>
<defs>
<font id="hurme_geometric_sans_4thin" horiz-adv-x="1314" >
<font-face units-per-em="2048" ascent="1589" descent="-459" />
<missing-glyph horiz-adv-x="843" />
<glyph horiz-adv-x="0" />
<glyph horiz-adv-x="682" />
<glyph unicode=" "  horiz-adv-x="843" />
<glyph unicode="&#x09;" horiz-adv-x="843" />
<glyph unicode="&#xa0;" horiz-adv-x="843" />
<glyph unicode="!" horiz-adv-x="413" d="M170 33q0 25 24.5 35.5t41.5 -9.5q20 -17 9 -41t-36 -24q-39 0 -39 39zM182 1427h54l-9 -1110h-37z" />
<glyph unicode="&#x22;" horiz-adv-x="417" d="M106 1427h52l-11 -516h-30zM262 1427h51l-10 -516h-31z" />
<glyph unicode="#" horiz-adv-x="1052" d="M74 502v37h196l86 338h-190v36h201l51 209h41l-53 -209h344l51 209h41l-54 -209h193v-36h-201l-86 -338h197v-37h-207l-55 -213h-41l55 213h-342l-55 -213h-41l55 213h-186zM311 539h342l86 338h-342z" />
<glyph unicode="$" horiz-adv-x="1052" d="M66 299l40 18q47 -135 150 -213t244 -84v734q-174 80 -250 159q-76 82 -76 228q0 131 92 217q93 87 234 90v205h43v-205q212 -15 307 -186l-37 -21q-83 151 -270 166v-625q209 -92 303 -186q90 -90 90 -254q0 -165 -105.5 -263t-287.5 -99v-199h-43v199q-154 6 -267 89 t-167 230zM217 1141q0 -130 68 -201q64 -66 215 -139v606q-125 -5 -204 -78t-79 -188zM543 20q163 1 256.5 90.5t93.5 231.5q0 143 -80 223q-75 81 -270 170v-715z" />
<glyph unicode="%" horiz-adv-x="1447" d="M90 1120q0 135 94 226q94 94 226 94q131 0 225 -94q94 -91 94 -226q0 -133 -94 -227q-95 -92 -225 -92q-131 0 -226 92q-94 94 -94 227zM133 1120q0 -113 80 -196q82 -82 197 -82t194 82q82 82 82 196q0 115 -82 197t-194 82q-115 0 -197 -82q-80 -83 -80 -197zM238 0 l923 1427h51l-923 -1427h-51zM719 307q0 130 92 225q95 95 227 95q134 0 226 -95q94 -94 94 -225t-94 -225q-91 -94 -226 -94q-133 0 -227 94q-92 95 -92 225zM762 307q0 -113 80 -196q82 -82 196 -82q116 0 195 82q82 82 82 196q0 115 -82 197t-195 82q-114 0 -196 -82 q-80 -83 -80 -197z" />
<glyph unicode="&#x26;" horiz-adv-x="1480" d="M104 442q0 314 342 447q-63 111 -63 231q0 144 88 232q89 92 229 92q135 0 224 -86q88 -82 88 -213q0 -163 -127 -234h540v-41h-292v-139q0 -262 -84 -450l276 -281h-57l-240 240q-157 -256 -450 -256q-214 0 -345 125q-129 126 -129 333zM147 442q0 -191 116.5 -304 t314.5 -113q284 0 415 247q-43 47 -166 170l-151 156q-140 144 -207 252q-322 -117 -322 -408zM426 1120q0 -207 266 -479l322 -330q76 162 76 420v139h-332v31q79 3 145 72q66 72 66 168q0 116 -75 189t-196 73q-108 0 -190 -76q-82 -73 -82 -207z" />
<glyph unicode="'" horiz-adv-x="262" d="M106 1427h52l-11 -516h-30z" />
<glyph unicode="(" horiz-adv-x="524" d="M113 633q0 563 450 952l25 -24q-428 -384 -428 -928t428 -928l-25 -24q-450 395 -450 952z" />
<glyph unicode=")" horiz-adv-x="524" d="M-59 -295q428 384 428 928t-428 928l24 24q451 -390 451 -952q0 -556 -451 -952z" />
<glyph unicode="*" horiz-adv-x="890" d="M156 1208l12 33l262 -96l-2 282h37l-2 -282l262 96l12 -33l-266 -92l176 -219l-29 -20l-172 221l-172 -221l-28 20l176 219z" />
<glyph unicode="+" horiz-adv-x="819" d="M102 694v41h285v301h43v-301h285v-41h-285v-305h-43v305h-285z" />
<glyph unicode="," horiz-adv-x="376" d="M-20 -262l202 489h62l-230 -489h-34z" />
<glyph unicode="-" horiz-adv-x="634" d="M100 516v41h437v-41h-437z" />
<glyph unicode="." horiz-adv-x="309" d="M117 33q0 25 24 35.5t41 -9.5q20 -17 9.5 -41t-35.5 -24q-39 0 -39 39z" />
<glyph unicode="/" horiz-adv-x="794" d="M18 -279l641 1760h48l-644 -1760h-45z" />
<glyph unicode="0" horiz-adv-x="1132" d="M98 715q0 250 6 315q18 189 150 303q133 115 311 115q179 0 312 -115t151 -303q6 -64 6 -315q0 -253 -6 -318q-18 -185 -149 -301t-314 -116q-180 0 -311 116q-132 117 -150 301q-6 65 -6 318zM141 715q0 -251 6 -316q15 -162 134 -272q119 -107 284 -107q166 0 285 107 q120 108 135 272q6 64 6 316q0 249 -6 313q-15 162 -135 270q-121 109 -285 109q-163 0 -284 -109q-119 -110 -134 -270q-6 -64 -6 -313z" />
<glyph unicode="1" horiz-adv-x="532" d="M61 1386v41h273v-1427h-43v1386h-230z" />
<glyph unicode="2" horiz-adv-x="1005" d="M45 0v31l686 766q67 72 91 133.5t24 142.5q0 136 -103 236q-101 98 -241 98q-142 0 -244 -102q-100 -100 -100 -242h-43q0 160 112 272q113 113 275 113q158 0 272 -111q115 -112 115 -266q0 -160 -121 -299l-655 -731h807v-41h-875z" />
<glyph unicode="3" horiz-adv-x="1118" d="M39 289l39 16q47 -128 170 -207q128 -78 282 -78q197 0 322 119t125 310q0 177 -121 292t-309 115q-89 0 -160 -22l-18 32l503 520h-700v41h770v-30l-502 -516q38 14 121 14q198 0 328 -127q129 -126 129 -319q0 -215 -137 -343q-138 -126 -351 -126q-171 0 -307 83 q-133 84 -184 226z" />
<glyph unicode="4" horiz-adv-x="1130" d="M100 367v30l508 1030h49l-503 -1017h751v366h45v-776h-45v367h-805z" />
<glyph unicode="5" horiz-adv-x="1116" d="M68 276l38 17q51 -123 165 -198t253 -75q188 0 318 127q129 129 129 316t-123 313q-124 127 -307 127q-197 0 -328 -131l-35 8l117 647h608v-41h-571l-101 -557q123 117 310 117q202 0 338 -139q137 -137 137 -342q0 -209 -142 -348q-140 -137 -350 -137 q-153 0 -276.5 80.5t-179.5 215.5z" />
<glyph unicode="6" horiz-adv-x="1148" d="M98 463q0 116 52 217l47 86q19 31 67 100l64 92l317 469h53l-399 -587q102 102 283 102q199 0 336 -137q139 -139 139 -342q0 -207 -139 -346q-137 -137 -340 -137q-205 0 -342 137q-138 138 -138 346zM145 461q0 -190 123 -316q125 -125 310 -125q184 0 311 127 q125 125 125 314q0 184 -125 309q-127 127 -311 127q-185 0 -310 -125q-123 -126 -123 -311z" />
<glyph unicode="7" horiz-adv-x="1095" d="M74 1386v41h960v-32l-672 -1395h-49l668 1386h-907z" />
<glyph unicode="8" horiz-adv-x="1075" d="M90 410q0 148 90 264q89 111 238 147q-98 31 -158.5 114.5t-60.5 186.5q0 136 96 232q98 94 242 94q145 0 239 -94q98 -94 98 -232q0 -104 -60.5 -187t-160.5 -114q149 -36 238 -147q92 -115 92 -264q0 -181 -131 -306q-127 -124 -315 -124t-318 124q-129 126 -129 306z M133 410q0 -163 117 -277q116 -113 287 -113q170 0 286 113q117 114 117 277q0 162 -117 276q-116 113 -286 113q-171 0 -287 -113q-117 -114 -117 -276zM242 1122q0 -119 86 -202q85 -82 209 -82q123 0 208 82q86 83 86 202q0 120 -86 203q-82 82 -208 82t-211 -82 q-84 -84 -84 -203z" />
<glyph unicode="9" horiz-adv-x="1142" d="M96 967q0 205 137 342q139 139 340 139q199 0 338 -139q138 -138 138 -340q0 -143 -103 -314l-448 -655h-54l394 573q-100 -81 -267 -81q-200 0 -338 135q-137 137 -137 340zM139 969q0 -187 125 -312t309 -125q186 0 310 130q123 129 123 307q0 186 -125 311 q-127 127 -308 127q-182 0 -309 -127q-125 -125 -125 -311z" />
<glyph unicode=":" horiz-adv-x="311" d="M117 233q0 25 24 36t41 -9q20 -17 9.5 -41t-35.5 -24q-39 0 -39 38zM117 799q0 25 24 35.5t41 -9.5q20 -17 9.5 -41t-35.5 -24q-39 0 -39 39z" />
<glyph unicode=";" horiz-adv-x="344" d="M-23 -229l191 456h61l-213 -456h-39zM158 799q0 25 24 35.5t41 -9.5q20 -17 9.5 -41t-35.5 -24q-39 0 -39 39z" />
<glyph unicode="&#x3c;" horiz-adv-x="823" d="M94 713v32l625 400v-47l-582 -369l582 -369v-47z" />
<glyph unicode="=" horiz-adv-x="905" d="M102 586v41h701v-41h-701zM102 825v41h701v-41h-701z" />
<glyph unicode="&#x3e;" horiz-adv-x="827" d="M106 313v47l582 369l-582 369v47l625 -400v-32z" />
<glyph unicode="?" horiz-adv-x="788" d="M104 1282v53q113 107 271 107q100 0 171 -31t101 -82q53 -85 53 -153q0 -144 -75 -224q-50 -54 -72 -71q-45 -35 -96 -72q-55 -37 -97 -70q-135 -105 -135 -211q0 -85 52.5 -130.5t150.5 -45.5q81 0 125 33v-43q-45 -31 -125 -31q-117 0 -181.5 57t-64.5 160 q0 124 144 238q5 3 38 27t58 41q16 12 38 27t35.5 25t22.5 17q151 126 139 273q0 38 -20 81q-22 60 -86 102t-176 42q-149 0 -271 -119zM346 33q0 25 24.5 35.5t41.5 -9.5q20 -17 9 -41t-36 -24q-39 0 -39 39z" />
<glyph unicode="@" horiz-adv-x="1648" d="M94 598q0 292 209 510q210 219 522 219q293 0 512 -201t219 -493q0 -205 -63 -306.5t-178 -101.5q-79 0 -127.5 52t-59.5 145q-32 -91 -116 -145t-189 -54q-149 0 -252 103q-102 105 -102 258t102 258q104 104 252 104q103 0 185 -53t114 -141v176h43v-443 q0 -98 36.5 -158.5t113.5 -60.5q198 0 198 367q0 271 -202 461q-201 192 -486 192q-284 0 -487 -203q-201 -201 -201 -485q0 -285 201 -489q204 -201 487 -201q183 0 342 90l19 -35q-172 -96 -361 -96q-300 0 -516 213q-215 212 -215 518zM512 584q0 -135 90 -228 q89 -92 221 -92q130 0 215.5 90t85.5 230q0 142 -86 231q-87 90 -215 90q-133 0 -221 -94q-90 -93 -90 -227z" />
<glyph unicode="A" d="M72 0l567 1427h37l567 -1427h-45l-172 432h-737l-172 -432h-45zM305 473h705l-353 891z" />
<glyph unicode="B" horiz-adv-x="1193" d="M205 0v1427h413q148 0 244 -96q99 -95 99 -244q0 -109 -56.5 -194t-152.5 -117q140 -21 225 -129q86 -109 86 -258q0 -163 -113 -276t-276 -113h-469zM248 41h424q146 0 246 100t100 248q0 158 -100 258q-103 103 -261 103h-409v-709zM248 791h368q132 0 215 83 q87 84 87 211q0 131 -84 215q-83 86 -218 86h-368v-595z" />
<glyph unicode="C" horiz-adv-x="1490" d="M113 713q0 313 211 524t526 211q158 0 301 -63t244 -175l-31 -28q-93 107 -227 166t-287 59q-297 0 -496 -199q-198 -198 -198 -495q0 -298 198 -496q200 -197 496 -197q152 0 286.5 59.5t227.5 166.5l31 -29q-101 -111 -244 -174t-301 -63q-314 0 -524 210 q-213 213 -213 523z" />
<glyph unicode="D" horiz-adv-x="1462" d="M205 0v1427h401q338 0 537 -196q200 -197 200 -518q0 -324 -200 -518q-201 -195 -535 -195h-403zM248 41h356q320 0 508 182q186 183 186 490t-188 489q-187 184 -508 184h-354v-1345z" />
<glyph unicode="E" horiz-adv-x="1097" d="M205 0v1427h747v-41h-704v-610h665v-41h-665v-694h719v-41h-762z" />
<glyph unicode="F" horiz-adv-x="978" d="M205 0v1427h655v-41h-612v-612h561v-41h-561v-733h-43z" />
<glyph unicode="G" horiz-adv-x="1503" d="M111 711q0 316 208 524q211 211 521 211q232 0 413 -117l-22 -33q-174 109 -391 109q-296 0 -492 -199q-194 -200 -194 -495q0 -294 194 -494q196 -199 492 -199q286 0 479 172v508h-506v41h549v-567q-219 -195 -522 -195q-312 0 -521 209q-208 211 -208 525z" />
<glyph unicode="H" horiz-adv-x="1406" d="M205 0v1427h43v-649h911v649h43v-1427h-43v737h-911v-737h-43z" />
<glyph unicode="I" horiz-adv-x="468" d="M213 0v1427h43v-1427h-43z" />
<glyph unicode="J" horiz-adv-x="669" d="M49 0v45q53 -20 127 -20q139 0 194.5 76t55.5 253v1073h43v-1071q0 -201 -63.5 -287.5t-229.5 -86.5q-62 0 -127 18z" />
<glyph unicode="K" horiz-adv-x="1236" d="M205 0v1427h43v-901l825 901h57l-579 -632l610 -795h-57l-584 762l-272 -297v-465h-43z" />
<glyph unicode="L" horiz-adv-x="991" d="M205 0v1427h43v-1386h647v-41h-690z" />
<glyph unicode="M" horiz-adv-x="1675" d="M205 0v1427h39l594 -1097l594 1097h38v-1427h-43v1331l-589 -1083l-590 1083v-1331h-43z" />
<glyph unicode="N" horiz-adv-x="1454" d="M205 0v1427h37l964 -1347v1347h43v-1427h-37l-964 1350v-1350h-43z" />
<glyph unicode="O" horiz-adv-x="1685" d="M113 713q0 311 211 522q213 213 520 213q305 0 518 -213q211 -211 211 -522q0 -314 -211 -525q-211 -208 -518 -208q-309 0 -520 208q-211 211 -211 525zM156 713q0 -297 196 -496q197 -197 492 -197t489 197q197 200 197 496q0 294 -199 493q-198 201 -487 201 t-490 -201q-198 -198 -198 -493z" />
<glyph unicode="P" horiz-adv-x="1099" d="M205 0v1427h362q196 0 310 -120q112 -118 112 -287q0 -178 -117 -295q-114 -117 -305 -117h-319v-608h-43zM248 649h319q179 0 279 109t100 262q0 150 -100 256q-101 110 -279 110h-319v-737z" />
<glyph unicode="Q" horiz-adv-x="1683" d="M113 713q0 311 211 522q213 213 518 213q307 0 520 -213q211 -211 211 -522q0 -164 -66 -310.5t-178 -240.5l156 -193l-33 -26l-154 194q-192 -157 -456 -157q-307 0 -518 208q-211 211 -211 525zM156 713q0 -297 196 -496q197 -197 490 -197q243 0 432 148l-295 364 l33 27l291 -366q227 199 227 520q0 294 -199 493q-201 201 -489 201q-287 0 -488 -201q-198 -198 -198 -493z" />
<glyph unicode="R" horiz-adv-x="1173" d="M205 0v1427h422q173 0 288 -112q117 -114 117 -283q0 -140 -80 -244t-215 -139l353 -649h-50l-346 639q-46 -4 -102 -4h-344v-635h-43zM248 676h377q160 0 260 100q104 101 104 256q0 151 -104 252q-102 102 -258 102h-379v-710z" />
<glyph unicode="S" horiz-adv-x="1107" d="M96 324l39 16q60 -153 177.5 -236.5t277.5 -83.5q175 0 274 89.5t99 232.5t-84 227q-85 85 -287 172q-97 43 -152 74t-108 74q-54 47 -77.5 103.5t-23.5 135.5q0 139 97 230q96 90 241 90q237 0 338 -186l-37 -21q-91 166 -301 166q-129 0 -212 -77t-83 -200 q0 -132 78 -204q83 -73 260 -148q213 -94 303 -184q91 -91 91 -252q0 -166 -112 -264t-304 -98q-177 0 -305.5 89t-188.5 255z" />
<glyph unicode="T" horiz-adv-x="1093" d="M78 1386v41h936v-41h-447v-1386h-43v1386h-446z" />
<glyph unicode="U" horiz-adv-x="1341" d="M195 451v976h43v-972q0 -202 115.5 -316t318.5 -114t318.5 114t115.5 316v972h43v-976q0 -220 -131 -345q-128 -122 -346 -122q-217 0 -348 122q-129 126 -129 345z" />
<glyph unicode="V" horiz-adv-x="1298" d="M88 1427h45l516 -1359l516 1359h45l-542 -1427h-37z" />
<glyph unicode="W" horiz-adv-x="1892" d="M72 1427h43l417 -1347l396 1347h37l395 -1347l418 1347h43l-443 -1427h-37l-395 1346l-395 -1346h-37z" />
<glyph unicode="X" horiz-adv-x="1275" d="M102 0l510 741l-485 686h51l461 -649l461 649h51l-485 -686l510 -741h-52l-485 705l-485 -705h-52z" />
<glyph unicode="Y" horiz-adv-x="1161" d="M66 1427h49l465 -759l467 759h49l-494 -806v-621h-43v621z" />
<glyph unicode="Z" horiz-adv-x="1251" d="M55 0v29l1047 1357h-932v41h991v-30l-1042 -1356h1028v-41h-1092z" />
<glyph unicode="[" horiz-adv-x="534" d="M188 -395v1822h336v-41h-293v-1740h293v-41h-336z" />
<glyph unicode="\" horiz-adv-x="796" d="M70 1481h47l641 -1760h-45z" />
<glyph unicode="]" horiz-adv-x="534" d="M12 -354h293v1740h-293v41h336v-1822h-336v41z" />
<glyph unicode="^" horiz-adv-x="1097" d="M66 717l464 743h35l467 -743h-45l-438 700l-438 -700h-45z" />
<glyph unicode="_" horiz-adv-x="638" d="M-2 -354h643v-41h-643v41z" />
<glyph unicode="`" horiz-adv-x="1134" d="M410 1427h51l139 -297h-37z" />
<glyph unicode="a" d="M88 516q0 228 150 381q150 156 368 156q161 0 286.5 -84.5t176.5 -227.5v291h43v-885q0 -122 96 -122q46 0 62 8v-37q-27 -10 -72 -10q-129 0 -129 161v144q-51 -143 -176.5 -227t-286.5 -84q-218 0 -368 153t-150 383zM131 516q0 -210 135 -354q139 -142 340 -142 q198 0 332 140q133 139 133 356t-133 356q-134 140 -332 140q-200 0 -340 -146q-135 -144 -135 -350z" />
<glyph unicode="b" horiz-adv-x="1243" d="M133 0v1427h43v-686q51 143 176.5 227.5t286.5 84.5q217 0 367 -156q151 -154 151 -381q0 -231 -149 -383q-150 -153 -369 -153q-161 0 -286.5 84t-176.5 227v-291h-43zM174 516q0 -219 131 -356q134 -140 334 -140q202 0 338 142q137 143 137 354q0 207 -137 350 q-137 146 -338 146q-200 0 -334 -140q-131 -137 -131 -356z" />
<glyph unicode="c" horiz-adv-x="1089" d="M88 516q0 230 156 383q157 154 383 154q241 0 391 -166l-27 -29q-145 154 -364 154q-214 0 -355 -144q-141 -141 -141 -352q0 -210 141 -354q142 -142 355 -142q219 0 364 154l27 -29q-149 -165 -391 -165q-227 0 -383 153t-156 383z" />
<glyph unicode="d" d="M88 516q0 228 150 381q150 156 368 156q161 0 286.5 -84.5t176.5 -227.5v686h43v-1280q0 -122 96 -122q46 0 62 8v-37q-27 -10 -72 -10q-129 0 -129 161v144q-51 -143 -176.5 -227t-286.5 -84q-218 0 -368 153t-150 383zM131 516q0 -210 135 -354q139 -142 340 -142 q198 0 332 140q133 139 133 356t-133 356q-134 140 -332 140q-200 0 -340 -146q-135 -144 -135 -350z" />
<glyph unicode="e" horiz-adv-x="1150" d="M88 514v2q0 230 141 383q145 154 351 154q202 0 342 -152q141 -150 141 -366q0 -23 -2 -29h-930q3 -212 129 -350q129 -138 322 -138q218 0 362 164l29 -26q-150 -179 -391 -179q-210 0 -353 152q-141 153 -141 385zM133 547h885q-3 196 -131 330q-126 135 -307 135 q-185 0 -314 -135q-130 -133 -133 -330z" />
<glyph unicode="f" horiz-adv-x="600" d="M66 991v41h151v109q0 166 80 243q65 62 178 62q59 0 80 -8v-39q-30 6 -84 6q-211 0 -211 -260v-113h268v-41h-268v-991h-43v991h-151z" />
<glyph unicode="g" horiz-adv-x="1245" d="M88 516q0 228 150 381q150 156 368 156q161 0 286.5 -84.5t176.5 -227.5v291h43v-901q0 -166 -31.5 -269t-117.5 -173q-131 -107 -355 -107q-318 0 -473 162l25 31q152 -152 448 -152q210 0 326 98q135 111 135 392v178q-51 -142 -176 -224.5t-287 -82.5q-217 0 -368 151 q-150 153 -150 381zM131 516q0 -209 135 -350q138 -141 340 -141q201 0 332 137q133 139 133 354q0 217 -133 356q-134 140 -332 140q-200 0 -340 -146q-135 -144 -135 -350z" />
<glyph unicode="h" horiz-adv-x="1159" d="M133 0v1427h43v-669q30 132 132.5 212.5t256.5 80.5q178 0 291 -119t113 -322v-442q0 -131 90 -131q15 0 45 6v-41q-21 -6 -51 -6q-127 0 -127 164v442q0 187 -100.5 297.5t-266.5 110.5q-179 0 -281 -130.5t-102 -351.5v-528h-43z" />
<glyph unicode="i" horiz-adv-x="370" d="M124 1294q-5 10 -5 20q1 8 5 18q10 20 32 20q39 0 39 -39t-39 -39q-22 0 -32 20zM135 137v895h43v-889q0 -118 94 -118q38 0 62 8v-39q-30 -10 -70 -10q-129 0 -129 153z" />
<glyph unicode="j" horiz-adv-x="309" d="M-109 -369q41 -6 86 -6q84 0 120 44t36 145v1218h43v-1218q0 -124 -49 -177t-152 -53q-47 0 -84 6v41zM115 1313q0 17 11 28t28 11q14 0 26.5 -13t12.5 -26q0 -17 -11 -28t-28 -11q-39 0 -39 39z" />
<glyph unicode="k" horiz-adv-x="872" d="M133 0v1427h43v-1028l574 633h57l-410 -452l447 -580h-56l-421 547l-191 -209v-338h-43z" />
<glyph unicode="l" horiz-adv-x="526" d="M135 260v1167h43v-1165q0 -242 187 -242q41 0 98 11v-41q-52 -10 -98 -10q-230 0 -230 280z" />
<glyph unicode="m" horiz-adv-x="1792" d="M133 0v1032h43v-274q24 132 121.5 212.5t241.5 80.5q131 0 220 -81t118 -227q65 308 360 308q177 0 271 -115t94 -326v-442q0 -131 90 -131q17 0 47 6v-41q-21 -6 -53 -6q-127 0 -127 164v442q0 197 -84.5 302.5t-247.5 105.5q-154 0 -243 -114t-89 -312v-584h-43v586 q0 198 -86 311t-238 113q-166 0 -259 -129.5t-93 -352.5v-528h-43z" />
<glyph unicode="n" horiz-adv-x="1167" d="M133 0v1032h43v-274q27 128 133 210.5t260 82.5q180 0 293 -119q115 -121 115 -322v-442q0 -131 90 -131q17 0 47 6v-41q-21 -6 -53 -6q-127 0 -127 164v442q0 187 -102.5 297.5t-268.5 110.5q-181 0 -284 -130t-103 -352v-528h-43z" />
<glyph unicode="o" horiz-adv-x="1243" d="M88 516q0 229 154 383t379 154q229 0 380 -154q154 -154 154 -383t-154 -383q-153 -153 -380 -153q-223 0 -379 153q-154 154 -154 383zM131 516q0 -209 139 -354q142 -142 351 -142q211 0 350 142q141 144 141 354q0 211 -141 352q-138 144 -350 144q-210 0 -351 -144 q-139 -142 -139 -352z" />
<glyph unicode="p" horiz-adv-x="1245" d="M133 -395v1427h43v-291q51 143 176.5 227.5t286.5 84.5q218 0 369 -154q149 -152 149 -383q0 -226 -151 -383q-150 -153 -367 -153q-161 0 -286.5 84t-176.5 227v-686h-43zM174 516q0 -219 131 -356q134 -140 334 -140q203 0 338 144q137 143 137 352q0 212 -137 352 q-135 144 -338 144q-200 0 -334 -140q-131 -137 -131 -356z" />
<glyph unicode="q" horiz-adv-x="1245" d="M88 516q0 230 150 383q151 154 368 154q161 0 286.5 -84.5t176.5 -227.5v291h43v-1427h-43v686q-51 -143 -176.5 -227t-286.5 -84q-218 0 -368 153q-150 156 -150 383zM131 516q0 -208 135 -352q138 -144 340 -144q198 0 332 140q133 139 133 356t-133 356 q-134 140 -332 140q-202 0 -340 -144q-135 -141 -135 -352z" />
<glyph unicode="r" horiz-adv-x="659" d="M133 0v1032h43v-280q9 105 115 200q108 99 274 99q21 0 31 -2v-39h-21q-210 -3 -305 -142q-94 -137 -94 -346v-522h-43z" />
<glyph unicode="s" horiz-adv-x="802" d="M53 231l37 15q89 -226 342 -226q121 0 190.5 62.5t69.5 163.5q0 104 -59 160q-53 53 -211 124q-141 63 -205 121q-63 57 -63 172q0 100 73 165t183 65q169 0 247 -140l-36 -18q-65 117 -211 117q-92 0 -151.5 -53.5t-59.5 -135.5q0 -93 54.5 -146t192.5 -112 q160 -71 226 -137q65 -65 65 -182q0 -118 -83 -192t-222 -74t-237.5 66t-141.5 185z" />
<glyph unicode="t" horiz-adv-x="663" d="M78 991v41h121v395h43v-395h346v-41h-346v-708q0 -141 53 -203t174 -62q62 0 119 13v-39q-50 -12 -115 -12q-142 0 -208 70.5t-66 232.5v708h-121z" />
<glyph unicode="u" horiz-adv-x="1148" d="M121 422v610h43v-602q0 -190 100 -299q102 -108 264 -108q181 0 283 129.5t102 351.5v528h43v-885q0 -122 97 -122q45 0 61 8v-37q-27 -10 -72 -10q-129 0 -129 161v127q-27 -128 -132 -210t-259 -82q-179 0 -291 118q-110 119 -110 322z" />
<glyph unicode="v" horiz-adv-x="1015" d="M47 1032h45l416 -966l416 966h45l-445 -1032h-32z" />
<glyph unicode="w" horiz-adv-x="1536" d="M49 1032h43l340 -956l318 956h36l318 -956l340 956h43l-367 -1032h-33l-319 963l-319 -963h-33z" />
<glyph unicode="x" horiz-adv-x="952" d="M70 0l383 543l-351 489h48l325 -454l330 454h47l-352 -487l385 -545h-47l-361 510l-360 -510h-47z" />
<glyph unicode="y" horiz-adv-x="978" d="M47 1032h47l383 -977l406 977h47l-510 -1220q-59 -140 -111 -183q-59 -47 -137 -47q-54 0 -84 15v41q34 -15 84 -15q66 0 111 39q42 36 92 154l78 184z" />
<glyph unicode="z" horiz-adv-x="995" d="M31 0v27l790 964h-698v41h762v-31l-791 -960h795v-41h-858z" />
<glyph unicode="{" horiz-adv-x="583" d="M74 500v32q44 0 86 25q48 28 65 78t17 151v400q0 241 198 241h45v-34h-41q-159 0 -159 -199v-354q0 -216 -58 -277q-32 -38 -96 -47q64 -9 96 -47q58 -61 58 -276v-355q0 -198 159 -198h41v-35h-45q-198 0 -198 241v400q0 101 -17 151t-65 78q-42 25 -86 25z" />
<glyph unicode="|" horiz-adv-x="432" d="M195 -51v1530h43v-1530h-43z" />
<glyph unicode="}" horiz-adv-x="583" d="M98 -360h41q160 0 160 198v355q0 216 57 276q32 37 97 47q-65 10 -97 47q-57 60 -57 277v354q0 199 -160 199h-41v34h45q199 0 199 -241v-400q0 -101 17 -151t65 -78q42 -25 86 -25v-32q-44 0 -86 -25q-48 -28 -65 -78t-17 -151v-400q0 -241 -199 -241h-45v35z" />
<glyph unicode="~" horiz-adv-x="813" d="M84 659q12 57 57.5 91t112.5 34q65 0 166 -55t158 -55q115 0 139 92l33 -2q-27 -129 -170 -129q-69 0 -170 55t-156 55q-116 0 -137 -92z" />
<glyph unicode="&#xa1;" horiz-adv-x="413" d="M170 989q0 39 39 39q17 0 28 -11t11 -28q0 -23 -19.5 -33t-39 -0.5t-19.5 33.5zM182 -412l8 1110h37l9 -1110h-54z" />
<glyph unicode="&#xa2;" horiz-adv-x="1124" d="M104 719q0 230 156 383t383 153q10 0 72 -4l39 176h39l-41 -182q170 -34 282 -155l-26 -29q-107 113 -265 143l-215 -968q60 -13 115 -13q220 0 365 154l26 -29q-150 -166 -391 -166q-58 0 -125 13l-43 -195h-39l45 205q-166 48 -272 188q-105 141 -105 326zM150 719 q0 -169 93.5 -297t248.5 -176l213 964q-54 4 -62 4q-212 0 -352 -143q-141 -141 -141 -352z" />
<glyph unicode="&#xa3;" horiz-adv-x="1175" d="M100 0v39h4q186 3 295 98q111 95 111 244q0 51 -21 106q-17 54 -36 91l-58 96h-221v41h195q-71 102 -104.5 178.5t-33.5 159.5q0 161 115 276t277 115q161 0 276 -115t115 -276h-43q0 144 -103 247t-243 103q-145 0 -248 -103t-103 -247q0 -58 25 -125q19 -51 47 -105 l72 -108h336v-41h-310q109 -171 109 -291q0 -121 -63.5 -210t-176.5 -132h746v-41h-959z" />
<glyph unicode="&#xa4;" horiz-adv-x="1363" d="M199 209l155 160q-123 126 -123 313q0 189 123 315l-155 160l28 29l152 -164q126 117 303 117q176 0 303 -115l154 166l28 -29l-157 -162q125 -131 125 -317t-123 -315l155 -160l-28 -29l-154 164q-127 -115 -303 -115q-177 0 -303 117l-152 -164zM274 682 q0 -175 117 -295q119 -119 291 -119q174 0 293 119t119 295t-119 295q-121 121 -293 121q-170 0 -291 -121q-117 -120 -117 -295z" />
<glyph unicode="&#xa5;" horiz-adv-x="1157" d="M63 1427h50l467 -761l467 761h47l-351 -573h293v-41h-317l-117 -190h434v-41h-434v-582h-43v582h-438v41h436l-117 190h-319v41h295z" />
<glyph unicode="&#xa6;" horiz-adv-x="432" d="M195 0v602h43v-602h-43zM195 850v577h43v-577h-43z" />
<glyph unicode="&#xa7;" horiz-adv-x="1042" d="M80 612q0 108 65.5 184.5t202.5 106.5q-83 57 -119 114.5t-36 149.5q0 125 90 209q88 82 229 82q146 0 234 -89t88 -232h-43q0 110 -72 194q-71 86 -207 86q-122 0 -199 -70t-77 -180q0 -89 47 -155q21 -28 59 -56l68 -43l86 -45q263 -133 344 -211q104 -101 104 -237 q0 -234 -268 -293q155 -82 155 -262q0 -126 -92 -209q-88 -82 -227 -82q-145 0 -233.5 89.5t-88.5 232.5h43q0 -113 70 -195q71 -86 209 -86q119 0 197.5 70t78.5 180q0 63 -18 106.5t-61 79.5q-45 39 -76 55q-35 21 -107 58q-238 119 -333 205q-113 101 -113 243zM123 612 q0 -129 96 -213q94 -78 320 -192q5 -4 42 -23.5t48 -25.5q272 46 272 262q0 139 -125 233q-75 58 -125 84q-35 22 -168 90l-88 45q-272 -46 -272 -260z" />
<glyph unicode="&#xa8;" horiz-adv-x="1273" d="M389 1313q0 17 11 28t28 11q14 0 26.5 -13t12.5 -26q0 -17 -11 -28t-28 -11q-39 0 -39 39zM809 1313q0 24 19.5 33.5t39 -0.5t19.5 -33q0 -17 -11 -28t-28 -11q-39 0 -39 39z" />
<glyph unicode="&#xa9;" horiz-adv-x="1650" d="M102 713q0 305 207 518q208 211 516 211q306 0 514 -211q209 -212 209 -518q0 -309 -209 -518t-514 -209t-514 209q-209 212 -209 518zM145 713q0 -289 195 -490q196 -196 485 -196q291 0 484 196q196 199 196 490q0 293 -196 489q-193 199 -484 199q-289 0 -485 -199 q-195 -198 -195 -489zM424 717q0 177 119 293q118 118 297 118q180 0 307 -127l-25 -28q-120 114 -282 114q-161 0 -267 -106t-106 -264q0 -160 106 -266q107 -107 267 -107q163 0 282 113l25 -29q-125 -125 -307 -125q-178 0 -297 119t-119 295z" />
<glyph unicode="&#xaa;" horiz-adv-x="1103" d="M233 860q0 212 297 227q128 6 175 34.5t47 111.5q0 72 -56.5 118t-146.5 46q-152 0 -223 -142l-33 23q77 160 256 160q114 0 180 -58t66 -147v-467q0 -61 47 -61q17 0 37 4v-37q-21 -8 -48 -8q-79 0 -79 102v10q-59 -127 -273 -127q-114 0 -180 58t-66 153zM276 862 q0 -77 53 -124.5t152 -47.5q132 0 201.5 62t69.5 166v198q-24 -35 -71.5 -49t-150.5 -20q-254 -12 -254 -185z" />
<glyph unicode="&#xab;" horiz-adv-x="649" d="M88 518l225 359h47l-225 -359l225 -358h-47zM293 518l225 359h49l-225 -359l225 -358h-49z" />
<glyph unicode="&#xac;" horiz-adv-x="1081" d="M102 782v41h879v-403h-43v362h-836z" />
<glyph unicode="&#xad;" horiz-adv-x="634" d="M100 516v41h437v-41h-437z" />
<glyph unicode="&#xae;" horiz-adv-x="851" d="M102 1124q0 140 93 230q95 92 229 92q136 0 231 -92q95 -89 95 -230q0 -139 -95 -231q-96 -90 -231 -90q-136 0 -229 90q-93 93 -93 231zM145 1124q0 -121 78 -202q81 -78 201 -78t201 78q82 79 82 202q0 124 -82 203q-80 80 -201 80t-201 -80q-78 -81 -78 -203zM311 942 v375h129q53 0 85 -32.5t32 -82.5q0 -79 -72 -110l90 -150h-51l-84 139h-86v-139h-43zM354 1124h86q30 0 51 22.5t21 53.5q0 32 -20.5 54t-51.5 22h-86v-152z" />
<glyph unicode="&#xaf;" horiz-adv-x="1302" d="M350 1386v41h602v-41h-602z" />
<glyph unicode="&#xb0;" horiz-adv-x="690" d="M115 1204q0 95 67 162q68 68 162 68q96 0 164 -68q70 -67 70 -162t-70 -162q-67 -67 -164 -67q-95 0 -162 67t-67 162zM158 1204q0 -75 55.5 -131.5t130.5 -56.5q78 0 134.5 56.5t56.5 131.5q0 76 -56.5 132.5t-134.5 56.5q-75 0 -130.5 -57t-55.5 -132z" />
<glyph unicode="&#xb1;" horiz-adv-x="819" d="M102 100v41h613v-41h-613zM102 694v41h285v301h43v-301h285v-41h-285v-305h-43v305h-285z" />
<glyph unicode="&#xb2;" horiz-adv-x="708" d="M113 672v26l360 404q51 57 51 137q0 68 -50 116t-122 48q-67 0 -116.5 -50t-49.5 -118h-43q0 86 61.5 147.5t147.5 61.5q90 0 152.5 -60t62.5 -145q0 -99 -65 -170l-324 -356h402v-41h-467z" />
<glyph unicode="&#xb3;" horiz-adv-x="743" d="M102 823l39 15q29 -66 84.5 -103t124.5 -37q103 0 168.5 59t65.5 152q0 82 -61.5 139.5t-149.5 57.5q-63 0 -119 -16l-21 34l275 262h-356v41h434v-24l-277 -262q3 0 30 3t36 3q106 0 179 -68t73 -170q0 -114 -78 -183t-199 -69q-84 0 -150.5 45t-97.5 121z" />
<glyph unicode="&#xb4;" horiz-adv-x="1134" d="M530 1130l140 297h51l-154 -297h-37z" />
<glyph unicode="&#xb6;" horiz-adv-x="862" d="M74 1024q0 169 116 285q118 118 287 118h352v-41h-137v-1386h-43v1386h-151v-1386h-43v621q-159 9 -271 124q-110 116 -110 279z" />
<glyph unicode="&#xb7;" horiz-adv-x="288" d="M106 516q0 17 11 28t28 11q23 0 33 -19.5t0.5 -39t-33.5 -19.5q-39 0 -39 39z" />
<glyph unicode="&#xb8;" horiz-adv-x="1116" d="M449 -295l20 29q44 -33 96 -33q35 0 57.5 17.5t22.5 43.5q0 76 -102 76q-1 0 -47 -4l73 166h41l-59 -131q6 2 24 2q48 0 80.5 -29t32.5 -75q0 -49 -33 -77t-88 -28q-69 0 -118 43z" />
<glyph unicode="&#xb9;" horiz-adv-x="468" d="M131 1386v41h141v-755h-43v714h-98z" />
<glyph unicode="&#xba;" horiz-adv-x="966" d="M84 1049q0 162 115 280q117 117 284 117q169 0 283 -117q117 -117 117 -280q0 -166 -117 -283q-118 -115 -283 -115q-164 0 -282 115q-117 117 -117 283zM127 1049q0 -148 104 -252q105 -105 252 -105t252 105t105 252q0 144 -105 249q-104 107 -252 107t-252 -107 q-104 -104 -104 -249z" />
<glyph unicode="&#xbb;" horiz-adv-x="649" d="M88 160l225 358l-225 359h49l225 -359l-225 -358h-49zM295 160l225 358l-225 359h47l225 -359l-225 -358h-47z" />
<glyph unicode="&#xbc;" horiz-adv-x="1298" d="M74 0l887 1427h55l-887 -1427h-55zM106 1386v41h142v-755h-43v714h-99zM666 184v29l268 543h47l-262 -531h401v185h43v-410h-43v184h-454z" />
<glyph unicode="&#xbd;" horiz-adv-x="1349" d="M74 0l887 1427h55l-887 -1427h-55zM106 1386v41h142v-755h-43v714h-99zM756 0v27l360 403q51 57 51 137q0 68 -50 116t-122 48q-67 0 -116.5 -50t-49.5 -118h-43q0 86 61.5 147.5t147.5 61.5q90 0 152.5 -60t62.5 -145q0 -99 -65 -170l-324 -356h402v-41h-467z" />
<glyph unicode="&#xbe;" horiz-adv-x="1599" d="M109 823l38 15q29 -66 84.5 -103t124.5 -37q103 0 168.5 59t65.5 152q0 82 -61.5 139.5t-149.5 57.5q-63 0 -119 -16l-20 34l274 262h-356v41h434v-24l-277 -262q3 0 30 3t36 3q106 0 179 -68t73 -170q0 -114 -78 -183t-199 -69q-84 0 -150 45t-97 121zM395 0l887 1427 h55l-886 -1427h-56zM967 184v29l268 543h47l-262 -531h401v185h43v-410h-43v184h-454z" />
<glyph unicode="&#xbf;" horiz-adv-x="788" d="M88 -158q0 138 74 221q39 44 74 72q67 52 96 72q51 37 96 72q135 105 135 210q0 85 -52.5 131t-150.5 46q-80 0 -124 -33v43q45 31 124 31q117 0 181.5 -57.5t64.5 -160.5q0 -124 -143 -237l-98 -70q-73 -49 -95 -69q-62 -49 -104 -118.5t-35 -152.5q0 -30 19 -82 q61 -143 264 -143q148 0 270 119v-53q-113 -107 -270 -107q-100 0 -171.5 31t-103.5 82q-51 86 -51 153zM369.5 1010.5q9.5 19.5 33.5 19.5q39 0 39 -39q0 -17 -11 -28t-28 -11q-23 0 -33 19.5t-0.5 39z" />
<glyph unicode="&#xc0;" d="M72 0l567 1427h37l567 -1427h-45l-172 432h-737l-172 -432h-45zM305 473h705l-353 891zM506 1823h51l139 -297h-37z" />
<glyph unicode="&#xc1;" d="M72 0l567 1427h37l567 -1427h-45l-172 432h-737l-172 -432h-45zM305 473h705l-353 891zM608 1526l140 297h51l-154 -297h-37z" />
<glyph unicode="&#xc2;" d="M72 0l567 1427h37l567 -1427h-45l-172 432h-737l-172 -432h-45zM305 473h705l-353 891zM362 1575l275 258h37l274 -258h-57l-236 223l-237 -223h-56z" />
<glyph unicode="&#xc3;" d="M72 0l567 1427h37l567 -1427h-45l-172 432h-737l-172 -432h-45zM305 473h705l-353 891zM373 1587q8 57 47 93t96 36q63 0 143 -51q82 -49 132 -49q98 0 116 108l31 -2q-8 -67 -46.5 -106t-98.5 -39q-64 0 -146 49q-77 51 -129 51q-94 0 -115 -92z" />
<glyph unicode="&#xc4;" d="M72 0l567 1427h37l567 -1427h-45l-172 432h-737l-172 -432h-45zM305 473h705l-353 891zM408 1618q0 25 24 36t41 -9q20 -17 9 -41.5t-36 -24.5q-38 0 -38 39zM827 1618q0 17 11 28t28 11q23 0 33 -19.5t0.5 -39t-33.5 -19.5q-39 0 -39 39z" />
<glyph unicode="&#xc5;" horiz-adv-x="1310" d="M72 0l561 1430q-45 8 -76 43t-31 81q0 52 38 89.5t91 37.5t91 -37.5t38 -89.5q0 -45 -30.5 -81t-77.5 -43l563 -1430h-47l-172 432h-729l-172 -432h-47zM307 473h697l-349 895zM569 1554q0 -35 25 -61q26 -25 61 -25t60 25q26 26 26 61t-26 60q-25 26 -60 26t-61 -26 q-25 -25 -25 -60z" />
<glyph unicode="&#xc6;" horiz-adv-x="1966" d="M49 0l1098 1427h676v-41h-647v-610h608v-41h-608v-694h661v-41h-704v401h-719l-310 -401h-55zM444 442h689v897z" />
<glyph unicode="&#xc7;" horiz-adv-x="1490" d="M113 713q0 313 211 524t526 211q158 0 301 -63t244 -175l-31 -28q-93 107 -227 166t-287 59q-297 0 -496 -199q-198 -198 -198 -495q0 -298 198 -496q200 -197 496 -197q152 0 286.5 59.5t227.5 166.5l31 -29q-101 -111 -244 -174t-301 -63q-50 0 -64 2l-51 -113 q6 2 25 2q48 0 80 -29t32 -75q0 -49 -32.5 -77t-87.5 -28q-70 0 -119 43l20 29q44 -33 97 -33q35 0 57 17.5t22 43.5q0 76 -102 76q-1 0 -47 -4l68 154q-275 34 -457 237q-178 205 -178 488z" />
<glyph unicode="&#xc8;" horiz-adv-x="1097" d="M205 0v1427h747v-41h-704v-610h665v-41h-665v-694h719v-41h-762zM432 1823h51l140 -297h-37z" />
<glyph unicode="&#xc9;" horiz-adv-x="1097" d="M205 0v1427h747v-41h-704v-610h665v-41h-665v-694h719v-41h-762zM528 1526l140 297h51l-154 -297h-37z" />
<glyph unicode="&#xca;" horiz-adv-x="1097" d="M205 0v1427h747v-41h-704v-610h665v-41h-665v-694h719v-41h-762zM285 1575l274 258h37l274 -258h-57l-235 223l-238 -223h-55z" />
<glyph unicode="&#xcb;" horiz-adv-x="1097" d="M205 0v1427h747v-41h-704v-610h665v-41h-665v-694h719v-41h-762zM336 1626q0 17 11 28t28 11q23 0 33 -19.5t0.5 -39t-33.5 -19.5q-39 0 -39 39zM756 1626q0 25 24 36t41 -9q20 -17 9.5 -41.5t-35.5 -24.5q-39 0 -39 39z" />
<glyph unicode="&#xcc;" horiz-adv-x="468" d="M61 1823h52l139 -297h-37zM213 0v1427h43v-1427h-43z" />
<glyph unicode="&#xcd;" horiz-adv-x="468" d="M213 0v1427h43v-1427h-43zM213 1526l139 297h51l-153 -297h-37z" />
<glyph unicode="&#xce;" horiz-adv-x="468" d="M-25 1575l242 258h37l242 -258h-56l-204 217l-207 -217h-54zM213 0v1427h43v-1427h-43z" />
<glyph unicode="&#xcf;" horiz-adv-x="468" d="M31 1626q0 25 24 36t41 -9q20 -17 9.5 -41.5t-35.5 -24.5q-39 0 -39 39zM213 0v1427h43v-1427h-43zM360 1626q0 17 11 28t28 11q23 0 33 -19.5t0.5 -39t-33.5 -19.5q-39 0 -39 39z" />
<glyph unicode="&#xd0;" horiz-adv-x="1462" d="M90 715v41h115v671h401q338 0 537 -196q200 -194 200 -518q0 -326 -198 -518q-201 -195 -537 -195h-403v715h-115zM248 41h358q320 0 508 182q186 183 186 490t-188 489q-187 184 -508 184h-356v-630h297v-41h-297v-674z" />
<glyph unicode="&#xd1;" horiz-adv-x="1454" d="M205 0v1427h37l964 -1347v1347h43v-1427h-37l-964 1350v-1350h-43zM446 1587q8 57 47.5 93t96.5 36q64 0 141 -51t133 -51q99 0 117 112l31 -4q-8 -68 -47.5 -106.5t-100.5 -38.5q-64 0 -141 51q-74 51 -131 51q-45 0 -76.5 -25t-38.5 -69z" />
<glyph unicode="&#xd2;" horiz-adv-x="1685" d="M113 713q0 311 211 522q213 213 520 213q305 0 518 -213q211 -211 211 -522q0 -314 -211 -525q-211 -208 -518 -208q-309 0 -520 208q-211 211 -211 525zM156 713q0 -297 196 -496q197 -197 492 -197t489 197q197 200 197 496q0 294 -199 493q-198 201 -487 201 t-490 -201q-198 -198 -198 -493zM670 1823h51l139 -297h-37z" />
<glyph unicode="&#xd3;" horiz-adv-x="1685" d="M113 713q0 311 211 522q213 213 520 213q305 0 518 -213q211 -211 211 -522q0 -314 -211 -525q-211 -208 -518 -208q-309 0 -520 208q-211 211 -211 525zM156 713q0 -297 196 -496q197 -197 492 -197t489 197q197 200 197 496q0 294 -199 493q-198 201 -487 201 t-490 -201q-198 -198 -198 -493zM803 1526l139 297h51l-153 -297h-37z" />
<glyph unicode="&#xd4;" horiz-adv-x="1685" d="M113 713q0 311 211 522q213 213 520 213q305 0 518 -213q211 -211 211 -522q0 -314 -211 -525q-211 -208 -518 -208q-309 0 -520 208q-211 211 -211 525zM156 713q0 -297 196 -496q197 -197 492 -197t489 197q197 200 197 496q0 294 -199 493q-198 201 -487 201 t-490 -201q-198 -198 -198 -493zM551 1575l274 258h37l275 -258h-58l-235 223l-238 -223h-55z" />
<glyph unicode="&#xd5;" horiz-adv-x="1685" d="M113 713q0 311 211 522q213 213 520 213q305 0 518 -213q211 -211 211 -522q0 -314 -211 -525q-211 -208 -518 -208q-309 0 -520 208q-211 211 -211 525zM156 713q0 -297 196 -496q197 -197 492 -197t489 197q197 200 197 496q0 294 -199 493q-198 201 -487 201 t-490 -201q-198 -198 -198 -493zM557 1587q11 58 50 93.5t95 35.5q63 0 140 -51t133 -51q102 0 117 112l32 -4q-11 -69 -48.5 -107t-98.5 -38q-64 0 -141 51t-134 51q-43 0 -74 -25.5t-38 -68.5z" />
<glyph unicode="&#xd6;" horiz-adv-x="1685" d="M113 713q0 311 211 522q213 213 520 213q305 0 518 -213q211 -211 211 -522q0 -314 -211 -525q-211 -208 -518 -208q-309 0 -520 208q-211 211 -211 525zM156 713q0 -297 196 -496q197 -197 492 -197t489 197q197 200 197 496q0 294 -199 493q-198 201 -487 201 t-490 -201q-198 -198 -198 -493zM596 1618q0 25 24.5 36t41.5 -9q20 -17 9 -41.5t-36 -24.5q-39 0 -39 39zM1016 1618q0 17 11 28t28 11q23 0 33 -19.5t0.5 -39t-33.5 -19.5q-39 0 -39 39z" />
<glyph unicode="&#xd7;" horiz-adv-x="819" d="M129 428l254 254l-252 254l27 29l252 -256l252 256l26 -29l-252 -254l254 -254l-26 -27l-254 254l-254 -254z" />
<glyph unicode="&#xd8;" horiz-adv-x="1685" d="M113 713q0 311 211 522q213 213 520 213q242 0 434 -139l123 164l33 -27l-123 -164q124 -104 193 -251.5t69 -317.5q0 -314 -211 -525q-211 -208 -518 -208q-238 0 -420 126l-119 -157l-33 24l119 156q-132 101 -205 253t-73 331zM156 713q0 -169 68 -313t192 -238 l835 1112q-180 133 -407 133q-289 0 -490 -201q-198 -198 -198 -493zM449 139q174 -119 395 -119q295 0 489 197q197 200 197 496q0 159 -65 299.5t-181 234.5z" />
<glyph unicode="&#xd9;" horiz-adv-x="1341" d="M195 451v976h43v-972q0 -202 115.5 -316t318.5 -114t318.5 114t115.5 316v972h43v-976q0 -220 -131 -345q-128 -122 -346 -122q-217 0 -348 122q-129 126 -129 345zM526 1823h52l139 -297h-37z" />
<glyph unicode="&#xda;" horiz-adv-x="1341" d="M195 451v976h43v-972q0 -202 115.5 -316t318.5 -114t318.5 114t115.5 316v972h43v-976q0 -220 -131 -345q-128 -122 -346 -122q-217 0 -348 122q-129 126 -129 345zM627 1526l139 297h51l-153 -297h-37z" />
<glyph unicode="&#xdb;" horiz-adv-x="1341" d="M195 451v976h43v-972q0 -202 115.5 -316t318.5 -114t318.5 114t115.5 316v972h43v-976q0 -220 -131 -345q-128 -122 -346 -122q-217 0 -348 122q-129 126 -129 345zM379 1575l274 258h37l275 -258h-58l-235 223l-238 -223h-55z" />
<glyph unicode="&#xdc;" horiz-adv-x="1341" d="M195 451v976h43v-972q0 -202 115.5 -316t318.5 -114t318.5 114t115.5 316v972h43v-976q0 -220 -131 -345q-128 -122 -346 -122q-217 0 -348 122q-129 126 -129 345zM424 1618q0 25 24 36t41 -9q20 -17 9.5 -41.5t-35.5 -24.5q-39 0 -39 39zM844 1618q0 17 11 28t28 11 q23 0 33 -19.5t0.5 -39t-33.5 -19.5q-39 0 -39 39z" />
<glyph unicode="&#xdd;" horiz-adv-x="1161" d="M66 1427h49l465 -759l467 759h49l-494 -806v-621h-43v621zM535 1526l139 297h51l-154 -297h-36z" />
<glyph unicode="&#xde;" horiz-adv-x="897" d="M205 0v1427h43v-331h155q173 0 283 -113q111 -111 111 -276q0 -167 -111 -281q-111 -111 -280 -111h-158v-315h-43zM248 356h155q151 0 250 99q101 101 101 252q0 150 -99 249t-254 99h-153v-699z" />
<glyph unicode="&#xdf;" horiz-adv-x="1103" d="M131 0v1128q0 132 92 224t221 92q132 0 222 -90t90 -219q0 -185 -158 -275h10q180 0 297 -129q119 -128 119 -309q0 -191 -135 -320t-336 -129q-37 0 -109 11v43q57 -13 109 -13q182 0 305 117t123 291q0 164 -115 285q-112 118 -297 118q-39 0 -49 -2q-38 -9 -76 -12v37 q118 11 194.5 89.5t76.5 190.5q0 115 -80 195q-77 80 -191 80q-112 0 -192 -80q-78 -81 -78 -195v-1128h-43z" />
<glyph unicode="&#xe0;" d="M88 516q0 228 150 381q150 156 368 156q161 0 286.5 -84.5t176.5 -227.5v291h43v-885q0 -122 96 -122q46 0 62 8v-37q-27 -10 -72 -10q-129 0 -129 161v144q-51 -143 -176.5 -227t-286.5 -84q-218 0 -368 153t-150 383zM131 516q0 -210 135 -354q139 -142 340 -142 q198 0 332 140q133 139 133 356t-133 356q-134 140 -332 140q-200 0 -340 -146q-135 -144 -135 -350zM451 1427h51l139 -297h-37z" />
<glyph unicode="&#xe1;" d="M88 516q0 228 150 381q150 156 368 156q161 0 286.5 -84.5t176.5 -227.5v291h43v-885q0 -122 96 -122q46 0 62 8v-37q-27 -10 -72 -10q-129 0 -129 161v144q-51 -143 -176.5 -227t-286.5 -84q-218 0 -368 153t-150 383zM131 516q0 -210 135 -354q139 -142 340 -142 q198 0 332 140q133 139 133 356t-133 356q-134 140 -332 140q-200 0 -340 -146q-135 -144 -135 -350zM559 1130l139 297h52l-154 -297h-37z" />
<glyph unicode="&#xe2;" d="M88 516q0 228 150 381q150 156 368 156q161 0 286.5 -84.5t176.5 -227.5v291h43v-885q0 -122 96 -122q46 0 62 8v-37q-27 -10 -72 -10q-129 0 -129 161v144q-51 -143 -176.5 -227t-286.5 -84q-218 0 -368 153t-150 383zM131 516q0 -210 135 -354q139 -142 340 -142 q198 0 332 140q133 139 133 356t-133 356q-134 140 -332 140q-200 0 -340 -146q-135 -144 -135 -350zM328 1180l274 258h37l274 -258h-57l-235 223l-238 -223h-55z" />
<glyph unicode="&#xe3;" d="M88 516q0 228 150 381q150 156 368 156q161 0 286.5 -84.5t176.5 -227.5v291h43v-885q0 -122 96 -122q46 0 62 8v-37q-27 -10 -72 -10q-129 0 -129 161v144q-51 -143 -176.5 -227t-286.5 -84q-218 0 -368 153t-150 383zM131 516q0 -210 135 -354q139 -142 340 -142 q198 0 332 140q133 139 133 356t-133 356q-134 140 -332 140q-200 0 -340 -146q-135 -144 -135 -350zM340 1235q8 57 47 93t96 36q64 0 144 -51q82 -49 131 -49q98 0 116 108l31 -2q-7 -68 -46 -106.5t-99 -38.5q-64 0 -146 49q-77 51 -129 51q-93 0 -114 -92z" />
<glyph unicode="&#xe4;" d="M88 516q0 228 150 381q150 156 368 156q161 0 286.5 -84.5t176.5 -227.5v291h43v-885q0 -122 96 -122q46 0 62 8v-37q-27 -10 -72 -10q-129 0 -129 161v144q-51 -143 -176.5 -227t-286.5 -84q-218 0 -368 153t-150 383zM131 516q0 -210 135 -354q139 -142 340 -142 q198 0 332 140q133 139 133 356t-133 356q-134 140 -332 140q-200 0 -340 -146q-135 -144 -135 -350zM367 1311q0 25 24 35.5t41 -9.5q20 -17 9.5 -41t-35.5 -24q-39 0 -39 39zM786 1311q0 17 11 28t28 11q23 0 33 -19.5t0.5 -39t-33.5 -19.5q-39 0 -39 39z" />
<glyph unicode="&#xe5;" d="M88 516q0 228 150 381q150 156 368 156q161 0 286.5 -84.5t176.5 -227.5v291h43v-885q0 -122 96 -122q46 0 62 8v-37q-27 -10 -72 -10q-129 0 -129 161v144q-51 -143 -176.5 -227t-286.5 -84q-218 0 -368 153t-150 383zM131 516q0 -210 135 -354q139 -142 340 -142 q198 0 332 140q133 139 133 356t-133 356q-134 140 -332 140q-200 0 -340 -146q-135 -144 -135 -350zM489 1287.5q0 51.5 37 88.5q38 38 92 38t91 -38q38 -37 38 -88.5t-38 -89.5q-37 -37 -91 -37t-92 37q-37 38 -37 89.5zM532 1288q0 -35 25 -61q26 -25 61 -25t60 25 q26 26 26 61t-26 60q-25 26 -60 26t-61 -26q-25 -25 -25 -60z" />
<glyph unicode="&#xe6;" horiz-adv-x="2154" d="M88 516q0 228 150 381q150 156 368 156q162 0 287 -84.5t176 -231.5v295h43v-307q56 150 182 240t283 90q205 0 348 -152q143 -149 143 -366q-2 0 -2 -29h-950q3 -214 133 -350q132 -138 330 -138q224 0 371 164l28 -26q-153 -178 -399 -178q-159 0 -285 86t-182 233 v-299h-43v295q-51 -147 -176 -231t-287 -84q-218 0 -368 153t-150 383zM131 516q0 -210 135 -354q139 -142 340 -142q198 0 332 140q133 139 133 356t-133 356q-134 140 -332 140q-200 0 -340 -146q-135 -144 -135 -350zM1118 549h905q-3 197 -133 330q-129 135 -313 135 q-189 0 -322 -133q-134 -134 -137 -332z" />
<glyph unicode="&#xe7;" horiz-adv-x="1091" d="M88 516q0 230 156 383q157 154 383 154q241 0 391 -166l-27 -29q-145 154 -364 154q-214 0 -355 -144q-141 -141 -141 -352q0 -210 141 -354q142 -142 355 -142q219 0 364 154l27 -29q-149 -165 -391 -165q-35 0 -45 2l-52 -113q6 2 25 2q48 0 80.5 -29t32.5 -75 q0 -49 -33 -77t-88 -28q-70 0 -119 43l21 29q44 -33 96 -33q35 0 57.5 17.5t22.5 43.5q0 76 -103 76q-1 0 -47 -4l68 152q-197 27 -328 176q-127 148 -127 354z" />
<glyph unicode="&#xe8;" horiz-adv-x="1150" d="M88 514v2q0 230 141 383q145 154 351 154q202 0 342 -152q141 -150 141 -366q0 -23 -2 -29h-930q3 -212 129 -350q129 -138 322 -138q218 0 362 164l29 -26q-150 -179 -391 -179q-210 0 -353 152q-141 153 -141 385zM133 547h885q-3 196 -131 330q-126 135 -307 135 q-185 0 -314 -135q-130 -133 -133 -330zM436 1427h51l140 -297h-37z" />
<glyph unicode="&#xe9;" horiz-adv-x="1150" d="M88 514v2q0 230 141 383q145 154 351 154q202 0 342 -152q141 -150 141 -366q0 -23 -2 -29h-930q3 -212 129 -350q129 -138 322 -138q218 0 362 164l29 -26q-150 -179 -391 -179q-210 0 -353 152q-141 153 -141 385zM133 547h885q-3 196 -131 330q-126 135 -307 135 q-185 0 -314 -135q-130 -133 -133 -330zM526 1130l140 297h51l-154 -297h-37z" />
<glyph unicode="&#xea;" horiz-adv-x="1150" d="M88 514v2q0 230 141 383q145 154 351 154q202 0 342 -152q141 -150 141 -366q0 -23 -2 -29h-930q3 -212 129 -350q129 -138 322 -138q218 0 362 164l29 -26q-150 -179 -391 -179q-210 0 -353 152q-141 153 -141 385zM133 547h885q-3 196 -131 330q-126 135 -307 135 q-185 0 -314 -135q-130 -133 -133 -330zM299 1180l274 258h37l275 -258h-58l-235 223l-238 -223h-55z" />
<glyph unicode="&#xeb;" horiz-adv-x="1150" d="M88 514v2q0 230 141 383q145 154 351 154q202 0 342 -152q141 -150 141 -366q0 -23 -2 -29h-930q3 -212 129 -350q129 -138 322 -138q218 0 362 164l29 -26q-150 -179 -391 -179q-210 0 -353 152q-141 153 -141 385zM133 547h885q-3 196 -131 330q-126 135 -307 135 q-185 0 -314 -135q-130 -133 -133 -330zM328 1311q0 17 11 28t28 11q23 0 33 -19.5t0.5 -39t-33.5 -19.5q-39 0 -39 39zM750 1311q0 17 10.5 28t27.5 11q23 0 33 -19.5t0.5 -39t-33.5 -19.5q-38 0 -38 39z" />
<glyph unicode="&#xec;" horiz-adv-x="370" d="M-16 1427h53l139 -297h-37zM135 137v895h43v-889q0 -118 94 -118q38 0 62 8v-39q-30 -10 -70 -10q-129 0 -129 153z" />
<glyph unicode="&#xed;" horiz-adv-x="370" d="M135 137v895h43v-889q0 -118 94 -118q38 0 62 8v-39q-30 -10 -70 -10q-129 0 -129 153zM137 1130l139 297h56l-158 -297h-37z" />
<glyph unicode="&#xee;" horiz-adv-x="370" d="M-80 1180l217 258h37l217 -258h-49l-186 227l-187 -227h-49zM135 137v895h43v-889q0 -118 94 -118q38 0 62 8v-39q-30 -10 -70 -10q-129 0 -129 153z" />
<glyph unicode="&#xef;" horiz-adv-x="370" d="M8 1313q0 37 39 37t39 -37q0 -24 -19.5 -34t-39 0t-19.5 34zM135 137v895h43v-889q0 -118 94 -118q38 0 62 8v-39q-30 -10 -70 -10q-129 0 -129 153zM223 1313q0 37 39 37q37 0 37 -37q0 -17 -10 -28t-27 -11q-39 0 -39 39z" />
<glyph unicode="&#xf0;" horiz-adv-x="1087" d="M88 442q0 195 131 326q133 133 322 133q137 0 243 -64t160 -182q-26 155 -116.5 302.5t-221.5 250.5l-192 -184l-27 29l186 180q-135 103 -301 153l9 41q181 -55 323 -163l184 178l31 -29l-182 -174q203 -172 287 -375q77 -186 77 -409q0 -206 -129 -338 q-128 -131 -327 -131q-195 0 -326 131t-131 325zM131 442q0 -177 117 -297q118 -118 297 -118q180 0 295 118q118 118 118 297q0 181 -118 299q-116 119 -295 119q-178 0 -297 -119q-117 -120 -117 -299z" />
<glyph unicode="&#xf1;" horiz-adv-x="1167" d="M133 0v1032h43v-274q27 128 133 210.5t260 82.5q180 0 293 -119q115 -121 115 -322v-442q0 -131 90 -131q17 0 47 6v-41q-21 -6 -53 -6q-127 0 -127 164v442q0 187 -102.5 297.5t-268.5 110.5q-181 0 -284 -130t-103 -352v-528h-43zM287 1235q8 57 47 93t96 36 q63 0 143 -51q82 -49 132 -49q98 0 116 108l31 -2q-8 -68 -46.5 -106.5t-98.5 -38.5q-64 0 -146 49q-77 51 -129 51q-94 0 -115 -92z" />
<glyph unicode="&#xf2;" horiz-adv-x="1243" d="M88 516q0 229 154 383t379 154q229 0 380 -154q154 -154 154 -383t-154 -383q-153 -153 -380 -153q-223 0 -379 153q-154 154 -154 383zM131 516q0 -209 139 -354q142 -142 351 -142q211 0 350 142q141 144 141 354q0 211 -141 352q-138 144 -350 144q-210 0 -351 -144 q-139 -142 -139 -352zM475 1427h51l140 -297h-37z" />
<glyph unicode="&#xf3;" horiz-adv-x="1243" d="M88 516q0 229 154 383t379 154q229 0 380 -154q154 -154 154 -383t-154 -383q-153 -153 -380 -153q-223 0 -379 153q-154 154 -154 383zM131 516q0 -209 139 -354q142 -142 351 -142q211 0 350 142q141 144 141 354q0 211 -141 352q-138 144 -350 144q-210 0 -351 -144 q-139 -142 -139 -352zM569 1130l140 297h51l-154 -297h-37z" />
<glyph unicode="&#xf4;" horiz-adv-x="1243" d="M88 516q0 229 154 383t379 154q229 0 380 -154q154 -154 154 -383t-154 -383q-153 -153 -380 -153q-223 0 -379 153q-154 154 -154 383zM131 516q0 -209 139 -354q142 -142 351 -142q211 0 350 142q141 144 141 354q0 211 -141 352q-138 144 -350 144q-210 0 -351 -144 q-139 -142 -139 -352zM328 1180l274 258h37l274 -258h-57l-235 223l-238 -223h-55z" />
<glyph unicode="&#xf5;" horiz-adv-x="1243" d="M88 516q0 229 154 383t379 154q229 0 380 -154q154 -154 154 -383t-154 -383q-153 -153 -380 -153q-223 0 -379 153q-154 154 -154 383zM131 516q0 -209 139 -354q142 -142 351 -142q211 0 350 142q141 144 141 354q0 211 -141 352q-138 144 -350 144q-210 0 -351 -144 q-139 -142 -139 -352zM338 1235q8 57 47 93t96 36q64 0 144 -51q82 -49 131 -49q98 0 116 108l31 -2q-7 -68 -46 -106.5t-99 -38.5q-64 0 -146 49q-77 51 -129 51q-93 0 -114 -92z" />
<glyph unicode="&#xf6;" horiz-adv-x="1243" d="M88 516q0 229 154 383t379 154q229 0 380 -154q154 -154 154 -383t-154 -383q-153 -153 -380 -153q-223 0 -379 153q-154 154 -154 383zM131 516q0 -209 139 -354q142 -142 351 -142q211 0 350 142q141 144 141 354q0 211 -141 352q-138 144 -350 144q-210 0 -351 -144 q-139 -142 -139 -352zM373 1311q0 17 11 28t28 11q23 0 33 -19.5t0.5 -39t-33.5 -19.5q-39 0 -39 39zM793 1311q0 25 24 35.5t41 -9.5q20 -17 9 -41t-36 -24q-38 0 -38 39z" />
<glyph unicode="&#xf7;" horiz-adv-x="798" d="M102 694v41h594v-41h-594zM360 500q0 17 11 28t28 11q23 0 33 -19.5t0.5 -39t-33.5 -19.5q-39 0 -39 39zM360 930q0 17 11 28t28 11q23 0 33 -19.5t0.5 -39t-33.5 -19.5q-39 0 -39 39z" />
<glyph unicode="&#xf8;" horiz-adv-x="1243" d="M88 516q0 229 154 383t379 154q168 0 307 -95l82 111l32 -22l-81 -111q194 -156 194 -420q0 -229 -154 -383q-153 -153 -380 -153q-168 0 -299 88l-86 -119l-33 22l88 119q-203 156 -203 426zM131 516q0 -249 184 -393l588 803q-127 86 -282 86q-210 0 -351 -144 q-139 -142 -139 -352zM346 100q121 -80 275 -80q211 0 350 142q141 144 141 354q0 241 -176 385z" />
<glyph unicode="&#xf9;" horiz-adv-x="1148" d="M121 422v610h43v-602q0 -190 100 -299q102 -108 264 -108q181 0 283 129.5t102 351.5v528h43v-885q0 -122 97 -122q45 0 61 8v-37q-27 -10 -72 -10q-129 0 -129 161v127q-27 -128 -132 -210t-259 -82q-179 0 -291 118q-110 119 -110 322zM403 1427h52l139 -297h-37z" />
<glyph unicode="&#xfa;" horiz-adv-x="1148" d="M121 422v610h43v-602q0 -190 100 -299q102 -108 264 -108q181 0 283 129.5t102 351.5v528h43v-885q0 -122 97 -122q45 0 61 8v-37q-27 -10 -72 -10q-129 0 -129 161v127q-27 -128 -132 -210t-259 -82q-179 0 -291 118q-110 119 -110 322zM475 1130l139 297h52l-154 -297 h-37z" />
<glyph unicode="&#xfb;" horiz-adv-x="1148" d="M121 422v610h43v-602q0 -190 100 -299q102 -108 264 -108q181 0 283 129.5t102 351.5v528h43v-885q0 -122 97 -122q45 0 61 8v-37q-27 -10 -72 -10q-129 0 -129 161v127q-27 -128 -132 -210t-259 -82q-179 0 -291 118q-110 119 -110 322zM244 1180l274 258h37l274 -258 h-57l-235 223l-238 -223h-55z" />
<glyph unicode="&#xfc;" horiz-adv-x="1148" d="M121 422v610h43v-602q0 -190 100 -299q102 -108 264 -108q181 0 283 129.5t102 351.5v528h43v-885q0 -122 97 -122q45 0 61 8v-37q-27 -10 -72 -10q-129 0 -129 161v127q-27 -128 -132 -210t-259 -82q-179 0 -291 118q-110 119 -110 322zM291 1313q0 37 37 37 q39 0 39 -37q0 -39 -39 -39q-17 0 -27 11t-10 28zM713 1313q0 37 37 37q38 0 38 -37q0 -39 -38 -39q-17 0 -27 11t-10 28z" />
<glyph unicode="&#xfd;" horiz-adv-x="974" d="M47 1032h47l383 -977l406 977h47l-510 -1220q-59 -140 -111 -183q-59 -47 -137 -47q-54 0 -84 15v41q34 -15 84 -15q66 0 111 39q42 36 92 154l78 184zM430 1130l139 297h52l-154 -297h-37z" />
<glyph unicode="&#xfe;" horiz-adv-x="1247" d="M133 -395v1822h43v-686q51 143 176.5 227.5t286.5 84.5q217 0 367 -156q151 -154 151 -381q0 -231 -149 -383q-150 -153 -369 -153q-161 0 -286.5 84t-176.5 227v-686h-43zM174 516q0 -219 131 -356q134 -140 334 -140q202 0 338 142q137 143 137 354q0 207 -137 350 q-137 146 -338 146q-200 0 -334 -140q-131 -137 -131 -356z" />
<glyph unicode="&#xff;" horiz-adv-x="974" d="M47 1032h47l383 -977l406 977h47l-510 -1220q-59 -140 -111 -183q-59 -47 -137 -47q-54 0 -84 15v41q34 -15 84 -15q66 0 111 39q42 36 92 154l78 184zM227 1311q0 25 24.5 35.5t41.5 -9.5q20 -17 9 -41t-36 -24q-39 0 -39 39zM649 1311q0 25 24.5 35.5t41.5 -9.5 q20 -17 9 -41t-36 -24q-39 0 -39 39z" />
<glyph unicode="&#x152;" horiz-adv-x="2344" d="M113 713q0 311 211 522q213 213 518 213q241 0 430 -148q187 -144 237 -360v487h691v-41h-648v-610h609v-41h-609v-694h662v-41h-705v485q-50 -218 -237 -362q-186 -143 -430 -143q-307 0 -518 208q-211 211 -211 525zM156 713q0 -297 196 -496q197 -197 490 -197 q286 0 477 197q190 199 190 496q0 295 -192 493q-195 201 -475 201q-287 0 -488 -201q-198 -198 -198 -493z" />
<glyph unicode="&#x153;" horiz-adv-x="2166" d="M88 516q0 228 152 383q154 154 376 154q185 0 324 -109q138 -108 184 -282q43 174 172 282q130 109 299 109q202 0 342 -152q142 -151 142 -366q0 -23 -2 -29h-930q3 -212 129 -350q129 -138 321 -138q219 0 363 164l29 -26q-150 -179 -392 -179q-174 0 -305 107 q-129 108 -170 285q-46 -175 -184 -283q-135 -106 -322 -106q-223 0 -376 153q-152 155 -152 383zM131 516q0 -209 139 -354q139 -142 346 -142q210 0 349 142q139 145 139 354q0 210 -139 352q-138 144 -349 144q-208 0 -346 -144q-139 -142 -139 -352zM1149 547h885 q-3 196 -131 330q-126 135 -308 135q-184 0 -313 -135q-130 -133 -133 -330z" />
<glyph unicode="&#x178;" horiz-adv-x="1161" d="M66 1427h49l465 -759l467 759h49l-494 -806v-621h-43v621zM332 1618q0 17 11 28t28 11q23 0 33 -19.5t0.5 -39t-33.5 -19.5q-39 0 -39 39zM752 1618q0 25 24 36t41 -9q20 -17 9.5 -41.5t-35.5 -24.5q-39 0 -39 39z" />
<glyph unicode="&#x2c6;" horiz-adv-x="1282" d="M346 1180l270 258h46l270 -258h-55l-238 227l-238 -227h-55z" />
<glyph unicode="&#x2dc;" horiz-adv-x="1224" d="M336 1315q8 57 47 93t96 36q64 0 144 -51q83 -50 131 -50q98 0 116 109l31 -2q-7 -68 -46 -106.5t-99 -38.5q-64 0 -146 49q-77 51 -129 51q-93 0 -114 -92z" />
<glyph unicode="&#x2000;" horiz-adv-x="916" />
<glyph unicode="&#x2001;" horiz-adv-x="1833" />
<glyph unicode="&#x2002;" horiz-adv-x="916" />
<glyph unicode="&#x2003;" horiz-adv-x="1833" />
<glyph unicode="&#x2004;" horiz-adv-x="611" />
<glyph unicode="&#x2005;" horiz-adv-x="458" />
<glyph unicode="&#x2006;" horiz-adv-x="305" />
<glyph unicode="&#x2007;" horiz-adv-x="305" />
<glyph unicode="&#x2008;" horiz-adv-x="229" />
<glyph unicode="&#x2009;" horiz-adv-x="366" />
<glyph unicode="&#x200a;" horiz-adv-x="101" />
<glyph unicode="&#x2010;" horiz-adv-x="634" d="M100 516v41h437v-41h-437z" />
<glyph unicode="&#x2011;" horiz-adv-x="634" d="M100 516v41h437v-41h-437z" />
<glyph unicode="&#x2012;" horiz-adv-x="634" d="M100 516v41h437v-41h-437z" />
<glyph unicode="&#x2013;" horiz-adv-x="966" d="M100 516v41h766v-41h-766z" />
<glyph unicode="&#x2014;" horiz-adv-x="1507" d="M100 516v41h1307v-41h-1307z" />
<glyph unicode="&#x2018;" horiz-adv-x="331" d="M66 911l241 516h35l-213 -516h-63z" />
<glyph unicode="&#x2019;" horiz-adv-x="335" d="M4 911l215 516h64l-242 -516h-37z" />
<glyph unicode="&#x201a;" horiz-adv-x="333" d="M12 -262l203 489h61l-229 -489h-35z" />
<glyph unicode="&#x201c;" horiz-adv-x="575" d="M66 911l241 516h35l-213 -516h-63zM309 911l242 516h35l-213 -516h-64z" />
<glyph unicode="&#x201d;" horiz-adv-x="579" d="M4 911l215 516h64l-242 -516h-37zM248 911l215 516h63l-241 -516h-37z" />
<glyph unicode="&#x201e;" horiz-adv-x="571" d="M12 -262l203 489h61l-229 -489h-35zM256 -262l203 489h61l-229 -489h-35z" />
<glyph unicode="&#x2022;" horiz-adv-x="364" d="M122.5 491.5q-17.5 40.5 12.5 71.5q31 31 73 14.5t42 -61.5q0 -27 -19.5 -46t-48.5 -19q-42 0 -59.5 40.5z" />
<glyph unicode="&#x2026;" horiz-adv-x="823" d="M117 33q0 25 24 35.5t41 -9.5q20 -17 9.5 -41t-35.5 -24q-39 0 -39 39zM373 33q0 17 11 28t28 11q23 0 33 -19.5t0.5 -39t-33.5 -19.5q-39 0 -39 39zM631 33q0 17 11 28t28 11q23 0 33 -19.5t0.5 -39t-33.5 -19.5q-39 0 -39 39z" />
<glyph unicode="&#x202f;" horiz-adv-x="366" />
<glyph unicode="&#x2039;" horiz-adv-x="446" d="M88 518l225 359h47l-225 -359l225 -358h-47z" />
<glyph unicode="&#x203a;" horiz-adv-x="446" d="M88 160l225 358l-225 359h47l225 -359l-225 -358h-47z" />
<glyph unicode="&#x205f;" horiz-adv-x="458" />
<glyph unicode="&#x20ac;" horiz-adv-x="1552" d="M86 543l18 41h162q-10 52 -10 129q0 91 14 151h-135l19 41h125q58 243 241 391q187 152 428 152q287 0 490 -209l-29 -29q-191 197 -461 197q-225 0 -399 -139q-169 -138 -225 -363h626l-16 -41h-619q-16 -82 -16 -151q0 -65 12 -129h508l-18 -41h-482q47 -233 222 -377 q178 -146 407 -146q280 0 467 199l29 -29q-198 -210 -496 -210q-250 0 -436 155q-184 153 -238 408h-188z" />
<glyph unicode="&#x2122;" horiz-adv-x="1591" d="M61 1386v41h574v-41h-266v-718h-43v718h-265zM729 668v759h8l355 -503l354 503h10v-759h-43v639l-321 -453l-320 453v-639h-43z" />
<glyph unicode="&#x25fc;" horiz-adv-x="1034" d="M0 0v1034h1034v-1034h-1034z" />
<glyph unicode="&#xfb01;" horiz-adv-x="931" d="M66 991v41h151v109q0 141 51 209q69 96 215 96q63 0 84 -8v-41q-33 8 -88 8q-221 0 -221 -260v-113h481v-889q0 -118 95 -118q37 0 61 8v-39q-30 -10 -70 -10q-129 0 -129 153v854h-438v-991h-41v991h-151z" />
<glyph unicode="&#xfb02;" horiz-adv-x="1048" d="M66 991v41h151v109q0 166 80 243q65 62 178 62q59 0 80 -8v-39q-30 6 -84 6q-211 0 -211 -260v-113h268v-41h-268v-991h-43v991h-151zM637 260v1167h43v-1165q0 -242 186 -242q42 0 99 11v-41q-52 -10 -99 -10q-229 0 -229 280z" />
<glyph unicode="&#xfb03;" horiz-adv-x="1411" d="M66 991v41h151v109q0 305 258 305q59 0 80 -8v-41q-33 8 -84 8q-213 0 -213 -260v-113h438v109q0 139 52 209q69 96 215 96q63 0 84 -8v-41q-33 8 -89 8q-221 0 -221 -260v-113h482v-889q0 -118 94 -118q37 0 61 8v-39q-30 -10 -69 -10q-129 0 -129 153v854h-439v-991 h-41v991h-438v-991h-41v991h-151z" />
<glyph unicode="&#xfb04;" horiz-adv-x="1617" d="M66 991v41h151v109q0 305 258 305q59 0 80 -8v-39q-30 6 -84 6q-211 0 -211 -260v-113h436v109q0 305 258 305q59 0 80 -8v-39q-30 6 -84 6q-211 0 -211 -260v-113h269v-41h-269v-991h-43v991h-436v-991h-43v991h-151zM1206 260v1167h43v-1165q0 -242 187 -242 q41 0 98 11v-41q-52 -10 -98 -10q-230 0 -230 280z" />
</font>
</defs>
</svg>
